Henri Dutilleux - The Centenary Edition (2015) {7CD Box Set Erato-Warner Classics}

Posted By: ruskaval
Henri Dutilleux - The Centenary Edition (2015) {7CD Box Set Erato-Warner Classics}

Henri Dutilleux - The Centenary Edition (2015) {7CD Box Set Erato-Warner Classics}
EAC rip (secure mode) | FLAC (tracks)+CUE+LOG -> 1.68 Gb | MP3 @320 -> 1.00 Gb
Full Artwork @ 300 dpi (png) -> 144 Mb | 5% repair rar
© 2015 Erato / Warner Classics / Parlophone | 0825646047987
Classical / Contemporary Classical / Chamber Music / Symphony / Orchestral Works / Piano / Violin

Assembled to mark the centenary of Henri Dutilleux (1916-2013), this collection of recordings, produced over a period of nearly 60 years, is unrivalled in its scope. Equally remarkable is its array of performers; among them are such dedicatees of the composer’s works as Mstislav Rostropovich, Renée Fleming, Seiji Ozawa and Paul Sacher. Quintessentially French, Dutilleux captured the imagination of audiences around the world with his iridescent, yet formally coherent scores, which engender narratives filled with memories and mystery.
Henri Dutilleux - The Centenary Edition (2015) {7CD Box Set Erato-Warner Classics}

2016, année Dutilleux ! Un coffret précieux, où l'on retrouve la quintessence de l'oeuvre singulière et raffinée du compositeur disparu il y a trois ans.

S'il n'était pas décédé en mai 2013, Henri Dutilleux aurait eu 100 ans le 22 janvier. Les autorités de son pays natal ne l'ont guère honoré lors de sa disparition et semblent vouloir se rattraper en lui dédiant une année « Dutilleux 2016 », lancée le 22 janvier à la Philharmonie de Paris, dans le cadre d'une journée thématique avec conférences, tables rondes et concert. En attendant d'en savoir plus sur la centaine d'événements prévus dans les mois qui viennent (1) , il est déjà possible de se (re)plonger avec délices dans l'oeuvre (restreinte, car cent fois remise sur le métier par un auteur perfectionniste) rassemblée dans un coffret remarquable, ne serait-ce que par la pertinence et la qualité des interprétations choisies.

Henri Dutilleux - The Centenary Edition (2015) {7CD Box Set Erato-Warner Classics}


On apprécie ainsi d'entendre la Sonate pour piano (1948) jouée par sa dédicataire, Geneviève Joy, épouse de Dutilleux, par ailleurs accompagnée par son mari dans les Figures de résonance (1970-1976). Même s'il a été fort bien interprété par d'autres (dont la violoncelliste Emmanuelle Bertrand, cet automne, pour Harmonia Mundi), écouter Tout un monde lointain (1970), concerto pour violoncelle réclamé à Dutilleux par Mstislav Rostropovitch, dans la version où le soliste, entouré par l'Orchestre de Paris, n'est autre que le commanditaire, procure une émotion particulière. Soucieux, comme l'indique le livret, de se faire « l'écho [des] généalogies interprétatives », le coffret ne retient pas systématiquement les musiciens qui ont présidé à la création de chaque pièce. Si Seiji Ozawa et l'Orchestre symphonique de Boston interprètent naturellement The Shadows of time (1997), oeuvre pour orchestre et voix d'enfants composée spécialement pour eux, Métaboles (1965) et la Symphonie nº 1 (1951) revivent dans le récent et superbe enregistrement de l'Orchestre de Paris, dirigé par Paavo Järvi. Et les subjuguantes Correspondances (2003), écrites pour la soprano Dawn Upshaw, reviennent ici à Barbara Hannigan, qui les a enregistrées en 2011 avec l'Orchestre philharmonique de Radio France et le chef Esa-Pekka Salonen.

Impossible de citer ici tous les artistes qui ont contribué, en soignant timbres et couleurs, à rendre irrésistibles (et immédiatement accessibles) ces pièces souvent concises, toujours inventives et raffinées, qui se suivent sans se ressembler et n'appartiennent à aucune école. Mais on ne trouvera aucune fausse note dans cette anthologie (2) , idéale pour (re)découvrir le riche univers musical d'Henri Dutilleux. — Sophie Bourdais
Henri Dutilleux - The Centenary Edition (2015) {7CD Box Set Erato-Warner Classics}


tracklist & personnel:
Disc: 1

1. Symphony No. 1: I. Passacaille Andante (Paavo Järvi)
2. Symphony No. 1: II. Scherzo Molto vivace (Paavo Järvi)
3. Symphony No. 1: III. Intermezzo. Lento (Paavo Järvi)
4. Symphony No. 1: IV. Finale, con variazioni (Paavo Järvi)
5. Dutilleux : Symphony No. 2 - Animato ma misterioso (Charles Münch)
6. Dutilleux : Symphony No. 2 - Andante sostenuto (Charles Münch)
7. Dutilleux : Symphony No. 2 - Allegro furoso - calmato (Charles Münch)

Henri Dutilleux - The Centenary Edition (2015) {7CD Box Set Erato-Warner Classics}


Disc: 2
1. Le Loup - 1er Tableau : Une clairière - Le Montreur de bêtes - Passage de la noce - Variations de la (Jean Anouilh - Paul Bonneau - Orchestre Du Theatre Des Champs Elysees)
2. Le Loup - 2ème Tableau : La chambre nuptiale (Pas de deux) - Adage (Le loup et la belle) - Interrupt (Jean Anouilh - Paul Bonneau - Orchestre Du Theatre Des Champs Elysees)
3. Le Loup - 3ème Tableau : La forêt - Pas de deux - Poursuite du Loup et de la Belle - La mort (Jean Anouilh - Paul Bonneau - Orchestre Du Theatre Des Champs Elysees)
4. Métaboles: I. Incantatoire (Paavo Järvi)
5. Métaboles: II. Linéaire (Paavo Järvi)
6. Métaboles: III. Obsessionnel (Paavo Järvi)
7. Métaboles: IV. Torpide (Paavo Järvi)
8. Métaboles: V. Flamboyant (Paavo Järvi)
9. Timbres, espace, mouvement ou "La nuit étoilée" : Premier mouvement (Msistlav Rostropovitch)
10. Timbres, espace, mouvement ou "La nuit étoilée" : Deuxième mouvement (Msistlav Rostropovitch)

Henri Dutilleux - The Centenary Edition (2015) {7CD Box Set Erato-Warner Classics}


Disc: 3
1. Mystère de l'instant : 1. Appels (Paul Sacher and the Collegium musicum)
2. Mystère de l'instant : 2. Echos (Paul Sacher and the Collegium musicum)
3. Mystère de l'instant : 3. Prismes (Paul Sacher and the Collegium musicum)
4. Mystère de l'instant : 4. Espaces lointains (Paul Sacher and the Collegium musicum)
5. Mystère de l'instant : 5. Litanies (Paul Sacher and the Collegium musicum)
6. Mystère de l'instant : 6. Choral (Paul Sacher and the Collegium musicum)
7. Mystère de l'instant : 7. Rumeurs (Paul Sacher and the Collegium musicum)
8. Mystère de l'instant : 8. Soliloques (Paul Sacher and the Collegium musicum)
9. Mystère de l'instant : 9. Métamorphoses (sur le nom de Sacher) (Paul Sacher and the Collegium musicum)
10. Mystère de l'instant : 10. Embrasement (Paul Sacher and the Collegium musicum)
11. The shadows of time : Les heures (Seiji Ozawa and the Boston Symphony Orchestra)
12. The shadows of time : Ariel maléfique (Seiji Ozawa and the Boston Symphony Orchestra)
13. The shadows of time : Mémoires des ombres "Pour Anne Frank, et pour tous les enfants du monde, innoc (Seiji Ozawa and the Boston Symphony Orchestra)
14. The shadows of time : Vagues de lumière (Seiji Ozawa and the Boston Symphony Orchestra)
15. The shadows of time : Dominante bleue ? (Seiji Ozawa and the Boston Symphony Orchestra)
16. Dutilleux - Le Loup - 1er tableau : La baraque foraine les mystifications (Georges Prêtre - Orch Ste Conc Du Conservatoire)
17. Dutilleux - Le Loup - 2ème tableau - La chambre nuptiale : La Belle et la Bête (Orch Ste Conc Du Conservatoire - Georges Prêtre)
18. Dutilleux - Le Loup - 3eme tableau : La Foret d'hiver Danse d'amour - Danse de mort (Georges Prêtre - Orch Ste Conc Du Conservatoire)

Henri Dutilleux - The Centenary Edition (2015) {7CD Box Set Erato-Warner Classics}


Disc: 4
1. Cello Concerto (Tout un monde lointain) (2002 Remastered Version): I. Enigme (Très libre et flexible (Mstislav Rostropovich/Orchestre de Paris/Serge Baudo)
2. Cello Concerto (Tout un monde lointain) (2002 Remastered Version): II. Regard (Extrêmement calme) (Mstislav Rostropovich/Orchestre de Paris/Serge Baudo)
3. Cello Concerto (Tout un monde lointain) (2002 Remastered Version): III. Houles (Large et ample) (Mstislav Rostropovich/Orchestre de Paris/Serge Baudo)
4. Cello Concerto (Tout un monde lointain) (2002 Remastered Version): IV. Miroirs (Lent et extatique) (Mstislav Rostropovich/Orchestre de Paris/Serge Baudo)
5. Cello Concerto (Tout un monde lointain) (2002 Remastered Version): V. Hymne (Allegro) (Mstislav Rostropovich/Orchestre de Paris/Serge Baudo)
6. Trois Strophes sur le nom de Sacher for unaccompanied cello: I. Un poco indeciso (Truls Mørk/Geoff Miles)
7. Trois Strophes sur le nom de Sacher for unaccompanied cello: II. Andante sostenuto (Truls Mørk/Geoff Miles)
8. Trois Strophes sur le nom de Sacher for unaccompanied cello: III. Vivace (Truls Mørk/Geoff Miles)
9. L'Arbre des songes (Violin Concerto): I. Librement (Renaud Capuçon/Orchestre Philharmonique de Radio France/Myung-Whun Chung)
10. L'Arbre des songes (Violin Concerto): Interlude 1 (Renaud Capuçon/Orchestre Philharmonique de Radio France/Myung-Whun Chung)
11. L'Arbre des songes (Violin Concerto): II. Vif (Renaud Capuçon/Orchestre Philharmonique de Radio France/Myung-Whun Chung)
12. L'Arbre des songes (Violin Concerto): Interlude 2 (Renaud Capuçon/Orchestre Philharmonique de Radio France/Myung-Whun Chung)
13. L'Arbre des songes (Violin Concerto): III. Lent (Renaud Capuçon/Orchestre Philharmonique de Radio France/Myung-Whun Chung)
14. L'Arbre des songes (Violin Concerto): Interlude 3 (Renaud Capuçon/Orchestre Philharmonique de Radio France/Myung-Whun Chung)
15. L'Arbre des songes (Violin Concerto): IV. Large et animé (Renaud Capuçon/Orchestre Philharmonique de Radio France/Myung-Whun Chung)
16. Sur le même accord (Paavo Järvi)

Henri Dutilleux - The Centenary Edition (2015) {7CD Box Set Erato-Warner Classics}


Disc: 5
1. Deux sonnets de Jean Cassou : "Il n'y avait que des troncs déchirés" (Henri Dutilleux and Gilles Cachemaille)
2. Deux sonnets de Jean Cassou : "J'ai rêvé que je vous portais entre mes bras" (Henri Dutilleux and Gilles Cachemaille)
3. "San Francisco Night" (Dawn Upshaw)
4. Correspondances: I. Gong (1) (Henri Dutilleux)
5. Correspondances: II. Danse cosmique (Henri Dutilleux)
6. Correspondances: Interlude (Henri Dutilleux)
7. Correspondances: III. A Slava et Galina (Henri Dutilleux)
8. Correspondances: IV. Gong (2) (Henri Dutilleux)
9. Correspondances: V. De Vincent à Théo (Henri Dutilleux)
10. Le Temps l'horloge: I. Le Temps l'horloge (Henri Dutilleux)
11. Le Temps l'horloge: II. Le Masque (Henri Dutilleux)
12. Le Temps l'horloge: III. Le dernier poème (Henri Dutilleux)
13. Le Temps l'horloge: IV. Interlude (Henri Dutilleux)
14. Le Temps l'horloge: V. Enivrez-vous (Henri Dutilleux)

Henri Dutilleux - The Centenary Edition (2015) {7CD Box Set Erato-Warner Classics}


Disc: 6
1. Sonate : allegro con moto (Geneviève Joy)
2. Sonate : Lied (Geneviève Joy)
3. Sonate : Choral et variations (Geneviève Joy)
4. Trois préludes : D'ombre et de silence (Geneviève Joy)
5. Trois préludes : Sur un même accord (Geneviève Joy)
6. Trois préludes : Le jeu des contraires (Geneviève Joy)
7. Figures de résonances pour 2 piano : I (Geneviève Joy and Henri Dutilleux)
8. Figures de résonnances pour 2 piano : II (Geneviève Joy and Henri Dutilleux)
9. Figures de résonnances pour 2 piano : III (Geneviève Joy and Henri Dutilleux)
10. Figures de résonnances pour 2 piano : IV (Geneviève Joy and Henri Dutilleux)
11. 'Tous les chemins .. menet à Rome', extrait de la 'Petite méthode de piano' de Marguerite Long (Anne Queffélec)
12. Bergerie, extrait du recueil 'Jardin d`enfants' (Anne Queffélec)
13. Blackbird (Anne Queffélec)
14. Résonances (1965) (dédié à Lucette Descaves),extraitdu recueil 'Les nouveaux musiciens' (Anne Queffélec)
15. Au gré des ondes: 6 petites pièces pour piano: I. Prélude en berceuse (Anne Queffélec)
16. Au gré des ondes: 6 petites pièces pour piano: II. Claquettes (Anne Queffélec)
17. Au gré des ondes: 6 petites pièces pour piano: III. Improvisation (Anne Queffélec)
18. Au gré des ondes: 6 petites pièces pour piano: IV. Mouvement perpétuel (Anne Queffélec)
19. Au gré des ondes: 6 petites pièces pour piano: V. Hommage à Bach (Anne Queffélec)
20. Au gré des ondes: 6 petites pièces pour piano: VI. Etude (Anne Queffélec)

Henri Dutilleux - The Centenary Edition (2015) {7CD Box Set Erato-Warner Classics}


Disc: 7
1. "Ainsi la nuit" : I - Nocturne (Quatuor sine nomine)
2. "Ainsi la nuit" : II - Miroir d'espace (Quatuor sine nomine)
3. "Ainsi la nuit" : III - Litanies (Quatuor sine nomine)
4. "Ainsi la nuit" : IV - Litanies 2 (Quatuor sine nomine)
5. "Ainsi la nuit" : V - Constellations / VI - Nocturne 2 / VII - Temps suspendu (Quatuor sine nomine)
6. Sonatine: Allegro (Emmanuel Pahud/Eric Le Sage)
7. Sonatine: Andante (Emmanuel Pahud/Eric Le Sage)
8. Sonatine: Animé (NV) (NV) (Emmanuel Pahud/Eric Le Sage)
9. Sonata for oboe and piano 1947: I. Aria: grave (Nicholas Daniel/Julius Drake)
10. Sonata for oboe and piano 1947: II. Scherzo: vif (Nicholas Daniel/Julius Drake)
11. Sonata for oboe and piano 1947: III. Final: assez allant (Nicholas Daniel/Julius Drake)
12. Sarabande et cortège pour basson et piano: Sarabande (Pascal Godart/Marc Trénel)
13. Sarabande et cortège pour basson et piano: Cortège (Pascal Godart/Marc Trénel)
14. Choral, cadence et fugure pour trombone et piano: Choral (Daniel Breszynski/Pascal Godart)
15. Choral, cadence et fugure pour trombone et piano: Cadence et fugue (Daniel Breszynski/Pascal Godart)
16. Les citations : For Aldeburgh 85 (Various)
17. Les citations : From Jannequin to Jehan Alain (Various)

Henri Dutilleux - The Centenary Edition (2015) {7CD Box Set Erato-Warner Classics}


Exact Audio Copy V1.1 from 23. June 2015

EAC extraction logfile from 2. April 2016, 16:21

- / Centenary Edition CD1

Used drive : ATAPI iHBS112 2 Adapter: 1 ID: 1

Read mode : Secure
Utilize accurate stream : Yes
Defeat audio cache : Yes
Make use of C2 pointers : No

Read offset correction : 6
Overread into Lead-In and Lead-Out : No
Fill up missing offset samples with silence : Yes
Delete leading and trailing silent blocks : No
Null samples used in CRC calculations : Yes
Used interface : Native Win32 interface for Win NT & 2000
Gap handling : Appended to previous track

Used output format : User Defined Encoder
Selected bitrate : 768 kBit/s
Quality : High
Add ID3 tag : No
Command line compressor : C:\Program Files\Exact Audio Copy\FLAC\FLAC.EXE
Additional command line options : -8 -V -T "ARTIST=%artist%" -T "TITLE=%title%" -T "ALBUM=%albumtitle%" -T "DATE=%year%" -T "TRACKNUMBER=%tracknr%" -T "GENRE=%genre%" -T "PERFORMER=%albuminterpret%" -T "COMPOSER=%composer%" -T "ALBUMARTIST=%albumartist%" -T "DISCNUMBER=%cdnumber%" -T "TOTALDISCS=%totalcds%" -T "TOTALTRACKS=%numtracks%" -T "COMMENT=EAC Secure Mode, Test & Copy, AccurateRip, FLAC -8" %source% -o %dest%


TOC of the extracted CD

Track | Start | Length | Start sector | End sector
––––––––––––––––––––––––––––-
1 | 0:00.00 | 7:21.12 | 0 | 33086
2 | 7:21.12 | 5:48.37 | 33087 | 59223
3 | 13:09.49 | 6:37.16 | 59224 | 89014
4 | 19:46.65 | 10:01.04 | 89015 | 134093
5 | 29:47.69 | 8:03.04 | 134094 | 170322
6 | 37:50.73 | 8:43.34 | 170323 | 209581
7 | 46:34.32 | 11:52.51 | 209582 | 263032


Track 1

Filename F:\DL\Henri Dutilleux - Centenary Edition CD1 (2015) [FLAC]\01 - Orchestre de Paris, Paavo Jarvi - Symphony No. 1 - I. Passacaille Andante.wav

Pre-gap length 0:00:02.00

Peak level 79.4 %
Extraction speed 5.4 X
Track quality 100.0 %
Test CRC 4D3F1D97
Copy CRC 4D3F1D97
Accurately ripped (confidence 1) [D5EEC4E1] (AR v2)
Copy OK

Track 2

Filename F:\DL\Henri Dutilleux - Centenary Edition CD1 (2015) [FLAC]\02 - Orchestre de Paris, Paavo Jarvi - Symphony No. 1 - II. Scherzo Molto vivace.wav

Peak level 82.9 %
Extraction speed 6.1 X
Track quality 100.0 %
Test CRC 2E68526C
Copy CRC 2E68526C
Accurately ripped (confidence 1) [FE66D771] (AR v2)
Copy OK

Track 3

Filename F:\DL\Henri Dutilleux - Centenary Edition CD1 (2015) [FLAC]\03 - Orchestre de Paris, Paavo Jarvi - Symphony No. 1 - III. Intermezzo. Lento.wav

Peak level 33.9 %
Extraction speed 6.1 X
Track quality 100.0 %
Test CRC 5588B67C
Copy CRC 5588B67C
Accurately ripped (confidence 1) [06DC74B6] (AR v2)
Copy OK

Track 4

Filename F:\DL\Henri Dutilleux - Centenary Edition CD1 (2015) [FLAC]\04 - Orchestre de Paris, Paavo Jarvi - Symphony No. 1 - IV. Finale, con variazioni.wav

Peak level 94.0 %
Extraction speed 7.8 X
Track quality 100.0 %
Test CRC DEE59F12
Copy CRC DEE59F12
Accurately ripped (confidence 1) [8899B89B] (AR v2)
Copy OK

Track 5

Filename F:\DL\Henri Dutilleux - Centenary Edition CD1 (2015) [FLAC]\05 - Orchestre des Concerts Lamoureux, Charles Munch - Symphony No. 2 - I. Animato ma misterioso.wav

Pre-gap length 0:00:07.00

Peak level 83.0 %
Extraction speed 7.7 X
Track quality 99.9 %
Test CRC F4076A9E
Copy CRC F4076A9E
Accurately ripped (confidence 1) [CB43CE95] (AR v2)
Copy OK

Track 6

Filename F:\DL\Henri Dutilleux - Centenary Edition CD1 (2015) [FLAC]\06 - Orchestre des Concerts Lamoureux, Charles Munch - Symphony No. 2 - II. Andante sostenuto.wav

Peak level 58.6 %
Extraction speed 9.0 X
Track quality 100.0 %
Test CRC 0B3D4986
Copy CRC 0B3D4986
Accurately ripped (confidence 1) [52C7E6FC] (AR v2)
Copy OK

Track 7

Filename F:\DL\Henri Dutilleux - Centenary Edition CD1 (2015) [FLAC]\07 - Orchestre des Concerts Lamoureux, Charles Munch - Symphony No. 2 - III. Allegro furoso - calmato.wav

Peak level 87.7 %
Extraction speed 6.7 X
Track quality 99.8 %
Test CRC EFF115B4
Copy CRC EFF115B4
Accurately ripped (confidence 1) [51521901] (AR v2)
Copy OK


All tracks accurately ripped

No errors occurred

End of status report

–– CUETools DB Plugin V2.1.6

[CTDB TOCID: ohY7gt4R0NhBA7qphXZAVygYeok-] found
Submit result: ohY7gt4R0NhBA7qphXZAVygYeok- has been confirmed
Track | CTDB Status
1 | (3/3) Accurately ripped
2 | (3/3) Accurately ripped
3 | (3/3) Accurately ripped
4 | (3/3) Accurately ripped
5 | (3/3) Accurately ripped
6 | (3/3) Accurately ripped
7 | (3/3) Accurately ripped


==== Log checksum 956F72E46590E4AE4B7769D64C3DCDA13C0B48BEC4764F4B57CB2E5004E10D77 ====

Exact Audio Copy V1.1 from 23. June 2015

EAC extraction logfile from 2. April 2016, 18:22

- / Centenary Edition CD2

Used drive : ATAPI iHBS112 2 Adapter: 1 ID: 1

Read mode : Secure
Utilize accurate stream : Yes
Defeat audio cache : Yes
Make use of C2 pointers : No

Read offset correction : 6
Overread into Lead-In and Lead-Out : No
Fill up missing offset samples with silence : Yes
Delete leading and trailing silent blocks : No
Null samples used in CRC calculations : Yes
Used interface : Native Win32 interface for Win NT & 2000
Gap handling : Appended to previous track

Used output format : User Defined Encoder
Selected bitrate : 768 kBit/s
Quality : High
Add ID3 tag : No
Command line compressor : C:\Program Files\Exact Audio Copy\FLAC\FLAC.EXE
Additional command line options : -8 -V -T "ARTIST=%artist%" -T "TITLE=%title%" -T "ALBUM=%albumtitle%" -T "DATE=%year%" -T "TRACKNUMBER=%tracknr%" -T "GENRE=%genre%" -T "PERFORMER=%albuminterpret%" -T "COMPOSER=%composer%" -T "ALBUMARTIST=%albumartist%" -T "DISCNUMBER=%cdnumber%" -T "TOTALDISCS=%totalcds%" -T "TOTALTRACKS=%numtracks%" -T "COMMENT=EAC Secure Mode, Test & Copy, AccurateRip, FLAC -8" %source% -o %dest%


TOC of the extracted CD

Track | Start | Length | Start sector | End sector
––––––––––––––––––––––––––––-
1 | 0:00.00 | 11:23.17 | 0 | 51241
2 | 11:23.17 | 11:09.69 | 51242 | 101485
3 | 22:33.11 | 7:57.58 | 101486 | 137318
4 | 30:30.69 | 3:44.69 | 137319 | 154187
5 | 34:15.63 | 3:21.70 | 154188 | 169332
6 | 37:37.58 | 3:06.28 | 169333 | 183310
7 | 40:44.11 | 2:47.09 | 183311 | 195844
8 | 43:31.20 | 4:15.55 | 195845 | 215024
9 | 47:47.00 | 7:55.30 | 215025 | 250679
10 | 55:42.30 | 6:59.42 | 250680 | 282146


Track 1

Filename F:\DL\Henri Dutilleux - Centenary Edition CD2 (2015) [FLAC]\01 - Orchestre du Theatre des Champs-Elysees, Paul Bonneau - Le Loup - 1er Tableau.wav

Pre-gap length 0:00:02.00

Peak level 98.0 %
Extraction speed 5.5 X
Track quality 99.9 %
Test CRC 5A82BBF6
Copy CRC 5A82BBF6
Accurately ripped (confidence 1) [7FE6FEF9] (AR v2)
Copy OK

Track 2

Filename F:\DL\Henri Dutilleux - Centenary Edition CD2 (2015) [FLAC]\02 - Orchestre du Theatre des Champs-Elysees, Paul Bonneau - Le Loup - 2eme Tableau.wav

Peak level 81.5 %
Extraction speed 7.3 X
Track quality 100.0 %
Test CRC 4D0A7EA0
Copy CRC 4D0A7EA0
Accurately ripped (confidence 1) [207662F1] (AR v2)
Copy OK

Track 3

Filename F:\DL\Henri Dutilleux - Centenary Edition CD2 (2015) [FLAC]\03 - Orchestre du Theatre des Champs-Elysees, Paul Bonneau - Le Loup - 3eme Tableau.wav

Peak level 96.3 %
Extraction speed 7.4 X
Track quality 99.9 %
Test CRC 2582DB34
Copy CRC 2582DB34
Accurately ripped (confidence 1) [599FF96F] (AR v2)
Copy OK

Track 4

Filename F:\DL\Henri Dutilleux - Centenary Edition CD2 (2015) [FLAC]\04 - Orchestre de Paris, Paavo Jarvi - Metaboles - I Incantatoire.wav

Pre-gap length 0:00:07.00

Peak level 77.2 %
Extraction speed 7.9 X
Track quality 100.0 %
Test CRC B61E2762
Copy CRC B61E2762
Accurately ripped (confidence 1) [4CA147AD] (AR v2)
Copy OK

Track 5

Filename F:\DL\Henri Dutilleux - Centenary Edition CD2 (2015) [FLAC]\05 - Orchestre de Paris, Paavo Jarvi - Metaboles - II Lineaire.wav

Peak level 56.8 %
Extraction speed 8.0 X
Track quality 100.0 %
Test CRC B18FA85D
Copy CRC B18FA85D
Accurately ripped (confidence 1) [0D1DD481] (AR v2)
Copy OK

Track 6

Filename F:\DL\Henri Dutilleux - Centenary Edition CD2 (2015) [FLAC]\06 - Orchestre de Paris, Paavo Jarvi - Metaboles - III Obsessionnel.wav

Peak level 92.5 %
Extraction speed 7.9 X
Track quality 100.0 %
Test CRC F85DB2B7
Copy CRC F85DB2B7
Accurately ripped (confidence 1) [1376A52C] (AR v2)
Copy OK

Track 7

Filename F:\DL\Henri Dutilleux - Centenary Edition CD2 (2015) [FLAC]\07 - Orchestre de Paris, Paavo Jarvi - Metaboles - IV Torpide.wav

Peak level 26.1 %
Extraction speed 7.9 X
Track quality 100.0 %
Test CRC 8BE6EC41
Copy CRC 8BE6EC41
Accurately ripped (confidence 1) [857EF821] (AR v2)
Copy OK

Track 8

Filename F:\DL\Henri Dutilleux - Centenary Edition CD2 (2015) [FLAC]\08 - Orchestre de Paris, Paavo Jarvi - Metaboles - V Flamboyant.wav

Peak level 93.6 %
Extraction speed 8.8 X
Track quality 100.0 %
Test CRC CB11D9AA
Copy CRC CB11D9AA
Accurately ripped (confidence 1) [DF544E7F] (AR v2)
Copy OK

Track 9

Filename F:\DL\Henri Dutilleux - Centenary Edition CD2 (2015) [FLAC]\09 - Orchestre National de France, Mstislav Rostropovich - Timbres, espace, mouvement ou 'La Nuit etoilee' - 1.wav

Pre-gap length 0:00:07.00

Peak level 97.6 %
Extraction speed 8.4 X
Track quality 99.9 %
Test CRC D5E36227
Copy CRC D5E36227
Accurately ripped (confidence 1) [2FA1E39C] (AR v2)
Copy OK

Track 10

Filename F:\DL\Henri Dutilleux - Centenary Edition CD2 (2015) [FLAC]\10 - Orchestre National de France, Mstislav Rostropovich - Timbres, espace, mouvement ou 'La Nuit etoilee' - 2.wav

Peak level 90.1 %
Extraction speed 3.9 X
Track quality 99.6 %
Test CRC 3F0DEB76
Copy CRC 3F0DEB76
Accurately ripped (confidence 1) [C279918B] (AR v2)
Copy OK


All tracks accurately ripped

No errors occurred

End of status report

–– CUETools DB Plugin V2.1.6

[CTDB TOCID: R_97GvZZMHIjzo0U.OaqPiGjZqk-] found
Submit result: R_97GvZZMHIjzo0U.OaqPiGjZqk- has been confirmed
Track | CTDB Status
1 | (2/2) Accurately ripped
2 | (2/2) Accurately ripped
3 | (2/2) Accurately ripped
4 | (2/2) Accurately ripped
5 | (2/2) Accurately ripped
6 | (2/2) Accurately ripped
7 | (2/2) Accurately ripped
8 | (2/2) Accurately ripped
9 | (2/2) Accurately ripped
10 | (2/2) Accurately ripped


==== Log checksum FDF7C2535382E834E54B9FFE0EFEFC7FC762105EB35AE84E92181391BB242AC8 ====

Exact Audio Copy V1.1 from 23. June 2015

EAC extraction logfile from 2. April 2016, 19:23

- / Centenary Edition CD3

Used drive : ATAPI iHBS112 2 Adapter: 1 ID: 1

Read mode : Secure
Utilize accurate stream : Yes
Defeat audio cache : Yes
Make use of C2 pointers : No

Read offset correction : 6
Overread into Lead-In and Lead-Out : No
Fill up missing offset samples with silence : Yes
Delete leading and trailing silent blocks : No
Null samples used in CRC calculations : Yes
Used interface : Native Win32 interface for Win NT & 2000
Gap handling : Appended to previous track

Used output format : User Defined Encoder
Selected bitrate : 768 kBit/s
Quality : High
Add ID3 tag : No
Command line compressor : C:\Program Files\Exact Audio Copy\FLAC\FLAC.EXE
Additional command line options : -8 -V -T "ARTIST=%artist%" -T "TITLE=%title%" -T "ALBUM=%albumtitle%" -T "DATE=%year%" -T "TRACKNUMBER=%tracknr%" -T "GENRE=%genre%" -T "PERFORMER=%albuminterpret%" -T "COMPOSER=%composer%" -T "ALBUMARTIST=%albumartist%" -T "DISCNUMBER=%cdnumber%" -T "TOTALDISCS=%totalcds%" -T "TOTALTRACKS=%numtracks%" -T "COMMENT=EAC Secure Mode, Test & Copy, AccurateRip, FLAC -8" %source% -o %dest%


TOC of the extracted CD

Track | Start | Length | Start sector | End sector
––––––––––––––––––––––––––––-
1 | 0:00.00 | 2:01.63 | 0 | 9137
2 | 2:01.63 | 1:23.23 | 9138 | 15385
3 | 3:25.11 | 1:26.00 | 15386 | 21835
4 | 4:51.11 | 1:34.08 | 21836 | 28893
5 | 6:25.19 | 1:42.72 | 28894 | 36615
6 | 8:08.16 | 0:55.58 | 36616 | 40798
7 | 9:03.74 | 1:03.39 | 40799 | 45562
8 | 10:07.38 | 1:05.10 | 45563 | 50447
9 | 11:12.48 | 2:31.57 | 50448 | 61829
10 | 13:44.30 | 1:25.22 | 61830 | 68226
11 | 15:09.52 | 3:13.07 | 68227 | 82708
12 | 18:22.59 | 2:33.42 | 82709 | 94225
13 | 20:56.26 | 7:15.68 | 94226 | 126918
14 | 28:12.19 | 2:57.24 | 126919 | 140217
15 | 31:09.43 | 4:52.42 | 140218 | 162159
16 | 36:02.10 | 5:06.57 | 162160 | 185166
17 | 41:08.67 | 4:02.56 | 185167 | 203372
18 | 45:11.48 | 6:44.42 | 203373 | 233714


Track 1

Filename F:\DL\Henri Dutilleux - Centenary Edition CD3 (2015) [FLAC]\01 - Collegium Musicum Zurich, Paul Sacher - Mystere de l'instant - 1 Appels.wav

Pre-gap length 0:00:02.00

Peak level 51.1 %
Extraction speed 1.4 X
Track quality 99.9 %
Test CRC E652B46B
Copy CRC E652B46B
Accurately ripped (confidence 1) [186B489A] (AR v2)
Copy OK

Track 2

Filename F:\DL\Henri Dutilleux - Centenary Edition CD3 (2015) [FLAC]\02 - Collegium Musicum Zurich, Paul Sacher - Mystere de l'instant - 2 Echos.wav

Peak level 29.9 %
Extraction speed 1.1 X
Track quality 99.8 %
Test CRC 4F04B179
Copy CRC 4F04B179
Accurately ripped (confidence 1) [A7677379] (AR v2)
Copy OK

Track 3

Filename F:\DL\Henri Dutilleux - Centenary Edition CD3 (2015) [FLAC]\03 - Collegium Musicum Zurich, Paul Sacher - Mystere de l'instant - 3 Prismes.wav

Peak level 45.0 %
Extraction speed 1.1 X
Track quality 99.8 %
Test CRC A86D4841
Copy CRC A86D4841
Accurately ripped (confidence 1) [DD3439F5] (AR v2)
Copy OK

Track 4

Filename F:\DL\Henri Dutilleux - Centenary Edition CD3 (2015) [FLAC]\04 - Collegium Musicum Zurich, Paul Sacher - Mystere de l'instant - 4 Espaces lointains.wav

Peak level 33.1 %
Extraction speed 4.5 X
Track quality 100.0 %
Test CRC B1CE9577
Copy CRC B1CE9577
Accurately ripped (confidence 1) [D93F2273] (AR v2)
Copy OK

Track 5

Filename F:\DL\Henri Dutilleux - Centenary Edition CD3 (2015) [FLAC]\05 - Collegium Musicum Zurich, Paul Sacher - Mystere de l'instant - 5 Litanies.wav

Peak level 35.4 %
Extraction speed 4.8 X
Track quality 100.0 %
Test CRC 51118320
Copy CRC 51118320
Accurately ripped (confidence 1) [347BCDB1] (AR v2)
Copy OK

Track 6

Filename F:\DL\Henri Dutilleux - Centenary Edition CD3 (2015) [FLAC]\06 - Collegium Musicum Zurich, Paul Sacher - Mystere de l'instant - 6 Choral.wav

Peak level 15.6 %
Extraction speed 0.8 X
Track quality 99.8 %
Test CRC 8EB3AD04
Copy CRC 8EB3AD04
Accurately ripped (confidence 1) [AB9784FF] (AR v2)
Copy OK

Track 7

Filename F:\DL\Henri Dutilleux - Centenary Edition CD3 (2015) [FLAC]\07 - Collegium Musicum Zurich, Paul Sacher - Mystere de l'instant - 7 Rumeurs.wav

Peak level 34.0 %
Extraction speed 4.4 X
Track quality 100.0 %
Test CRC EC09EF45
Copy CRC EC09EF45
Accurately ripped (confidence 1) [73E87E83] (AR v2)
Copy OK

Track 8

Filename F:\DL\Henri Dutilleux - Centenary Edition CD3 (2015) [FLAC]\08 - Collegium Musicum Zurich, Paul Sacher - Mystere de l'instant - 8 Soliloques.wav

Peak level 31.3 %
Extraction speed 4.5 X
Track quality 100.0 %
Test CRC B6298031
Copy CRC B6298031
Accurately ripped (confidence 1) [563D920B] (AR v2)
Copy OK

Track 9

Filename F:\DL\Henri Dutilleux - Centenary Edition CD3 (2015) [FLAC]\09 - Collegium Musicum Zurich, Paul Sacher - Mystere de l'instant - 9 Metamorphoses.wav

Peak level 60.9 %
Extraction speed 5.8 X
Track quality 100.0 %
Test CRC 68FF955B
Copy CRC 68FF955B
Accurately ripped (confidence 1) [2D8AE5CA] (AR v2)
Copy OK

Track 10

Filename F:\DL\Henri Dutilleux - Centenary Edition CD3 (2015) [FLAC]\10 - Collegium Musicum Zurich, Paul Sacher - Mystere de l'instant - 10 Embrasement.wav

Peak level 72.0 %
Extraction speed 1.4 X
Track quality 99.8 %
Test CRC 95F59B06
Copy CRC 95F59B06
Accurately ripped (confidence 1) [6B322B87] (AR v2)
Copy OK

Track 11

Filename F:\DL\Henri Dutilleux - Centenary Edition CD3 (2015) [FLAC]\11 - Boston SO, Seiji Ozawa - The shadows of time - Les heures.wav

Pre-gap length 0:00:06.00

Peak level 77.7 %
Extraction speed 6.2 X
Track quality 100.0 %
Test CRC F1DA611E
Copy CRC F1DA611E
Accurately ripped (confidence 1) [693524EC] (AR v2)
Copy OK

Track 12

Filename F:\DL\Henri Dutilleux - Centenary Edition CD3 (2015) [FLAC]\12 - Boston SO, Seiji Ozawa - The shadows of time - Ariel malefique.wav

Peak level 62.3 %
Extraction speed 6.3 X
Track quality 100.0 %
Test CRC 5609BE1B
Copy CRC 5609BE1B
Accurately ripped (confidence 1) [7ACE0EC8] (AR v2)
Copy OK

Track 13

Filename F:\DL\Henri Dutilleux - Centenary Edition CD3 (2015) [FLAC]\13 - Boston SO, Seiji Ozawa - The shadows of time - Memoires des ombres.wav

Peak level 87.0 %
Extraction speed 4.6 X
Track quality 99.9 %
Test CRC 6992E4CA
Copy CRC 6992E4CA
Accurately ripped (confidence 1) [78A0B38F] (AR v2)
Copy OK

Track 14

Filename F:\DL\Henri Dutilleux - Centenary Edition CD3 (2015) [FLAC]\14 - Boston SO, Seiji Ozawa - The shadows of time - Vagues de lumiere.wav

Peak level 75.3 %
Extraction speed 7.2 X
Track quality 100.0 %
Test CRC 20F5BBAF
Copy CRC 20F5BBAF
Accurately ripped (confidence 1) [BDB46C97] (AR v2)
Copy OK

Track 15

Filename F:\DL\Henri Dutilleux - Centenary Edition CD3 (2015) [FLAC]\15 - Boston SO, Seiji Ozawa - The shadows of time - Dominante bleue.wav

Peak level 48.2 %
Extraction speed 8.1 X
Track quality 100.0 %
Test CRC 85046CFB
Copy CRC 85046CFB
Accurately ripped (confidence 1) [CF9EDDFA] (AR v2)
Copy OK

Track 16

Filename F:\DL\Henri Dutilleux - Centenary Edition CD3 (2015) [FLAC]\16 - Orchestre de la Societe des Concerts du Conservatoire, Georges Pretre - Le Loup - 1er tableau.wav

Pre-gap length 0:00:06.00

Peak level 72.2 %
Extraction speed 4.4 X
Track quality 99.9 %
Test CRC D0479CDB
Copy CRC D0479CDB
Accurately ripped (confidence 1) [F635CAFA] (AR v2)
Copy OK

Track 17

Filename F:\DL\Henri Dutilleux - Centenary Edition CD3 (2015) [FLAC]\17 - Orchestre de la Societe des Concerts du Conservatoire, Georges Pretre - Le Loup - 2e tableau.wav

Peak level 48.8 %
Extraction speed 8.8 X
Track quality 100.0 %
Test CRC B6A65132
Copy CRC B6A65132
Accurately ripped (confidence 1) [63E5659B] (AR v2)
Copy OK

Track 18

Filename F:\DL\Henri Dutilleux - Centenary Edition CD3 (2015) [FLAC]\18 - Orchestre de la Societe des Concerts du Conservatoire, Georges Pretre - Le Loup - 3e tableau.wav

Peak level 68.1 %
Extraction speed 9.5 X
Track quality 100.0 %
Test CRC 2EB003A4
Copy CRC 2EB003A4
Accurately ripped (confidence 1) [D49570C6] (AR v2)
Copy OK


All tracks accurately ripped

No errors occurred

End of status report

–– CUETools DB Plugin V2.1.6

[CTDB TOCID: 9V874Rb9WwtDhl9j2YCe2MEImMA-] found
Submit result: 9V874Rb9WwtDhl9j2YCe2MEImMA- has been confirmed
Track | CTDB Status
1 | (3/3) Accurately ripped
2 | (3/3) Accurately ripped
3 | (3/3) Accurately ripped
4 | (3/3) Accurately ripped
5 | (3/3) Accurately ripped
6 | (3/3) Accurately ripped
7 | (3/3) Accurately ripped
8 | (3/3) Accurately ripped
9 | (3/3) Accurately ripped
10 | (3/3) Accurately ripped
11 | (3/3) Accurately ripped
12 | (3/3) Accurately ripped
13 | (3/3) Accurately ripped
14 | (3/3) Accurately ripped
15 | (3/3) Accurately ripped
16 | (3/3) Accurately ripped
17 | (3/3) Accurately ripped
18 | (3/3) Accurately ripped


==== Log checksum F8E309DE0A04819D49E16376BDDBE978B4EAA886CC095AD97741F4B9DC4328EC ====

Exact Audio Copy V1.1 from 23. June 2015

EAC extraction logfile from 2. April 2016, 23:08

- / Centenary Edition CD4

Used drive : ATAPI iHBS112 2 Adapter: 1 ID: 1

Read mode : Secure
Utilize accurate stream : Yes
Defeat audio cache : Yes
Make use of C2 pointers : No

Read offset correction : 6
Overread into Lead-In and Lead-Out : No
Fill up missing offset samples with silence : Yes
Delete leading and trailing silent blocks : No
Null samples used in CRC calculations : Yes
Used interface : Native Win32 interface for Win NT & 2000
Gap handling : Appended to previous track

Used output format : User Defined Encoder
Selected bitrate : 768 kBit/s
Quality : High
Add ID3 tag : No
Command line compressor : C:\Program Files\Exact Audio Copy\FLAC\FLAC.EXE
Additional command line options : -8 -V -T "ARTIST=%artist%" -T "TITLE=%title%" -T "ALBUM=%albumtitle%" -T "DATE=%year%" -T "TRACKNUMBER=%tracknr%" -T "GENRE=%genre%" -T "PERFORMER=%albuminterpret%" -T "COMPOSER=%composer%" -T "ALBUMARTIST=%albumartist%" -T "DISCNUMBER=%cdnumber%" -T "TOTALDISCS=%totalcds%" -T "TOTALTRACKS=%numtracks%" -T "COMMENT=EAC Secure Mode, Test & Copy, AccurateRip, FLAC -8" %source% -o %dest%


TOC of the extracted CD

Track | Start | Length | Start sector | End sector
––––––––––––––––––––––––––––-
1 | 0:00.00 | 6:55.29 | 0 | 31153
2 | 6:55.29 | 7:14.60 | 31154 | 63763
3 | 14:10.14 | 4:29.22 | 63764 | 83960
4 | 18:39.36 | 5:40.50 | 83961 | 109510
5 | 24:20.11 | 4:46.56 | 109511 | 131016
6 | 29:06.67 | 3:47.21 | 131017 | 148062
7 | 32:54.13 | 2:46.19 | 148063 | 160531
8 | 35:40.32 | 3:00.15 | 160532 | 174046
9 | 38:40.47 | 4:34.27 | 174047 | 194623
10 | 43:14.74 | 2:40.19 | 194624 | 206642
11 | 45:55.18 | 1:48.27 | 206643 | 214769
12 | 47:43.45 | 1:56.25 | 214770 | 223494
13 | 49:39.70 | 6:02.70 | 223495 | 250714
14 | 55:42.65 | 1:21.01 | 250715 | 256790
15 | 57:03.66 | 5:33.18 | 256791 | 281783
16 | 62:37.09 | 9:49.35 | 281784 | 325993


Track 1

Filename F:\DL\Henri Dutilleux - Centenary Edition CD4 (2015) [FLAC]\01 - Mstislav Rostropovich, Orchestre de Paris - Tout un monde lointain - I. Enigme (Tres libre et flexible).wav

Pre-gap length 0:00:02.00

Peak level 78.9 %
Extraction speed 2.3 X
Track quality 100.0 %
Test CRC 9F6DBC86
Copy CRC 9F6DBC86
Accurately ripped (confidence 1) [A6C4B3B8] (AR v2)
Copy OK

Track 2

Filename F:\DL\Henri Dutilleux - Centenary Edition CD4 (2015) [FLAC]\02 - Mstislav Rostropovich, Orchestre de Paris - Tout un monde lointain - II. Regard (Extremement calme).wav

Peak level 81.2 %
Extraction speed 2.6 X
Track quality 100.0 %
Test CRC 5C9CC064
Copy CRC 5C9CC064
Accurately ripped (confidence 1) [6217A998] (AR v2)
Copy OK

Track 3

Filename F:\DL\Henri Dutilleux - Centenary Edition CD4 (2015) [FLAC]\03 - Mstislav Rostropovich, Orchestre de Paris - Tout un monde lointain - III. Houles (Large et ample).wav

Peak level 79.7 %
Extraction speed 2.7 X
Track quality 100.0 %
Test CRC 9C3C29BB
Copy CRC 9C3C29BB
Accurately ripped (confidence 1) [2E24ACB2] (AR v2)
Copy OK

Track 4

Filename F:\DL\Henri Dutilleux - Centenary Edition CD4 (2015) [FLAC]\04 - Mstislav Rostropovich, Orchestre de Paris - Tout un monde lointain - IV. Miroirs (Lent et extatique).wav

Peak level 64.8 %
Extraction speed 3.0 X
Track quality 100.0 %
Test CRC 9E1CE0C5
Copy CRC 9E1CE0C5
Accurately ripped (confidence 1) [61B6D2B6] (AR v2)
Copy OK

Track 5

Filename F:\DL\Henri Dutilleux - Centenary Edition CD4 (2015) [FLAC]\05 - Mstislav Rostropovich, Orchestre de Paris - Tout un monde lointain - V. Hymne (Allegro).wav

Peak level 77.6 %
Extraction speed 3.2 X
Track quality 100.0 %
Test CRC F8713C50
Copy CRC F8713C50
Accurately ripped (confidence 1) [769AFF5F] (AR v2)
Copy OK

Track 6

Filename F:\DL\Henri Dutilleux - Centenary Edition CD4 (2015) [FLAC]\06 - Truls Mork - Trois Strophes sur le nom de Sacher - I. Un poco indeciso.wav

Pre-gap length 0:00:07.00

Peak level 38.2 %
Extraction speed 3.2 X
Track quality 100.0 %
Test CRC F9CA76E2
Copy CRC F9CA76E2
Accurately ripped (confidence 1) [C8994E7D] (AR v2)
Copy OK

Track 7

Filename F:\DL\Henri Dutilleux - Centenary Edition CD4 (2015) [FLAC]\07 - Truls Mork - Trois Strophes sur le nom de Sacher - II. Andante sostenuto.wav

Peak level 33.7 %
Extraction speed 3.2 X
Track quality 100.0 %
Test CRC CDBD54BB
Copy CRC CDBD54BB
Accurately ripped (confidence 1) [9537AB49] (AR v2)
Copy OK

Track 8

Filename F:\DL\Henri Dutilleux - Centenary Edition CD4 (2015) [FLAC]\08 - Truls Mork - Trois Strophes sur le nom de Sacher - III. Vivace.wav

Peak level 46.8 %
Extraction speed 3.3 X
Track quality 100.0 %
Test CRC D52FD0A2
Copy CRC D52FD0A2
Accurately ripped (confidence 1) [9841250D] (AR v2)
Copy OK

Track 9

Filename F:\DL\Henri Dutilleux - Centenary Edition CD4 (2015) [FLAC]\09 - Capucon, Orchestre Philharmonique de Radio France, Myung-Whun Chung - L'Arbre des songes - I. Librement.wav

Pre-gap length 0:00:09.06

Peak level 74.9 %
Extraction speed 3.6 X
Track quality 100.0 %
Test CRC 765AB7E4
Copy CRC 765AB7E4
Accurately ripped (confidence 1) [8297C95E] (AR v2)
Copy OK

Track 10

Filename F:\DL\Henri Dutilleux - Centenary Edition CD4 (2015) [FLAC]\10 - Capucon, Orchestre Philharmonique de Radio France, Myung-Whun Chung - L'Arbre des songes - Interlude 1.wav

Peak level 69.8 %
Extraction speed 3.4 X
Track quality 100.0 %
Test CRC 6EA666CC
Copy CRC 6EA666CC
Accurately ripped (confidence 1) [2BC2F213] (AR v2)
Copy OK

Track 11

Filename F:\DL\Henri Dutilleux - Centenary Edition CD4 (2015) [FLAC]\11 - Capucon, Orchestre Philharmonique de Radio France, Myung-Whun Chung - L'Arbre des songes - II. Vif.wav

Peak level 66.2 %
Extraction speed 3.2 X
Track quality 100.0 %
Test CRC B7D8E326
Copy CRC B7D8E326
Accurately ripped (confidence 1) [BA6DA7F0] (AR v2)
Copy OK

Track 12

Filename F:\DL\Henri Dutilleux - Centenary Edition CD4 (2015) [FLAC]\12 - Capucon, Orchestre Philharmonique de Radio France, Myung-Whun Chung - L'Arbre des songes - Interlude 2.wav

Peak level 76.8 %
Extraction speed 3.2 X
Track quality 100.0 %
Test CRC 5F193630
Copy CRC 5F193630
Accurately ripped (confidence 1) [41D12C7A] (AR v2)
Copy OK

Track 13

Filename F:\DL\Henri Dutilleux - Centenary Edition CD4 (2015) [FLAC]\13 - Capucon, Orchestre Philharmonique de Radio France, Myung-Whun Chung - L'Arbre des songes - III. Lent.wav

Peak level 69.5 %
Extraction speed 4.0 X
Track quality 100.0 %
Test CRC 98DE9831
Copy CRC 98DE9831
Accurately ripped (confidence 1) [15CE8C36] (AR v2)
Copy OK

Track 14

Filename F:\DL\Henri Dutilleux - Centenary Edition CD4 (2015) [FLAC]\14 - Capucon, Orchestre Philharmonique de Radio France, Myung-Whun Chung - L'Arbre des songes - Interlude 3.wav

Peak level 41.9 %
Extraction speed 1.7 X
Track quality 99.8 %
Test CRC B41D1E76
Copy CRC B41D1E76
Accurately ripped (confidence 1) [9717A085] (AR v2)
Copy OK

Track 15

Filename F:\DL\Henri Dutilleux - Centenary Edition CD4 (2015) [FLAC]\15 - Capucon, Orchestre Philharmonique de Radio France, Myung-Whun Chung - L'Arbre des songes - IV. Large et anime.wav

Peak level 76.9 %
Extraction speed 4.2 X
Track quality 100.0 %
Test CRC 5FAF72B9
Copy CRC 5FAF72B9
Accurately ripped (confidence 1) [2AFC5B6E] (AR v2)
Copy OK

Track 16

Filename F:\DL\Henri Dutilleux - Centenary Edition CD4 (2015) [FLAC]\16 - Christian Tetzlaff, Orchestre de Paris, Paavo Jarvi - Sur le meme accord.wav

Pre-gap length 0:00:07.00

Peak level 91.0 %
Extraction speed 4.6 X
Track quality 100.0 %
Test CRC 4AA8A97D
Copy CRC 4AA8A97D
Accurately ripped (confidence 1) [595FDDE6] (AR v2)
Copy OK


All tracks accurately ripped

No errors occurred

End of status report

–– CUETools DB Plugin V2.1.6

[CTDB TOCID: BUSqJ7S0X3gSSF8okKkN2Ioeu_Q-] found
Submit result: BUSqJ7S0X3gSSF8okKkN2Ioeu_Q- has been confirmed
Track | CTDB Status
1 | (3/3) Accurately ripped
2 | (3/3) Accurately ripped
3 | (3/3) Accurately ripped
4 | (3/3) Accurately ripped
5 | (3/3) Accurately ripped
6 | (3/3) Accurately ripped
7 | (3/3) Accurately ripped
8 | (3/3) Accurately ripped
9 | (3/3) Accurately ripped
10 | (3/3) Accurately ripped
11 | (3/3) Accurately ripped
12 | (3/3) Accurately ripped
13 | (3/3) Accurately ripped
14 | (3/3) Accurately ripped
15 | (3/3) Accurately ripped
16 | (3/3) Accurately ripped


==== Log checksum 5968B9D0507DB3F70B19CB9F2F1DF2927694E862912D84DFFC7C81C97F400902 ====

Exact Audio Copy V1.1 from 23. June 2015

EAC extraction logfile from 3. April 2016, 11:32

Various Artists / Centenary Edition CD5

Used drive : ATAPI iHBS112 2 Adapter: 1 ID: 1

Read mode : Secure
Utilize accurate stream : Yes
Defeat audio cache : Yes
Make use of C2 pointers : No

Read offset correction : 6
Overread into Lead-In and Lead-Out : No
Fill up missing offset samples with silence : Yes
Delete leading and trailing silent blocks : No
Null samples used in CRC calculations : Yes
Used interface : Native Win32 interface for Win NT & 2000
Gap handling : Appended to previous track

Used output format : User Defined Encoder
Selected bitrate : 768 kBit/s
Quality : High
Add ID3 tag : No
Command line compressor : C:\Program Files\Exact Audio Copy\FLAC\FLAC.EXE
Additional command line options : -8 -V -T "ARTIST=%artist%" -T "TITLE=%title%" -T "ALBUM=%albumtitle%" -T "DATE=%year%" -T "TRACKNUMBER=%tracknr%" -T "GENRE=%genre%" -T "PERFORMER=%albuminterpret%" -T "COMPOSER=%composer%" -T "ALBUMARTIST=%albumartist%" -T "DISCNUMBER=%cdnumber%" -T "TOTALDISCS=%totalcds%" -T "TOTALTRACKS=%numtracks%" -T "COMMENT=EAC Secure Mode, Test & Copy, AccurateRip, FLAC -8" %source% -o %dest%


TOC of the extracted CD

Track | Start | Length | Start sector | End sector
––––––––––––––––––––––––––––-
1 | 0:00.00 | 2:08.73 | 0 | 9672
2 | 2:08.73 | 4:40.60 | 9673 | 30732
3 | 6:49.58 | 4:43.04 | 30733 | 51961
4 | 11:32.62 | 1:36.34 | 51962 | 59195
5 | 13:09.21 | 2:27.14 | 59196 | 70234
6 | 15:36.35 | 0:50.61 | 70235 | 74045
7 | 16:27.21 | 5:24.43 | 74046 | 98388
8 | 21:51.64 | 2:18.04 | 98389 | 108742
9 | 24:09.68 | 5:43.58 | 108743 | 134525
10 | 29:53.51 | 1:41.70 | 134526 | 142170
11 | 31:35.46 | 4:25.19 | 142171 | 162064
12 | 36:00.65 | 2:05.26 | 162065 | 171465
13 | 38:06.16 | 1:19.23 | 171466 | 177413
14 | 39:25.39 | 4:39.45 | 177414 | 198383


Track 1

Filename F:\DL\Henri Dutilleux - Centenary Edition CD5 (2015) [FLAC]\01 - Gilles Cachemaille, Henri Dutilleux - 2 Sonnets de Jean Cassou - Il n'y avait que des troncs dechires.wav

Pre-gap length 0:00:02.00

Peak level 80.8 %
Extraction speed 1.6 X
Track quality 100.0 %
Test CRC 6EFAD519
Copy CRC 6EFAD519
Accurately ripped (confidence 1) [40C48A80] (AR v2)
Copy OK

Track 2

Filename F:\DL\Henri Dutilleux - Centenary Edition CD5 (2015) [FLAC]\02 - Gilles Cachemaille, Henri Dutilleux - 2 Sonnets de Jean Cassou - J'ai reve que je vous portais entre mes bras.wav

Peak level 70.4 %
Extraction speed 2.1 X
Track quality 100.0 %
Test CRC 3BF2D6F4
Copy CRC 3BF2D6F4
Accurately ripped (confidence 1) [1BBDC7C6] (AR v2)
Copy OK

Track 3

Filename F:\DL\Henri Dutilleux - Centenary Edition CD5 (2015) [FLAC]\03 - Dawn Upshaw, Jerome Ducros - San Francisco Night.wav

Peak level 67.3 %
Extraction speed 2.3 X
Track quality 100.0 %
Test CRC F3782230
Copy CRC F3782230
Accurately ripped (confidence 1) [199385B4] (AR v2)
Copy OK

Track 4

Filename F:\DL\Henri Dutilleux - Centenary Edition CD5 (2015) [FLAC]\04 - Hannigan, Orchestre Philharmonique de Radio France, Salonen - Correspondances - I. Gong (1).wav

Pre-gap length 0:00:07.00

Peak level 38.8 %
Extraction speed 2.0 X
Track quality 100.0 %
Test CRC D8B7B49C
Copy CRC D8B7B49C
Accurately ripped (confidence 1) [59900529] (AR v2)
Copy OK

Track 5

Filename F:\DL\Henri Dutilleux - Centenary Edition CD5 (2015) [FLAC]\05 - Hannigan, Orchestre Philharmonique de Radio France, Salonen - Correspondances - II. Danse cosmique.wav

Peak level 69.9 %
Extraction speed 2.3 X
Track quality 100.0 %
Test CRC 115269E2
Copy CRC 115269E2
Accurately ripped (confidence 1) [3F8BD8BD] (AR v2)
Copy OK

Track 6

Filename F:\DL\Henri Dutilleux - Centenary Edition CD5 (2015) [FLAC]\06 - Hannigan, Orchestre Philharmonique de Radio France, Salonen - Correspondances - Interlude.wav

Peak level 34.5 %
Extraction speed 0.8 X
Track quality 99.7 %
Test CRC 8B300193
Copy CRC 8B300193
Accurately ripped (confidence 1) [867B5F5D] (AR v2)
Copy OK

Track 7

Filename F:\DL\Henri Dutilleux - Centenary Edition CD5 (2015) [FLAC]\07 - Hannigan, Orchestre Philharmonique de Radio France, Salonen - Correspondances - III. A Slava et Galina.wav

Peak level 69.8 %
Extraction speed 2.8 X
Track quality 100.0 %
Test CRC 82BDC37C
Copy CRC 82BDC37C
Accurately ripped (confidence 1) [827AD535] (AR v2)
Copy OK

Track 8

Filename F:\DL\Henri Dutilleux - Centenary Edition CD5 (2015) [FLAC]\08 - Hannigan, Orchestre Philharmonique de Radio France, Salonen - Correspondances - IV. Gong (2).wav

Peak level 68.8 %
Extraction speed 2.3 X
Track quality 100.0 %
Test CRC 6BC4EE0D
Copy CRC 6BC4EE0D
Accurately ripped (confidence 1) [3E40F4BE] (AR v2)
Copy OK

Track 9

Filename F:\DL\Henri Dutilleux - Centenary Edition CD5 (2015) [FLAC]\09 - Hannigan, Orchestre Philharmonique de Radio France, Salonen - Correspondances - V. De Vincent a Theo.wav

Peak level 69.9 %
Extraction speed 2.3 X
Track quality 100.0 %
Test CRC 729D5984
Copy CRC 729D5984
Accurately ripped (confidence 1) [5468DB0D] (AR v2)
Copy OK

Track 10

Filename F:\DL\Henri Dutilleux - Centenary Edition CD5 (2015) [FLAC]\10 - Renee Fleming, Orchestre National de France, Seiji Ozawa - Le Temps l'horloge - I. Le Temps l'horloge.wav

Peak level 54.4 %
Extraction speed 1.5 X
Track quality 99.8 %
Test CRC 866FA82F
Copy CRC 866FA82F
Accurately ripped (confidence 1) [1B3E217D] (AR v2)
Copy OK

Track 11

Filename F:\DL\Henri Dutilleux - Centenary Edition CD5 (2015) [FLAC]\11 - Renee Fleming, Orchestre National de France, Seiji Ozawa - Le Temps l'horloge - II. Le Masque.wav

Peak level 56.8 %
Extraction speed 2.5 X
Track quality 99.9 %
Test CRC C8988A85
Copy CRC C8988A85
Accurately ripped (confidence 1) [115D6066] (AR v2)
Copy OK

Track 12

Filename F:\DL\Henri Dutilleux - Centenary Edition CD5 (2015) [FLAC]\12 - Renee Fleming, Orchestre National de France, Seiji Ozawa - Le Temps l'horloge - III. Le Dernier poeme.wav

Peak level 72.8 %
Extraction speed 3.0 X
Track quality 100.0 %
Test CRC 2C597418
Copy CRC 2C597418
Accurately ripped (confidence 1) [19FE54D2] (AR v2)
Copy OK

Track 13

Filename F:\DL\Henri Dutilleux - Centenary Edition CD5 (2015) [FLAC]\13 - Renee Fleming, Orchestre National de France, Seiji Ozawa - Le Temps l'horloge - IV. Interlude.wav

Peak level 15.9 %
Extraction speed 2.7 X
Track quality 100.0 %
Test CRC 315C915D
Copy CRC 315C915D
Accurately ripped (confidence 1) [42D838F0] (AR v2)
Copy OK

Track 14

Filename F:\DL\Henri Dutilleux - Centenary Edition CD5 (2015) [FLAC]\14 - Renee Fleming, Orchestre National de France, Seiji Ozawa - Le Temps l'horloge - V. Enivrez-vous.wav

Peak level 86.8 %
Extraction speed 3.5 X
Track quality 100.0 %
Test CRC 28FF9522
Copy CRC 28FF9522
Accurately ripped (confidence 1) [3E1B4BC1] (AR v2)
Copy OK


All tracks accurately ripped

No errors occurred

End of status report

–– CUETools DB Plugin V2.1.6

[CTDB TOCID: lsr_maSysNvEXL8Q8wZL9lZ.q8Y-] found
Submit result: already submitted
Track | CTDB Status
1 | (4/4) Accurately ripped
2 | (4/4) Accurately ripped
3 | (4/4) Accurately ripped
4 | (4/4) Accurately ripped
5 | (4/4) Accurately ripped
6 | (4/4) Accurately ripped
7 | (4/4) Accurately ripped
8 | (4/4) Accurately ripped
9 | (4/4) Accurately ripped
10 | (4/4) Accurately ripped
11 | (4/4) Accurately ripped
12 | (4/4) Accurately ripped
13 | (4/4) Accurately ripped
14 | (4/4) Accurately ripped


==== Log checksum E7DAAF385A2B638C1E0AE111A981C9EB2AA7C3767C6953A3E2167DBDB584914C ====

Exact Audio Copy V1.1 from 23. June 2015

EAC extraction logfile from 3. April 2016, 15:39

- / Centenary Edition CD6

Used drive : ATAPI iHBS112 2 Adapter: 1 ID: 1

Read mode : Secure
Utilize accurate stream : Yes
Defeat audio cache : Yes
Make use of C2 pointers : No

Read offset correction : 6
Overread into Lead-In and Lead-Out : No
Fill up missing offset samples with silence : Yes
Delete leading and trailing silent blocks : No
Null samples used in CRC calculations : Yes
Used interface : Native Win32 interface for Win NT & 2000
Gap handling : Appended to previous track

Used output format : User Defined Encoder
Selected bitrate : 768 kBit/s
Quality : High
Add ID3 tag : No
Command line compressor : C:\Program Files\Exact Audio Copy\FLAC\FLAC.EXE
Additional command line options : -8 -V -T "ARTIST=%artist%" -T "TITLE=%title%" -T "ALBUM=%albumtitle%" -T "DATE=%year%" -T "TRACKNUMBER=%tracknr%" -T "GENRE=%genre%" -T "PERFORMER=%albuminterpret%" -T "COMPOSER=%composer%" -T "ALBUMARTIST=%albumartist%" -T "DISCNUMBER=%cdnumber%" -T "TOTALDISCS=%totalcds%" -T "TOTALTRACKS=%numtracks%" -T "COMMENT=EAC Secure Mode, Test & Copy, AccurateRip, FLAC -8" %source% -o %dest%


TOC of the extracted CD

Track | Start | Length | Start sector | End sector
––––––––––––––––––––––––––––-
1 | 0:00.00 | 6:52.40 | 0 | 30939
2 | 6:52.40 | 6:04.67 | 30940 | 58306
3 | 12:57.32 | 10:04.24 | 58307 | 103630
4 | 23:01.56 | 2:57.14 | 103631 | 116919
5 | 25:58.70 | 3:22.53 | 116920 | 132122
6 | 29:21.48 | 6:44.55 | 132123 | 162477
7 | 36:06.28 | 1:16.65 | 162478 | 168242
8 | 37:23.18 | 1:18.04 | 168243 | 174096
9 | 38:41.22 | 2:16.60 | 174097 | 184356
10 | 40:58.07 | 1:56.47 | 184357 | 193103
11 | 42:54.54 | 1:45.72 | 193104 | 201050
12 | 44:40.51 | 1:16.60 | 201051 | 206810
13 | 45:57.36 | 1:42.51 | 206811 | 214511
14 | 47:40.12 | 2:42.33 | 214512 | 226694
15 | 50:22.45 | 2:49.03 | 226695 | 239372
16 | 53:11.48 | 1:06.10 | 239373 | 244332
17 | 54:17.58 | 1:33.17 | 244333 | 251324
18 | 55:51.00 | 2:00.02 | 251325 | 260326
19 | 57:51.02 | 2:52.23 | 260327 | 273249
20 | 60:43.25 | 1:13.07 | 273250 | 278731


Track 1

Filename F:\DL\Henri Dutilleux - Centenary Edition CD6 (2015) [FLAC]\01 - Genevieve Joy - Piano Sonata - 1. allegro con moto.wav

Pre-gap length 0:00:02.00

Peak level 47.0 %
Extraction speed 2.1 X
Track quality 100.0 %
Test CRC 653B679C
Copy CRC 653B679C
Accurately ripped (confidence 1) [05C70F38] (AR v2)
Copy OK

Track 2

Filename F:\DL\Henri Dutilleux - Centenary Edition CD6 (2015) [FLAC]\02 - Genevieve Joy - Piano Sonata - 2. Lied (Lent).wav

Peak level 35.6 %
Extraction speed 2.0 X
Track quality 99.9 %
Test CRC 85D1BC30
Copy CRC 85D1BC30
Accurately ripped (confidence 1) [942B4F39] (AR v2)
Copy OK

Track 3

Filename F:\DL\Henri Dutilleux - Centenary Edition CD6 (2015) [FLAC]\03 - Genevieve Joy - Piano Sonata - 3. Choral et variations.wav

Peak level 55.1 %
Extraction speed 2.9 X
Track quality 100.0 %
Test CRC C91D3069
Copy CRC C91D3069
Accurately ripped (confidence 1) [9F86D95F] (AR v2)
Copy OK

Track 4

Filename F:\DL\Henri Dutilleux - Centenary Edition CD6 (2015) [FLAC]\04 - Genevieve Joy - Trois preludes - 1. D'ombre et de silence.wav

Pre-gap length 0:00:06.16

Peak level 56.4 %
Extraction speed 2.8 X
Track quality 100.0 %
Test CRC A44F69C0
Copy CRC A44F69C0
Accurately ripped (confidence 1) [79550AF7] (AR v2)
Copy OK

Track 5

Filename F:\DL\Henri Dutilleux - Centenary Edition CD6 (2015) [FLAC]\05 - Genevieve Joy - Trois preludes - 2. Sur un meme accord.wav

Peak level 58.8 %
Extraction speed 3.0 X
Track quality 100.0 %
Test CRC 966D8ECD
Copy CRC 966D8ECD
Accurately ripped (confidence 1) [E922B49D] (AR v2)
Copy OK

Track 6

Filename F:\DL\Henri Dutilleux - Centenary Edition CD6 (2015) [FLAC]\06 - Genevieve Joy - Trois preludes - 3. Le jeu des contraires.wav

Peak level 68.9 %
Extraction speed 2.8 X
Track quality 99.9 %
Test CRC 63C02CAA
Copy CRC 63C02CAA
Accurately ripped (confidence 1) [4C8EF769] (AR v2)
Copy OK

Track 7

Filename F:\DL\Henri Dutilleux - Centenary Edition CD6 (2015) [FLAC]\07 - Genevieve Joy, Henri Dutilleux - Figures de resonances pour 2 pianos - No. 1.wav

Pre-gap length 0:00:06.00

Peak level 41.6 %
Extraction speed 2.6 X
Track quality 100.0 %
Test CRC 54130E34
Copy CRC 54130E34
Accurately ripped (confidence 1) [43851806] (AR v2)
Copy OK

Track 8

Filename F:\DL\Henri Dutilleux - Centenary Edition CD6 (2015) [FLAC]\08 - Genevieve Joy, Henri Dutilleux - Figures de resonances pour 2 pianos - No. 2.wav

Peak level 47.0 %
Extraction speed 2.6 X
Track quality 100.0 %
Test CRC B0463E92
Copy CRC B0463E92
Accurately ripped (confidence 1) [800A1F67] (AR v2)
Copy OK

Track 9

Filename F:\DL\Henri Dutilleux - Centenary Edition CD6 (2015) [FLAC]\09 - Genevieve Joy, Henri Dutilleux - Figures de resonances pour 2 pianos - No. 3.wav

Peak level 59.8 %
Extraction speed 2.0 X
Track quality 99.9 %
Test CRC E42DABCF
Copy CRC E42DABCF
Accurately ripped (confidence 1) [414B3995] (AR v2)
Copy OK

Track 10

Filename F:\DL\Henri Dutilleux - Centenary Edition CD6 (2015) [FLAC]\10 - Genevieve Joy, Henri Dutilleux - Figures de resonances pour 2 pianos - No. 4.wav

Peak level 63.2 %
Extraction speed 3.1 X
Track quality 100.0 %
Test CRC AF5B2012
Copy CRC AF5B2012
Accurately ripped (confidence 1) [0B93A430] (AR v2)
Copy OK

Track 11

Filename F:\DL\Henri Dutilleux - Centenary Edition CD6 (2015) [FLAC]\11 - Anne Queffelec - Tous les chemins menent a Rome from M. Long's 'Petite methode de piano'.wav

Pre-gap length 0:00:07.00

Peak level 15.7 %
Extraction speed 3.1 X
Track quality 100.0 %
Test CRC 514A144F
Copy CRC 514A144F
Accurately ripped (confidence 1) [1CEBF875] (AR v2)
Copy OK

Track 12

Filename F:\DL\Henri Dutilleux - Centenary Edition CD6 (2015) [FLAC]\12 - Anne Queffelec - Bergerie, extrait du recueil 'Jardin d'enfants'.wav

Peak level 29.0 %
Extraction speed 2.8 X
Track quality 100.0 %
Test CRC D51B6E8E
Copy CRC D51B6E8E
Accurately ripped (confidence 1) [F2886C40] (AR v2)
Copy OK

Track 13

Filename F:\DL\Henri Dutilleux - Centenary Edition CD6 (2015) [FLAC]\13 - Anne Queffelec - Blackbird.wav

Peak level 34.7 %
Extraction speed 3.1 X
Track quality 100.0 %
Test CRC CCCDDFC0
Copy CRC CCCDDFC0
Accurately ripped (confidence 1) [29F5689A] (AR v2)
Copy OK

Track 14

Filename F:\DL\Henri Dutilleux - Centenary Edition CD6 (2015) [FLAC]\14 - Anne Queffelec - Resonances, extrait du recueil 'Les nouveaux musiciens'.wav

Peak level 61.3 %
Extraction speed 3.5 X
Track quality 100.0 %
Test CRC BCDF3500
Copy CRC BCDF3500
Accurately ripped (confidence 1) [98AFF7BA] (AR v2)
Copy OK

Track 15

Filename F:\DL\Henri Dutilleux - Centenary Edition CD6 (2015) [FLAC]\15 - Anne Queffelec - Au gre des ondes - I. Prelude en berceuse.wav

Pre-gap length 0:00:05.46

Peak level 18.3 %
Extraction speed 3.6 X
Track quality 100.0 %
Test CRC 73042547
Copy CRC 73042547
Accurately ripped (confidence 1) [05E407A6] (AR v2)
Copy OK

Track 16

Filename F:\DL\Henri Dutilleux - Centenary Edition CD6 (2015) [FLAC]\16 - Anne Queffelec - Au gre des ondes - II. Claquettes.wav

Peak level 33.2 %
Extraction speed 2.9 X
Track quality 100.0 %
Test CRC 8A65053D
Copy CRC 8A65053D
Accurately ripped (confidence 1) [6860D86B] (AR v2)
Copy OK

Track 17

Filename F:\DL\Henri Dutilleux - Centenary Edition CD6 (2015) [FLAC]\17 - Anne Queffelec - Au gre des ondes - III. Improvisation.wav

Peak level 22.5 %
Extraction speed 3.2 X
Track quality 100.0 %
Test CRC 88693632
Copy CRC 88693632
Accurately ripped (confidence 1) [619F77FF] (AR v2)
Copy OK

Track 18

Filename F:\DL\Henri Dutilleux - Centenary Edition CD6 (2015) [FLAC]\18 - Anne Queffelec - Au gre des ondes - IV. Mouvement perpetuel.wav

Peak level 39.6 %
Extraction speed 3.4 X
Track quality 100.0 %
Test CRC 3FF4A305
Copy CRC 3FF4A305
Accurately ripped (confidence 1) [6CD73535] (AR v2)
Copy OK

Track 19

Filename F:\DL\Henri Dutilleux - Centenary Edition CD6 (2015) [FLAC]\19 - Anne Queffelec - Au gre des ondes - V. Hommage a Bach.wav

Peak level 19.1 %
Extraction speed 2.6 X
Track quality 99.9 %
Test CRC 6F7E82E8
Copy CRC 6F7E82E8
Accurately ripped (confidence 1) [66F0792D] (AR v2)
Copy OK

Track 20

Filename F:\DL\Henri Dutilleux - Centenary Edition CD6 (2015) [FLAC]\20 - Anne Queffelec - Au gre des ondes - VI. Etude.wav

Peak level 37.7 %
Extraction speed 3.1 X
Track quality 100.0 %
Test CRC 919FE67E
Copy CRC 919FE67E
Accurately ripped (confidence 1) [2C5AD834] (AR v2)
Copy OK


All tracks accurately ripped

No errors occurred

End of status report

–– CUETools DB Plugin V2.1.6

[CTDB TOCID: iHjDv8u0UDUdwiN983O_oOsy8J8-] found
Submit result: iHjDv8u0UDUdwiN983O_oOsy8J8- has been confirmed
Track | CTDB Status
1 | (3/3) Accurately ripped
2 | (3/3) Accurately ripped
3 | (3/3) Accurately ripped
4 | (3/3) Accurately ripped
5 | (3/3) Accurately ripped
6 | (3/3) Accurately ripped
7 | (3/3) Accurately ripped
8 | (3/3) Accurately ripped
9 | (3/3) Accurately ripped
10 | (3/3) Accurately ripped
11 | (3/3) Accurately ripped
12 | (3/3) Accurately ripped
13 | (3/3) Accurately ripped
14 | (3/3) Accurately ripped
15 | (3/3) Accurately ripped
16 | (3/3) Accurately ripped
17 | (3/3) Accurately ripped
18 | (3/3) Accurately ripped
19 | (3/3) Accurately ripped
20 | (3/3) Accurately ripped


==== Log checksum 9C51DBFD1519FFBA715FA255768CC72CA22250A3E2F6FDDCFD337FFB84093904 ====

Exact Audio Copy V1.1 from 23. June 2015

EAC extraction logfile from 3. April 2016, 18:07

- / Centenary Edition CD7

Used drive : ATAPI iHBS112 2 Adapter: 1 ID: 1

Read mode : Secure
Utilize accurate stream : Yes
Defeat audio cache : Yes
Make use of C2 pointers : No

Read offset correction : 6
Overread into Lead-In and Lead-Out : No
Fill up missing offset samples with silence : Yes
Delete leading and trailing silent blocks : No
Null samples used in CRC calculations : Yes
Used interface : Native Win32 interface for Win NT & 2000
Gap handling : Appended to previous track

Used output format : User Defined Encoder
Selected bitrate : 768 kBit/s
Quality : High
Add ID3 tag : No
Command line compressor : C:\Program Files\Exact Audio Copy\FLAC\FLAC.EXE
Additional command line options : -8 -V -T "ARTIST=%artist%" -T "TITLE=%title%" -T "ALBUM=%albumtitle%" -T "DATE=%year%" -T "TRACKNUMBER=%tracknr%" -T "GENRE=%genre%" -T "PERFORMER=%albuminterpret%" -T "COMPOSER=%composer%" -T "ALBUMARTIST=%albumartist%" -T "DISCNUMBER=%cdnumber%" -T "TOTALDISCS=%totalcds%" -T "TOTALTRACKS=%numtracks%" -T "COMMENT=EAC Secure Mode, Test & Copy, AccurateRip, FLAC -8" %source% -o %dest%


TOC of the extracted CD

Track | Start | Length | Start sector | End sector
––––––––––––––––––––––––––––-
1 | 0:00.00 | 3:13.00 | 0 | 14474
2 | 3:13.00 | 2:05.61 | 14475 | 23910
3 | 5:18.61 | 2:41.58 | 23911 | 36043
4 | 8:00.44 | 3:51.44 | 36044 | 53412
5 | 11:52.13 | 5:13.52 | 53413 | 76939
6 | 17:05.65 | 3:57.14 | 76940 | 94728
7 | 21:03.04 | 1:17.69 | 94729 | 100572
8 | 22:20.73 | 3:57.27 | 100573 | 118374
9 | 26:18.25 | 3:14.66 | 118375 | 132990
10 | 29:33.16 | 3:57.63 | 132991 | 150828
11 | 33:31.04 | 4:25.59 | 150829 | 170762
12 | 37:56.63 | 2:55.17 | 170763 | 183904
13 | 40:52.05 | 4:02.24 | 183905 | 202078
14 | 44:54.29 | 2:00.66 | 202079 | 211144
15 | 46:55.20 | 3:25.66 | 211145 | 226585
16 | 50:21.11 | 4:22.05 | 226586 | 246240
17 | 54:43.16 | 8:14.10 | 246241 | 283300


Track 1

Filename F:\DL\Henri Dutilleux - Centenary Edition CD7 (2015) [FLAC]\01 - Quatuor sine nomine - Ainsi la nuit - I. Nocturne.wav

Pre-gap length 0:00:02.00

Peak level 63.2 %
Extraction speed 1.8 X
Track quality 100.0 %
Test CRC 89B98E37
Copy CRC 89B98E37
Accurately ripped (confidence 1) [33B6620B] (AR v2)
Copy OK

Track 2

Filename F:\DL\Henri Dutilleux - Centenary Edition CD7 (2015) [FLAC]\02 - Quatuor sine nomine - Ainsi la nuit - II. Miroir d'espace.wav

Peak level 54.6 %
Extraction speed 1.2 X
Track quality 99.9 %
Test CRC DA647A00
Copy CRC DA647A00
Accurately ripped (confidence 1) [80C42C74] (AR v2)
Copy OK

Track 3

Filename F:\DL\Henri Dutilleux - Centenary Edition CD7 (2015) [FLAC]\03 - Quatuor sine nomine - Ainsi la nuit - III. Litanies.wav

Peak level 77.5 %
Extraction speed 2.1 X
Track quality 100.0 %
Test CRC C70077A3
Copy CRC C70077A3
Accurately ripped (confidence 1) [B3C552B9] (AR v2)
Copy OK

Track 4

Filename F:\DL\Henri Dutilleux - Centenary Edition CD7 (2015) [FLAC]\04 - Quatuor sine nomine - Ainsi la nuit - IV. Litanies 2.wav

Peak level 75.6 %
Extraction speed 2.4 X
Track quality 100.0 %
Test CRC CFEBED0F
Copy CRC CFEBED0F
Accurately ripped (confidence 1) [276446FE] (AR v2)
Copy OK

Track 5

Filename F:\DL\Henri Dutilleux - Centenary Edition CD7 (2015) [FLAC]\05 - Quatuor sine nomine - Ainsi la nuit - V. Constellations, VI. Nocturne 2, VII. Temps suspendu.wav

Peak level 60.9 %
Extraction speed 2.1 X
Track quality 99.9 %
Test CRC 1FDF60DA
Copy CRC 1FDF60DA
Accurately ripped (confidence 1) [3C9C9F15] (AR v2)
Copy OK

Track 6

Filename F:\DL\Henri Dutilleux - Centenary Edition CD7 (2015) [FLAC]\06 - Emmanuel Pahud, Eric Le Sage - Sonatina - 1. Allegro.wav

Pre-gap length 0:00:06.50

Peak level 58.9 %
Extraction speed 2.8 X
Track quality 100.0 %
Test CRC 9B2F655F
Copy CRC 9B2F655F
Accurately ripped (confidence 1) [B7D76DC0] (AR v2)
Copy OK

Track 7

Filename F:\DL\Henri Dutilleux - Centenary Edition CD7 (2015) [FLAC]\07 - Emmanuel Pahud, Eric Le Sage - Sonatina - 2. Andante.wav

Peak level 74.2 %
Extraction speed 2.2 X
Track quality 100.0 %
Test CRC 01C4FB25
Copy CRC 01C4FB25
Accurately ripped (confidence 1) [CF66E370] (AR v2)
Copy OK

Track 8

Filename F:\DL\Henri Dutilleux - Centenary Edition CD7 (2015) [FLAC]\08 - Emmanuel Pahud, Eric Le Sage - Sonatina - 3. Anime.wav

Peak level 76.3 %
Extraction speed 2.2 X
Track quality 99.9 %
Test CRC 9730043C
Copy CRC 9730043C
Accurately ripped (confidence 1) [991712B8] (AR v2)
Copy OK

Track 9

Filename F:\DL\Henri Dutilleux - Centenary Edition CD7 (2015) [FLAC]\09 - Nicholas Daniel, Julius Drake - Sonata for oboe and piano - I. Aria- grave.wav

Peak level 66.8 %
Extraction speed 2.1 X
Track quality 99.9 %
Test CRC 625BEE7C
Copy CRC 625BEE7C
Accurately ripped (confidence 1) [81631173] (AR v2)
Copy OK

Track 10

Filename F:\DL\Henri Dutilleux - Centenary Edition CD7 (2015) [FLAC]\10 - Nicholas Daniel, Julius Drake - Sonata for oboe and piano - II. Scherzo- vif.wav

Peak level 80.8 %
Extraction speed 3.2 X
Track quality 100.0 %
Test CRC 45181663
Copy CRC 45181663
Accurately ripped (confidence 1) [6507F374] (AR v2)
Copy OK

Track 11

Filename F:\DL\Henri Dutilleux - Centenary Edition CD7 (2015) [FLAC]\11 - Nicholas Daniel, Julius Drake - Sonata for oboe and piano - III. Final- assez allant.wav

Peak level 51.5 %
Extraction speed 3.4 X
Track quality 100.0 %
Test CRC 8A55E238
Copy CRC 8A55E238
Accurately ripped (confidence 1) [54F50AC8] (AR v2)
Copy OK

Track 12

Filename F:\DL\Henri Dutilleux - Centenary Edition CD7 (2015) [FLAC]\12 - Pascal Godart, Marc Trenel - Sarabande et cortege - 1. Sarabande.wav

Peak level 79.9 %
Extraction speed 3.3 X
Track quality 100.0 %
Test CRC E4CA8BD2
Copy CRC E4CA8BD2
Accurately ripped (confidence 1) [FF3FB233] (AR v2)
Copy OK

Track 13

Filename F:\DL\Henri Dutilleux - Centenary Edition CD7 (2015) [FLAC]\13 - Pascal Godart, Marc Trenel - Sarabande et cortege - 2. Cortege.wav

Peak level 94.5 %
Extraction speed 2.6 X
Track quality 99.9 %
Test CRC 98FF7F44
Copy CRC 98FF7F44
Accurately ripped (confidence 1) [E7040FA3] (AR v2)
Copy OK

Track 14

Filename F:\DL\Henri Dutilleux - Centenary Edition CD7 (2015) [FLAC]\14 - Daniel Breszynski, Pascal Godart - Choral, cadence et fugurato - 1. Choral.wav

Peak level 56.2 %
Extraction speed 3.2 X
Track quality 100.0 %
Test CRC C59EDD49
Copy CRC C59EDD49
Accurately ripped (confidence 1) [B9E92192] (AR v2)
Copy OK

Track 15

Filename F:\DL\Henri Dutilleux - Centenary Edition CD7 (2015) [FLAC]\15 - Daniel Breszynski, Pascal Godart - Choral, cadence et fugurato - 2. Cadence et fugue.wav

Peak level 93.9 %
Extraction speed 3.6 X
Track quality 100.0 %
Test CRC F3995F1B
Copy CRC F3995F1B
Accurately ripped (confidence 1) [832474DB] (AR v2)
Copy OK

Track 16

Filename F:\DL\Henri Dutilleux - Centenary Edition CD7 (2015) [FLAC]\16 - Bourgue, Dreyfus, Cazauran, Balet - Les Citations - 1. For Aldeburgh 85.wav

Pre-gap length 0:00:06.50

Peak level 54.1 %
Extraction speed 3.9 X
Track quality 100.0 %
Test CRC 5013E1B6
Copy CRC 5013E1B6
Accurately ripped (confidence 1) [468285B2] (AR v2)
Copy OK

Track 17

Filename F:\DL\Henri Dutilleux - Centenary Edition CD7 (2015) [FLAC]\17 - Bourgue, Dreyfus, Cazauran, Balet - Les Citations - 2. From Jannequin to Jehan Alain.wav

Peak level 83.6 %
Extraction speed 4.3 X
Track quality 100.0 %
Test CRC 9483AA9F
Copy CRC 9483AA9F
Accurately ripped (confidence 1) [251FFF58] (AR v2)
Copy OK


All tracks accurately ripped

No errors occurred

End of status report

–– CUETools DB Plugin V2.1.6

[CTDB TOCID: l5fUYKWeBg92KNldhlPYS3id8T0-] found
Submit result: l5fUYKWeBg92KNldhlPYS3id8T0- has been confirmed
Track | CTDB Status
1 | (4/4) Accurately ripped
2 | (4/4) Accurately ripped
3 | (4/4) Accurately ripped
4 | (4/4) Accurately ripped
5 | (4/4) Accurately ripped
6 | (4/4) Accurately ripped
7 | (4/4) Accurately ripped
8 | (4/4) Accurately ripped
9 | (4/4) Accurately ripped
10 | (4/4) Accurately ripped
11 | (4/4) Accurately ripped
12 | (4/4) Accurately ripped
13 | (4/4) Accurately ripped
14 | (4/4) Accurately ripped
15 | (4/4) Accurately ripped
16 | (4/4) Accurately ripped
17 | (4/4) Accurately ripped


==== Log checksum 3ED43F38F26FED86B34FA96648F95546E375E42FF34ACEDFC73E4E17C7BAB04F ====


Henri Dutilleux - The Centenary Edition (2015) {7CD Box Set Erato-Warner Classics}


thanks to dtromp…