Subcategories

Herb Ellis, Joe Pass, Ray Brown, Jake Hanna - Jazz / Concord (1972) {2014 Japan Concord Jazz Selection Series UCCO-90301}

Posted By: ruskaval
Herb Ellis, Joe Pass, Ray Brown, Jake Hanna - Jazz / Concord (1972) {2014 Japan Concord Jazz Selection Series UCCO-90301}

Herb Ellis, Joe Pass, Ray Brown, Jake Hanna - Jazz / Concord (1972) {2014 Japan Concord Jazz Selection Series UCCO-90301}
EAC rip (secure mode) | FLAC (tracks)+CUE+LOG -> 208 Mb | MP3 @320 -> 87 Mb
Full Artwork @ 600 dpi (jpg) -> 77 Mb | 5% repair rar
© 1972, 2014 Concord / Universal Japan | UCCO-90301
Jazz / Bop / Guitar

The very first release by the Concord label was a quartet set featuring guitarists Herb Ellis and Joe Pass, bassist Ray Brown, and drummer Jake Hanna. Ellis and Pass (the latter was just beginning to be discovered) always made for a perfectly complementary team, constantly challenging each other. The boppish music (which mixes together standards with "originals" based on the blues and a standard) is quite enjoyable with the more memorable tunes including "Look for the Silver Lining," "Honeysuckle Rose," "Georgia," "Good News Blues," and "Bad News Blues." This was a strong start for what would become the definitive mainstream jazz label.
Herb Ellis, Joe Pass, Ray Brown, Jake Hanna - Jazz / Concord (1972) {2014 Japan Concord Jazz Selection Series UCCO-90301}


Personnel:
Herb Ellis – guitar
Joe Pass – guitar
Ray Brown – bass
Jake Hanna – drums

Herb Ellis, Joe Pass, Ray Brown, Jake Hanna - Jazz / Concord (1972) {2014 Japan Concord Jazz Selection Series UCCO-90301}


tracklist:
01 - Look For The Silver Lining
02 - Shadow Of Your Smile
03 - Good News Blues
04 - Honeysuckle Rose
05 - Happiness Is The Concord Jazz Festival
06 - Stuffy
07 - Georgia
08 - Love For Sale
09 - Bad News Blues

Exact Audio Copy V1.1 from 23. June 2015

EAC extraction logfile from 15. May 2016, 21:21

Herb Ellis, Joe Pass, Ray Brown, Jake Hanna / Jazz / Concord

Used drive : TSSTcorpCDDVDW SE-208DB Adapter: 1 ID: 0

Read mode : Secure
Utilize accurate stream : Yes
Defeat audio cache : Yes
Make use of C2 pointers : No

Read offset correction : 6
Overread into Lead-In and Lead-Out : No
Fill up missing offset samples with silence : Yes
Delete leading and trailing silent blocks : No
Null samples used in CRC calculations : Yes
Used interface : Native Win32 interface for Win NT & 2000
Gap handling : Appended to previous track

Used output format : User Defined Encoder
Selected bitrate : 1024 kBit/s
Quality : High
Add ID3 tag : No
Command line compressor : C:\Program Files (x86)\FLAC Frontend\tools\flac.exe
Additional command line options : -8 -V -T "ARTIST=%artist%" -T "TITLE=%title%" -T "ALBUM=%albumtitle%" -T "DATE=%year%" -T "TRACKNUMBER=%tracknr%" -T "TOTALTRACKS=%numtracks%" -T "GENRE=%genre%" -T "ALBUMARTIST=%albumartist%" -T "ALBUM ARTIST=%albumartist%" -T "COMMENT=EAC Secure Mode, Test & Copy, AccurateRip, FLAC -8" %source%


TOC of the extracted CD

Track | Start | Length | Start sector | End sector
––––––––––––––––––––––––––––-
1 | 0:00.00 | 4:47.72 | 0 | 21596
2 | 4:47.72 | 2:31.06 | 21597 | 32927
3 | 7:19.03 | 3:22.46 | 32928 | 48123
4 | 10:41.49 | 3:07.54 | 48124 | 62202
5 | 13:49.28 | 3:54.04 | 62203 | 79756
6 | 17:43.32 | 5:06.55 | 79757 | 102761
7 | 22:50.12 | 5:23.62 | 102762 | 127048
8 | 28:13.74 | 3:48.03 | 127049 | 144151
9 | 32:02.02 | 5:17.29 | 144152 | 167955


Track 1

Filename D:\_EAC\Herb Ellis, Joe Pass, Ray Brown, Jake Hanna - Jazz-Concord (1972) [FLAC] {UCCO-90301}\01 - Look For The Silver Lining.wav

Pre-gap length 0:00:02.00

Peak level 100.0 %
Extraction speed 1.1 X
Track quality 100.0 %
Test CRC 7D6CF860
Copy CRC 7D6CF860
Accurately ripped (confidence 2) [4517E7E2] (AR v2)
Copy OK

Track 2

Filename D:\_EAC\Herb Ellis, Joe Pass, Ray Brown, Jake Hanna - Jazz-Concord (1972) [FLAC] {UCCO-90301}\02 - Shadow Of Your Smile.wav

Peak level 100.0 %
Extraction speed 0.9 X
Track quality 99.9 %
Test CRC 6770405B
Copy CRC 6770405B
Accurately ripped (confidence 2) [39465AC6] (AR v2)
Copy OK

Track 3

Filename D:\_EAC\Herb Ellis, Joe Pass, Ray Brown, Jake Hanna - Jazz-Concord (1972) [FLAC] {UCCO-90301}\03 - Good News Blues.wav

Peak level 100.0 %
Extraction speed 1.2 X
Track quality 100.0 %
Test CRC 9DB3FA71
Copy CRC 9DB3FA71
Accurately ripped (confidence 2) [EE328C22] (AR v2)
Copy OK

Track 4

Filename D:\_EAC\Herb Ellis, Joe Pass, Ray Brown, Jake Hanna - Jazz-Concord (1972) [FLAC] {UCCO-90301}\04 - Honeysuckle Rose.wav

Peak level 99.9 %
Extraction speed 1.2 X
Track quality 100.0 %
Test CRC 7A6D9CEC
Copy CRC 7A6D9CEC
Accurately ripped (confidence 2) [39E97481] (AR v2)
Copy OK

Track 5

Filename D:\_EAC\Herb Ellis, Joe Pass, Ray Brown, Jake Hanna - Jazz-Concord (1972) [FLAC] {UCCO-90301}\05 - Happiness Is The Concord Jazz Festival.wav

Peak level 100.0 %
Extraction speed 1.2 X
Track quality 99.9 %
Test CRC F70E6A62
Copy CRC F70E6A62
Accurately ripped (confidence 2) [2A86B23C] (AR v2)
Copy OK

Track 6

Filename D:\_EAC\Herb Ellis, Joe Pass, Ray Brown, Jake Hanna - Jazz-Concord (1972) [FLAC] {UCCO-90301}\06 - Stuffy.wav

Peak level 96.9 %
Extraction speed 1.3 X
Track quality 99.9 %
Test CRC 96C390B5
Copy CRC 96C390B5
Accurately ripped (confidence 2) [277AD2DE] (AR v2)
Copy OK

Track 7

Filename D:\_EAC\Herb Ellis, Joe Pass, Ray Brown, Jake Hanna - Jazz-Concord (1972) [FLAC] {UCCO-90301}\07 - Georgia.wav

Peak level 100.0 %
Extraction speed 1.6 X
Track quality 100.0 %
Test CRC 5489A1DB
Copy CRC 5489A1DB
Accurately ripped (confidence 2) [CF1CFF01] (AR v2)
Copy OK

Track 8

Filename D:\_EAC\Herb Ellis, Joe Pass, Ray Brown, Jake Hanna - Jazz-Concord (1972) [FLAC] {UCCO-90301}\08 - Love For Sale.wav

Peak level 100.0 %
Extraction speed 1.3 X
Track quality 99.9 %
Test CRC 3F104D74
Copy CRC 3F104D74
Accurately ripped (confidence 2) [432E11BB] (AR v2)
Copy OK

Track 9

Filename D:\_EAC\Herb Ellis, Joe Pass, Ray Brown, Jake Hanna - Jazz-Concord (1972) [FLAC] {UCCO-90301}\09 - Bad News Blues.wav

Peak level 100.0 %
Extraction speed 1.5 X
Track quality 99.9 %
Test CRC A6E7522F
Copy CRC A6E7522F
Accurately ripped (confidence 2) [FEA28CAC] (AR v2)
Copy OK


All tracks accurately ripped

No errors occurred

End of status report

==== Log checksum 649B63BAC6CECE0D2647B754B73A4A6E69D3DAFAA807D80EBA751329936FAC66 ====


Herb Ellis, Joe Pass, Ray Brown, Jake Hanna - Jazz / Concord (1972) {2014 Japan Concord Jazz Selection Series UCCO-90301}

Herb Ellis, Joe Pass, Ray Brown, Jake Hanna - Jazz / Concord (1972) {2014 Japan Concord Jazz Selection Series UCCO-90301}


thanks to Mal for artwork…

NEXT -> more 2014 Japan Concord Jazz Selection Early Days Series on the way…