Subcategories

Herb Geller - The Gellers (1955) {EmArcy Japan Paper Sleeve UCCM-9102 rel 2002}

Posted By: ruskaval
Herb Geller - The Gellers (1955) {EmArcy Japan Paper Sleeve UCCM-9102 rel 2002}

Herb Geller - The Gellers (1955) {EmArcy Japan Paper Sleeve UCCM-9102 rel 2002}
EAC rip (secure mode) | FLAC (tracks)+CUE+LOG -> 244 Mb | MP3 @320 -> 116 Mb
Full Artwork @ 300 dpi (jpg) -> 12 Mb | 5% repair rar | 24/96 remastering | Mini LP
© 1955, 2002 EmArcy / Mercury / Verve / Universal Music Japan | UCCM-9102
Jazz / Bop / Hard Bop / Saxophone

Here's the final of a series of excellent recordings that he made for Emarcy in the 1950s, all of which have been reissued by Emarcy in Japan. One of the greatest records ever cut by altoist Herb Geller, and one of the few to document the work of his group that included wife Lorraine Geller on piano! Lorraine's quite nice, and the rhythm by Keith Mitchell and Mel Lewis is good too – but the real wonder is Herb's alto, which cuts along in a razor-sharp mode that clearly defines him as one of the best players of his generation on the instrument! The set's one of the few times you can really hear Herb cut loose – unencumbered by overwritten arrangements, or by other players in the group – and its his work on the album that makes this record a treasure!
Herb Geller - The Gellers (1955) {EmArcy Japan Paper Sleeve UCCM-9102 rel 2002}


Personnel:
Herb Geller - alto sax
Lorraine Geller - piano
Red Mitchell - bass
Mel Lewis - drums

Recorded: April 20, 21 & 26, 1955 Los Angeles, CA

tracklist:
01 - Arapahoe
02 - Come Rain Or Come Shine
03 - If I Were A Bell
04 - The Answer Man
05 - Love
06 - Two Of A Kind
07 - Blues In The Night
08 - I've Got A Feeling I'm Falling
09 - Patterns
10 - Heather On The Hill
11 - Bewitched
12 - Suppertime

Exact Audio Copy V0.99 prebeta 4 from 23. January 2008

EAC extraction logfile from 10. August 2010, 15:53

Herb Geller / The Gellers

Used drive : _NEC DVD_RW ND-3520A Adapter: 1 ID: 0

Read mode : Secure
Utilize accurate stream : Yes
Defeat audio cache : Yes
Make use of C2 pointers : No

Read offset correction : 48
Overread into Lead-In and Lead-Out : No
Fill up missing offset samples with silence : Yes
Delete leading and trailing silent blocks : No
Null samples used in CRC calculations : Yes
Used interface : Installed external ASPI interface
Gap handling : Appended to previous track

Used output format : User Defined Encoder
Selected bitrate : 1024 kBit/s
Quality : High
Add ID3 tag : No
Command line compressor : C:\Program Files\FLAC\flac.exe
Additional command line options : -8 -V -T "ARTIST=%a" -T "TITLE=%t" -T "ALBUM=%g" -T "DATE=%y" -T "TRACKNUMBER=%n" -T "GENRE=%m" -T "COMMENT=EAC FLAC -8" %s


TOC of the extracted CD

Track | Start | Length | Start sector | End sector
––––––––––––––––––––––––––––-
1 | 0:00.00 | 4:03.62 | 0 | 18286
2 | 4:03.62 | 5:03.18 | 18287 | 41029
3 | 9:07.05 | 3:05.65 | 41030 | 54969
4 | 12:12.70 | 3:50.05 | 54970 | 72224
5 | 16:03.00 | 3:09.35 | 72225 | 86434
6 | 19:12.35 | 2:53.40 | 86435 | 99449
7 | 22:06.00 | 5:18.57 | 99450 | 123356
8 | 27:24.57 | 3:18.08 | 123357 | 138214
9 | 30:42.65 | 2:51.02 | 138215 | 151041
10 | 33:33.67 | 5:20.25 | 151042 | 175066
11 | 38:54.17 | 4:56.70 | 175067 | 197336
12 | 43:51.12 | 5:32.00 | 197337 | 222236


Track 1

Filename C:\Documents and Settings\All Users\Documents\Uploads\Ex\Herb Geller - The Gellers (1955) [FLAC] {Emarcy Japanese Re-Issue}\01 - Arapahoe.wav

Pre-gap length 0:00:02.00

Peak level 79.3 %
Track quality 100.0 %
Test CRC 687ECABE
Copy CRC 687ECABE
Track not present in AccurateRip database
Copy OK

Track 2

Filename C:\Documents and Settings\All Users\Documents\Uploads\Ex\Herb Geller - The Gellers (1955) [FLAC] {Emarcy Japanese Re-Issue}\02 - Come Rain Or Come Shine.wav

Pre-gap length 0:00:01.98

Peak level 68.3 %
Track quality 100.0 %
Test CRC 00C56761
Copy CRC 00C56761
Track not present in AccurateRip database
Copy OK

Track 3

Filename C:\Documents and Settings\All Users\Documents\Uploads\Ex\Herb Geller - The Gellers (1955) [FLAC] {Emarcy Japanese Re-Issue}\03 - If I Were A Bell.wav

Pre-gap length 0:00:02.82

Peak level 71.7 %
Track quality 100.0 %
Test CRC 9F2C9103
Copy CRC 9F2C9103
Track not present in AccurateRip database
Copy OK

Track 4

Filename C:\Documents and Settings\All Users\Documents\Uploads\Ex\Herb Geller - The Gellers (1955) [FLAC] {Emarcy Japanese Re-Issue}\04 - The Answer Man.wav

Pre-gap length 0:00:02.05

Peak level 58.2 %
Track quality 100.0 %
Test CRC 5496FA6F
Copy CRC 5496FA6F
Track not present in AccurateRip database
Copy OK

Track 5

Filename C:\Documents and Settings\All Users\Documents\Uploads\Ex\Herb Geller - The Gellers (1955) [FLAC] {Emarcy Japanese Re-Issue}\05 - Love.wav

Pre-gap length 0:00:01.76

Peak level 50.4 %
Track quality 100.0 %
Test CRC 2448678C
Copy CRC 2448678C
Track not present in AccurateRip database
Copy OK

Track 6

Filename C:\Documents and Settings\All Users\Documents\Uploads\Ex\Herb Geller - The Gellers (1955) [FLAC] {Emarcy Japanese Re-Issue}\06 - Two Of A Kind.wav

Pre-gap length 0:00:01.29

Peak level 60.4 %
Track quality 100.0 %
Test CRC DD0E5EF1
Copy CRC DD0E5EF1
Track not present in AccurateRip database
Copy OK

Track 7

Filename C:\Documents and Settings\All Users\Documents\Uploads\Ex\Herb Geller - The Gellers (1955) [FLAC] {Emarcy Japanese Re-Issue}\07 - Blues In The Night.wav

Pre-gap length 0:00:01.78

Peak level 61.6 %
Track quality 99.9 %
Test CRC 94C13A6A
Copy CRC 94C13A6A
Track not present in AccurateRip database
Copy OK

Track 8

Filename C:\Documents and Settings\All Users\Documents\Uploads\Ex\Herb Geller - The Gellers (1955) [FLAC] {Emarcy Japanese Re-Issue}\08 - I've Got A Feeling I'm Falling.wav

Pre-gap length 0:00:01.32

Peak level 62.8 %
Track quality 100.0 %
Test CRC 17250427
Copy CRC 17250427
Track not present in AccurateRip database
Copy OK

Track 9

Filename C:\Documents and Settings\All Users\Documents\Uploads\Ex\Herb Geller - The Gellers (1955) [FLAC] {Emarcy Japanese Re-Issue}\09 - Patterns.wav

Pre-gap length 0:00:02.45

Peak level 55.5 %
Track quality 99.9 %
Test CRC AC1D5ECC
Copy CRC AC1D5ECC
Track not present in AccurateRip database
Copy OK

Track 10

Filename C:\Documents and Settings\All Users\Documents\Uploads\Ex\Herb Geller - The Gellers (1955) [FLAC] {Emarcy Japanese Re-Issue}\10 - Heather On A Hill.wav

Pre-gap length 0:00:01.88

Peak level 61.7 %
Track quality 100.0 %
Test CRC 1600EBFD
Copy CRC 1600EBFD
Track not present in AccurateRip database
Copy OK

Track 11

Filename C:\Documents and Settings\All Users\Documents\Uploads\Ex\Herb Geller - The Gellers (1955) [FLAC] {Emarcy Japanese Re-Issue}\11 - Bewitched.wav

Pre-gap length 0:00:02.54

Peak level 71.4 %
Track quality 100.0 %
Test CRC F0432CCB
Copy CRC F0432CCB
Track not present in AccurateRip database
Copy OK

Track 12

Filename C:\Documents and Settings\All Users\Documents\Uploads\Ex\Herb Geller - The Gellers (1955) [FLAC] {Emarcy Japanese Re-Issue}\12 - Suppertime.wav

Pre-gap length 0:00:01.85

Peak level 58.5 %
Track quality 100.0 %
Test CRC F3AB86C5
Copy CRC F3AB86C5
Track not present in AccurateRip database
Copy OK


None of the tracks are present in the AccurateRip database

No errors occurred

End of status report


Herb Geller - The Gellers (1955) {EmArcy Japan Paper Sleeve UCCM-9102 rel 2002}

Herb Geller - The Gellers (1955) {EmArcy Japan Paper Sleeve UCCM-9102 rel 2002}


see also:
Herb Geller - Herb Geller Plays (1954) {Emarcy Japan Paper Sleeve PHCE-3069 rel 1996}
Herb Geller - The Herb Geller Sextette (1955) {EmArcy Japan Paper Sleeve UCCM-9109 rel 2002}



===