Subcategories

Herbert Von Karajan - Master Recordings: Berliner Philharmoniker & Wiener Symphoniker [10 CDs Box-Set] (2007) REPOST

Posted By: El Misha
Herbert Von Karajan - Master Recordings: Berliner Philharmoniker & Wiener Symphoniker [10 CDs Box-Set] (2007) REPOST

Herbert Von Karajan - Master Recordings: Berliner Philharmoniker & Wiener Symphoniker (2007)
Classical | APE (image & cue & log) | Scans - 80 MB | 10:56:59 | 2.87 GB + 5% Recovery
Label: Deutsche Grammophon ‎– CDVP 004881 | Tracks: 102 | Rls.date: 2007

Herbert von Karajan was one of the 20th century's supreme conductors - unsurpassed in his ability to mould an orchestra and to achieve his ideal sound. He was also a master in the recording studio, with over 250 albums produced for Deutsche Grammophon - the label with which he is most closely identified. Here, on 10 specially-priced CDs, is a celebration of the 100th anniversary of his birth, featuring his work from 1959 to 1979 - including his first stereo recording for Deutsche Grammophon, his artistic partnership with the young Anne-Sophie Mutter, and much more. Celebrated recordings from 1959 to 1979.
* "He taught me such a lot about dynamics, colour, timbre and all the senses that are involved in music. He wanted a voice that could be like an instrument, with a purity of emission that would be at the service of the emotions of the character, as opposed to getting in the way of the character." – Barbara Hendricks: From Classic Record Collector, summer 2006)
* "He was very supportive. He was very demanding, strict and rigorous but at the same time, during a performance he did everything possible to help a singer and let a singer feel comfortable and at home. He had a wonderfully logical way of seeing and feeling the music and I felt it was a treat to perform with him and learn so much." – José Carreras: From Classic Record Collector, summer 2006
* "Herbert von Karajan ist für immer ein Fixstern in meinem musikalischen Leben. Sein Klangideal, die leidenschaftliche Suche nach der einzig wahren Interpretation und die besessene Disziplin in den Proben sind mir Vorbild. Generationen von Musikern, darunter ich als dreizehn jähriges Mädchen wurden von ihm gefördert und geformt. Dafür bin ich ewig dankbar." – Anne-Sophie Mutter
* "Karajan war einer der größten Dirigenten aller Zeiten und eine der größten Persönlichkeiten, die ich je getroffen habe. Er erschien mir immer wie ein großer Vogel mit weiten Schwingen. Wir weilen unten auf der Erde, doch er überflog die Welt und betrachtete sie aus einer viel höheren Perspektive. Seine großen Ideen hat er tatsächlich auch verwirklicht. Ein Genie wie Karajan gibt es nur sehr selten in unserer Welt." – Mariss Jansons
* "To have worked with Herbert von Karajan is one of the greatest experiences of my artistic life. The sound, which he produced together with the Vienna and Berlin Philharmonic orchestras, was something unique and then there was also the depth of his music-making. Even in the rehearsals you discovered things you had never heard before. It was not without reason that Carlos Kleiber sat through many of them." – Plácido Domingo



BOX CONTENT:

CD1: Strauss, R: Ein Heldenleben; Till Eulenspiegel (Karajan & Berliner Philharmoniker)
CD2: Beethoven - Symphonies Nos. 3 & 4 - Karajan & Berliner Philharmoniker - 1963
CD3: Tchaikovsky, Piano Concerto No. 1 - Variations on a Rococo Theme
CD4: Brahms - Symphonien Nos. 2 & 3
CD5: Stravinsky - Le Sacre du printemps - Bartok: Concerto for Orchestra
CD6: Debussy - La Mer: Prelude a L'Apres-midi d'un Faune - Ravel: Daphnis et Chloe, Suite No. 2: Bolero
CD7: Schubert - Symphonies Nos. 8 & 9
CD8: Opera Intermezzi
CD9: Mozart - Requiem K.626 - Mass K.317 Coronation
CD10: Beethoven, Concerto for Violin and Orchestra in D major, op. 61

CD1: Strauss, R: Ein Heldenleben; Till Eulenspiegel (Karajan & Berliner Philharmoniker)
Richard Strauss (1864 - 1949)
Ein Heldenleben, Op.40
Karajan & Berliner Philharmoniker

01. (A Hero's Life), Tone Poem for Large Orchestra : Der Held (04:14)
02. Des Helden Widersacher (03:27)
03. Des Helden Gefahrtin (13:00)
04. Des Helden Walstatt (07:14)
05. Des Helden Friedenswerke (06:04)
06. Des Helden Weltflucht und Vollendung (11:42)
07. Till Eulenspiegels lustige Streiche Op. 28 (Till Eulenspiegel's Merry Pranks) (15:31)

CD2: Beethoven - Symphonies Nos. 3 & 4 - Karajan & Berliner Philharmoniker - 1963
Symphony No.3 in E flat major 'Eroica' Op.55
Karajan & Berliner Philharmoniker
01. I. Allegro con brio (14:50)
02. II. Marcia funebre. Adagio assai (17:06)
03. III. Scherzo. Allegro vivace (05:46)
04. IV. Finale. Allegro molto (12:25)

Symphony No.4 in B flat major op.60
05. I. Adagio - Allegro vivace (09:55)
06. II. Adagio (09:58)
07. III. Allegro vivace (05:45)
08. IV. Allegro ma non troppo (05:31)

CD3: Tchaikovsky, Piano Concerto No. 1 - Variations on a Rococo Theme
Richter, Rostropovich, Karajan & Wiener Symphoniker - (1963, 1969)
Piano Concerto No.1 in B flat minor, Op. 23
01. I. Allegro non troppo e molto maestoso - Allegro con spirito (22:08)
02. II. Andantino semplice - Prestissimo - Tempo I (06:55)
03. III. Allegro con fuoco (07:15)

Variations on a Rococo Theme, for cello & orchestra in A major, Op. 33
04. Moderato quasi Andante (00:54)
05. Tema. Moderato semplice (01:42)
06. Variazione I. Tempo del Tema (00:52)
07. Variazione II. Tempo del Tema (01:13)
08. Variazione III. Andante sostenuto (03:58)
09. Variazione IV. Andante grazioso (01:53)
10. Variazione V. Allegro moderato (03:27)
11. Variazione VI. Andante (02:52)
12. Variazione VII e Coda. Allegro vivo (01:59)

CD4: Brahms - Symphonien Nos. 2 & 3
Karajan & Berliner Philharmoniker - (1964)
Symphony No.2 in D major op.73
01. Allegro non troppo (15:43)
02. Adagio non troppo - L'istesso tempo, ma grazioso (10:54)
03. Allegretto grazioso (Quasi Andantino) (05:22)
04. Allegro con spirito (09:11)

Symphony No.3 in F major op.90
05. Allegro con brio (09:48)
06. Andante (07:43)
07. Poco Allegretto (05:56)
08. Allegro (08:49)

CD5: Stravinsky - Le Sacre du printemps - Bartok: Concerto for Orchestra
Herbert von Karajan & Berliner Philharmoniker - (1964)
Stravinsky - Le Sacre du printemps
Revised version for Orchestra (published 1947)
Part 1: The Adoration of the Earth
01. I. L'Adoration de la terre. Introduction (03:18)
02. Les Augures printaniers (Danses des adolescentes) (03:24)
03. Jeu du rapt (01:10)
04. Rondes printanieres (03:37)
05. Jeux des cites rivales (01:50)
06. Cortege du Sage (00:42)
07. Adoration de la terre (Le Sage) (00:25)
08. Danse de la terre (01:15)

Part 2: The Sacrifice
09. Introduction (04:37)
10. Cercles mysterieux des adolescentes (03:27)
11. Glorification de l'Elue (01:32)
12. Evocation des ancetres (00:46)
13. Action rituelle des ancetres (03:57)
14. Danse sacrale (L'Elue) (04:50)

Bartok - Concerto for Orchestra, Sz. 116
15. 1. (Introduzione). Andante non troppo - Allegro vivace (10:09)
16. 2. (Giuoco delle coppie). Allegretto scherzando (06:50)
17. 3. (Elegia). Andante, non troppo (08:14)
18. 4. (Intermezzo interrotto). Allegretto (04:18)
19. 5. (Finale). Pesante - Presto (09:25)

CD6: Debussy - La Mer: Prelude a L'Apres-midi d'un Faune - Ravel: Daphnis et Chloe, Suite No. 2: Bolero
Herbert von Karajan & Berliner Philharmoniker - (1965, 1966)
Claude Debussy (1862-1918)
La Mer
Prelude a l'apres-midi d'un faune
Maurice Ravel
Daphnis et Chloe
Bolero
Berliner Philharmoniker
Herbert von Karajan
Total Time: 64:15
Berliner PhilharmonikerYear: 1965, 1966

Debussy - La Mer
01. De l'aube a midi sur la mer. Tres lent (08:36)
02. Jeux de vagues. Allegro (06:12)
03. Dialogue du vent et de la mer. Animй et tumultueux (07:57)
04. Prelude a l'apres-midi d'un faune (09:57)
Maurice Ravel
05. Daphnis et Chloe - Suite No. 2 (15:21)
06. Bolero (16:09)

CD7: Schubert - Symphonies Nos. 8 & 9
Karajan & Berliner Philharmoniker - (1965, 1966)
Franz Schubert (1797-1828)
Symphony No.8 in B minor "Unfinished" D 759
Symphony No.9 in C major "The Great" D 944
Berliner Philharmoniker
Herbert von Karajan
Total Time : 71:05
Year : 1965 (No.8), 1969 (No.9)

Symphony No.8 in B minor ("Unfinished"), D. 759
01. I. Allegro moderato (11:33)
02. II. Andante con moto (12:43)

Symphony No.9 in C major ("The Great"), D. 944
03. I. Andante - Allegro ma non troppo (12:44)
04. II. Andante con moto (12:19)
05. III. Scherzo. Allegro vivace (10:05)
06. IV. Finale. Allegro vivace (11:32)

CD8: Opera Intermezzi
Karajan & Berliner Philharmoniker - (1968)
Giuseppe Verdi - La Traviata
01. Prelude to Act 3 (04:29)
Pietro Mascagni - Cavalleria rusticana
02. Intermezzo sinfonico (03:31)
Giacomo Puccini - Suor Angelica, Opera lirica in un atto
03. Intermezzo (04:37)
Ruggiero Leoncavallo - Pagliacci, Act 1
04. Intermezzo (03:42)
Modest Petrovich Mussorgsky - Khovanshchina, Act 4
05. Intermezzo (04:09)
Giacomo Puccini - Manon Lescaut, Act 3
06. Intermezzo (05:37)
Franz Schmidt - Notre Dame
07. Intermezzo (04:43)
Jules Massenet - Thais, Act 2
08. M'editation - Intermezzo (06:04)
Umberto Giordano - Fedora, Act 2
09. Intermezzo (02:03)
Francesco Cilea - Adriana Lecouvreur, Act 2
10. Intermezzo (02:28)
Ermanno Wolf Ferrari - Der Schmuck der Madonna, Act 3
11. Intermezzo (03:41)
Pietro Mascagni - L'amico Fritz, act 3
12. Intermezzo (05:01)

CD9: Mozart - Requiem K.626 - Mass K.317 Coronation
Karajan & Berliner Philharmoniker - (1976)
Requiem in D minor, K.626
01. Introitus. Requiem (05:43)
02. II. Kyrie (02:48)
03. III. Sequenz. No.1 Dies irae (01:52)
04. No.2 Tuba mirum (04:13)
05. No.3 Rex tremendae (02:27)
06. No.4 Recordare (05:18)
07. No.5 Confutatis (02:24)
08. No.6 Lacrimosa (03:22)
09. IV. Offertorium. No. 1 Domine Jesu (03:50)
10. No. 2 Hostias (04:28)
11. V. Sanctus (01:44)
12. VI. Benedictus (05:13)
13. VII. Agnus Dei (03:35)
14. VIII. Communio. Lux aeterna (06:24)
Anna Tomowa-Sintow - soprano, Berliner Philharmoniker,
Herbert von Karajan, Rudolf Scholz - organ,
Wiener Singverein - chorus master, Helmut Froschauer

Mass in C major "Coronation" KV 317
15. Kyrie (03:15)
16. Gloria (03:58)
17. Credo (06:39)
18. Sanctus (01:57)
19. Benedictus (03:16)
20. Agnus Dei. Agnus Dei (03:51)
21. Agnus Dei. Dona nobis pacem (02:48)
Anna Tomowa-Sintow - soprano, Agnes Baltsa - contralto ,
Werner Krenn -tenor, José van Dam - bass,
Berliner Philharmoniker, Herbert von Karajan,
Rudolf Scholz - organ, Wiener Singverein - chorus master, Helmut Froschauer

CD10: Beethoven, Concerto for Violin and Orchestra in D major, op. 61
Anne-Sophie Mutter, Karajan & Berliner Philharmoniker
Ludwig van Beethoven (1770-1827)
Concerto for Violin and Orchestra in D major
Cadenzas : Fritz Kreisler
Anne-Sophie Mutter : Violin
Berliner Philharmoniker
Herbert von Karajan
Total Time : 48:20
Year : 1980

Violin Concerto in D, Op.61
01. I. Allegro ma non troppo (26:34)
02. II. Larghetto (11:24)
03. III. Rondo. Allegro (10:21)


CD1:EAC-log
Exact Audio Copy V0.99 prebeta 5 from 4. May 2009

EAC extraction logfile from 26. October 2011, 19:15

Karajan / Berliner Philharmoniker / Strauss: Ein Heldenleben, Op. 40

Used drive : TSSTcorpCDDVDW SE-S224Q Adapter: 2 ID: 0

Read mode : Secure
Utilize accurate stream : Yes
Defeat audio cache : Yes
Make use of C2 pointers : No

Read offset correction : 6
Overread into Lead-In and Lead-Out : No
Fill up missing offset samples with silence : Yes
Delete leading and trailing silent blocks : No
Null samples used in CRC calculations : Yes
Used interface : Installed external ASPI interface

Used output format : Monkey's Audio Lossless Encoder v3.99 DLL
Sample format : Normal Lossless Compression

TOC of the extracted CD

Track | Start | Length | Start sector | End sector
––––––––––––––––––––––––––––-
1 | 0:00.00 | 4:14.00 | 0 | 19049
2 | 4:14.00 | 3:27.27 | 19050 | 34601
3 | 7:41.27 | 13:00.18 | 34602 | 93119
4 | 20:41.45 | 7:14.55 | 93120 | 125724
5 | 27:56.25 | 6:04.12 | 125725 | 153036
6 | 34:00.37 | 11:42.70 | 153037 | 205756
7 | 45:43.32 | 15:31.19 | 205757 | 275600

Range status and errors

Selected range

Filename E:\ICE\K.MR\Vol.01\Karajan Berliner Philharmoniker - Strauss Ein Heldenleben, Op. 40.ape

Peak level 99.9 %
Range quality 100.0 %
Test CRC 286216B3
Copy CRC 286216B3
Copy OK

No errors occurred

AccurateRip summary

Track 1 accurately ripped (confidence 19) [572DD6DA]
Track 2 accurately ripped (confidence 19) [82D807BF]
Track 3 accurately ripped (confidence 18) [2CC73880]
Track 4 accurately ripped (confidence 19) [2808D035]
Track 5 accurately ripped (confidence 18) [5BB15DB9]
Track 6 accurately ripped (confidence 18) [2505648E]
Track 7 accurately ripped (confidence 18) [FB63E6A1]

All tracks accurately ripped

End of status report


CD2:EAC-log
Exact Audio Copy V0.99 prebeta 5 from 4. May 2009

EAC extraction logfile from 26. October 2011, 20:40

Karajan / Berliner Philharmoniker / Beethoven : Symphonies Nos. 3 & 4

Used drive : TSSTcorpCDDVDW SE-S224Q Adapter: 2 ID: 0

Read mode : Secure
Utilize accurate stream : Yes
Defeat audio cache : Yes
Make use of C2 pointers : No

Read offset correction : 6
Overread into Lead-In and Lead-Out : No
Fill up missing offset samples with silence : Yes
Delete leading and trailing silent blocks : No
Null samples used in CRC calculations : Yes
Used interface : Installed external ASPI interface

Used output format : Monkey's Audio Lossless Encoder v3.99 DLL
Sample format : Normal Lossless Compression

TOC of the extracted CD

Track | Start | Length | Start sector | End sector
––––––––––––––––––––––––––––-
1 | 0:00.00 | 14:50.00 | 0 | 66749
2 | 14:50.00 | 17:06.00 | 66750 | 143699
3 | 31:56.00 | 5:46.00 | 143700 | 169649
4 | 37:42.00 | 12:25.00 | 169650 | 225524
5 | 50:07.00 | 9:55.00 | 225525 | 270149
6 | 60:02.00 | 9:58.00 | 270150 | 314999
7 | 70:00.00 | 5:45.00 | 315000 | 340874
8 | 75:45.00 | 5:31.00 | 340875 | 365699

Range status and errors

Selected range

Filename E:\ICE\K.MR\Vol.02\Karajan Berliner Philharmoniker - Beethoven Symphonies Nos. 3 & 4.ape

Peak level 99.2 %
Range quality 99.9 %
Test CRC A2EC0419
Copy CRC A2EC0419
Copy OK

No errors occurred

AccurateRip summary

Track 1 accurately ripped (confidence 23) [52849051]
Track 2 accurately ripped (confidence 23) [DA673660]
Track 3 accurately ripped (confidence 23) [AF213C28]
Track 4 accurately ripped (confidence 23) [54B23014]
Track 5 accurately ripped (confidence 23) [70D07FE2]
Track 6 accurately ripped (confidence 23) [4E2A3423]
Track 7 accurately ripped (confidence 22) [168C1FFC]
Track 8 accurately ripped (confidence 22) [DEFF9EA1]

All tracks accurately ripped

End of status report

CD3:EAC-log
Exact Audio Copy V0.99 prebeta 5 from 4. May 2009

EAC extraction logfile from 27. October 2011, 0:16

Richter, Rostropovich, Karajan / Wiener Symphoniker, / Tchaikovsky : Piano Concerto No. 1 - Variations on a Rococo Theme

Used drive : TSSTcorpCDDVDW SE-S224Q Adapter: 2 ID: 0

Read mode : Secure
Utilize accurate stream : Yes
Defeat audio cache : Yes
Make use of C2 pointers : No

Read offset correction : 6
Overread into Lead-In and Lead-Out : No
Fill up missing offset samples with silence : Yes
Delete leading and trailing silent blocks : No
Null samples used in CRC calculations : Yes
Used interface : Installed external ASPI interface

Used output format : Monkey's Audio Lossless Encoder v3.99 DLL
Sample format : Normal Lossless Compression

TOC of the extracted CD

Track | Start | Length | Start sector | End sector
––––––––––––––––––––––––––––-
1 | 0:00.00 | 22:08.67 | 0 | 99666
2 | 22:08.67 | 6:55.25 | 99667 | 130816
3 | 29:04.17 | 7:15.50 | 130817 | 163491
4 | 36:19.67 | 0:54.26 | 163492 | 167567
5 | 37:14.18 | 1:42.70 | 167568 | 175287
6 | 38:57.13 | 0:52.23 | 175288 | 179210
7 | 39:49.36 | 1:13.07 | 179211 | 184692
8 | 41:02.43 | 3:58.46 | 184693 | 202588
9 | 45:01.14 | 1:53.54 | 202589 | 211117
10 | 46:54.68 | 3:27.47 | 211118 | 226689
11 | 50:22.40 | 2:52.15 | 226690 | 239604
12 | 53:14.55 | 1:59.20 | 239605 | 248549

Range status and errors

Selected range

Filename E:\ICE\K.MR\Vol.03\Richter, Rostropovich, Karajan Wiener Symphoniker, - Tchaikovsky Piano Concerto No. 1 - Variations on a Rococo Theme.ape

Peak level 98.0 %
Range quality 99.9 %
Test CRC 65B2D4A2
Copy CRC 65B2D4A2
Copy OK

No errors occurred

AccurateRip summary

Track 1 accurately ripped (confidence 27) [2C1DE70D]
Track 2 accurately ripped (confidence 28) [756EF025]
Track 3 accurately ripped (confidence 28) [F9C34BF8]
Track 4 accurately ripped (confidence 28) [9D22A436]
Track 5 accurately ripped (confidence 28) [91EE6543]
Track 6 accurately ripped (confidence 28) [77FC6ADE]
Track 7 accurately ripped (confidence 28) [7638EBE4]
Track 8 accurately ripped (confidence 28) [F59A0C91]
Track 9 accurately ripped (confidence 28) [C27B5F51]
Track 10 accurately ripped (confidence 28) [6833D9DE]
Track 11 accurately ripped (confidence 28) [8D0E871C]
Track 12 accurately ripped (confidence 28) [5DAFADB2]

All tracks accurately ripped

End of status report

CD4:EAC-log
Exact Audio Copy V0.99 prebeta 5 from 4. May 2009

EAC extraction logfile from 26. October 2011, 18:19

Karajan / Berliner Philharmoniker / Brahms : Symphonien Nos. 2 & 3

Used drive : TSSTcorpCDDVDW SE-S224Q Adapter: 2 ID: 0

Read mode : Secure
Utilize accurate stream : Yes
Defeat audio cache : Yes
Make use of C2 pointers : No

Read offset correction : 6
Overread into Lead-In and Lead-Out : No
Fill up missing offset samples with silence : Yes
Delete leading and trailing silent blocks : No
Null samples used in CRC calculations : Yes
Used interface : Installed external ASPI interface

Used output format : Monkey's Audio Lossless Encoder v3.99 DLL
Sample format : Normal Lossless Compression

TOC of the extracted CD

Track | Start | Length | Start sector | End sector
––––––––––––––––––––––––––––-
1 | 0:00.00 | 15:43.12 | 0 | 70736
2 | 15:43.12 | 10:54.71 | 70737 | 119857
3 | 26:38.08 | 5:22.31 | 119858 | 144038
4 | 32:00.39 | 9:11.21 | 144039 | 185384
5 | 41:11.60 | 9:48.41 | 185385 | 229525
6 | 51:00.26 | 7:43.04 | 229526 | 264254
7 | 58:43.30 | 5:56.21 | 264255 | 290975
8 | 64:39.51 | 8:49.30 | 290976 | 330680

Range status and errors

Selected range

Filename E:\ICE\K.MR\Vol.04\Karajan Berliner Philharmoniker - Brahms Symphonien Nos. 2 & 3.ape

Peak level 98.0 %
Range quality 100.0 %
Test CRC 9CE74604
Copy CRC 9CE74604
Copy OK

No errors occurred

AccurateRip summary

Track 1 accurately ripped (confidence 21) [1A888835]
Track 2 accurately ripped (confidence 21) [EF842B72]
Track 3 accurately ripped (confidence 21) [C9967720]
Track 4 accurately ripped (confidence 21) [C9DF4C50]
Track 5 accurately ripped (confidence 21) [06C656DC]
Track 6 accurately ripped (confidence 21) [85A75731]
Track 7 accurately ripped (confidence 21) [8D1C506F]
Track 8 accurately ripped (confidence 20) [00F87BFE]

All tracks accurately ripped

End of status report

CD5:EAC-log
Exact Audio Copy V0.99 prebeta 5 from 4. May 2009

EAC extraction logfile from 27. October 2011, 10:57

Herbert von Karajan / Stravinsky : Le Sacre du printemps - Bartok: Concerto for Orchestra

Used drive : TSSTcorpCDDVDW SE-S224Q Adapter: 2 ID: 0

Read mode : Secure
Utilize accurate stream : Yes
Defeat audio cache : Yes
Make use of C2 pointers : No

Read offset correction : 6
Overread into Lead-In and Lead-Out : No
Fill up missing offset samples with silence : Yes
Delete leading and trailing silent blocks : No
Null samples used in CRC calculations : Yes
Used interface : Installed external ASPI interface

Used output format : Monkey's Audio Lossless Encoder v3.99 DLL
Sample format : Normal Lossless Compression

TOC of the extracted CD

Track | Start | Length | Start sector | End sector
––––––––––––––––––––––––––––-
1 | 0:00.00 | 3:18.34 | 0 | 14883
2 | 3:18.34 | 3:24.18 | 14884 | 30201
3 | 6:42.52 | 1:10.12 | 30202 | 35463
4 | 7:52.64 | 3:37.17 | 35464 | 51755
5 | 11:30.06 | 1:50.45 | 51756 | 60050
6 | 13:20.51 | 0:42.00 | 60051 | 63200
7 | 14:02.51 | 0:25.15 | 63201 | 65090
8 | 14:27.66 | 1:15.36 | 65091 | 70751
9 | 15:43.27 | 4:37.28 | 70752 | 91554
10 | 20:20.55 | 3:27.53 | 91555 | 107132
11 | 23:48.33 | 1:32.40 | 107133 | 114072
12 | 25:20.73 | 0:46.11 | 114073 | 117533
13 | 26:07.09 | 3:57.18 | 117534 | 135326
14 | 30:04.27 | 4:50.15 | 135327 | 157091
15 | 34:54.42 | 10:09.21 | 157092 | 202787
16 | 45:03.63 | 6:50.60 | 202788 | 233597
17 | 51:54.48 | 8:14.21 | 233598 | 270668
18 | 60:08.69 | 4:18.39 | 270669 | 290057
19 | 64:27.33 | 9:25.06 | 290058 | 332438

Range status and errors

Selected range

Filename E:\ICE\K.MR\Vol.05\Herbert von Karajan - Stravinsky Le Sacre du printemps - Bartok Concerto for Orchestra.ape

Peak level 99.2 %
Range quality 100.0 %
Test CRC E8505DDC
Copy CRC E8505DDC
Copy OK

No errors occurred

AccurateRip summary

Track 1 accurately ripped (confidence 20) [252C5240]
Track 2 accurately ripped (confidence 20) [D41F1C54]
Track 3 accurately ripped (confidence 20) [B3DD8A34]
Track 4 accurately ripped (confidence 20) [A6F7A5C5]
Track 5 accurately ripped (confidence 20) [6E329D95]
Track 6 accurately ripped (confidence 20) [A150B032]
Track 7 accurately ripped (confidence 20) [85F0781A]
Track 8 accurately ripped (confidence 20) [7C55A8EB]
Track 9 accurately ripped (confidence 20) [1441930C]
Track 10 accurately ripped (confidence 20) [88685F97]
Track 11 accurately ripped (confidence 20) [F3A145F6]
Track 12 accurately ripped (confidence 20) [29D82DE3]
Track 13 accurately ripped (confidence 20) [D28DAE9A]
Track 14 accurately ripped (confidence 20) [767F9534]
Track 15 accurately ripped (confidence 20) [84858CF5]
Track 16 accurately ripped (confidence 20) [40EA21A3]
Track 17 accurately ripped (confidence 20) [FB84FBA9]
Track 18 accurately ripped (confidence 20) [72970D14]
Track 19 accurately ripped (confidence 20) [08A4D60E]

All tracks accurately ripped

End of status report

Exact Audio Copy V0.99 prebeta 5 from 4. May 2009

EAC extraction logfile from 27. October 2011, 11:40

Herbert von Karajan / Debussy: La Mer: Prelude a L'Apres-midi d'un Faune - Ravel: Daphnis et Chloe, Suite No. 2: Bolero

Used drive : TSSTcorpCDDVDW SE-S224Q Adapter: 2 ID: 0

Read mode : Secure
Utilize accurate stream : Yes
Defeat audio cache : Yes
Make use of C2 pointers : No

Read offset correction : 6
Overread into Lead-In and Lead-Out : No
Fill up missing offset samples with silence : Yes
Delete leading and trailing silent blocks : No
Null samples used in CRC calculations : Yes
Used interface : Installed external ASPI interface

Used output format : Monkey's Audio Lossless Encoder v3.99 DLL
Sample format : Normal Lossless Compression

TOC of the extracted CD

Track | Start | Length | Start sector | End sector
––––––––––––––––––––––––––––-
1 | 0:00.00 | 8:36.57 | 0 | 38756
2 | 8:36.57 | 6:12.70 | 38757 | 66726
3 | 14:49.52 | 7:57.62 | 66727 | 102563
4 | 22:47.39 | 9:57.02 | 102564 | 147340
5 | 32:44.41 | 15:21.04 | 147341 | 216419
6 | 48:05.45 | 16:09.30 | 216420 | 289124

Range status and errors

Selected range

Filename E:\ICE\K.MR\Vol.06\Herbert von Karajan - Debussy La Mer Prelude a L'Apres-midi d'un Faune - Ravel Daphnis et Chloe, Suite No. 2 Bolero.ape

Peak level 100.0 %
Range quality 100.0 %
Test CRC 1B03CBDC
Copy CRC 1B03CBDC
Copy OK

No errors occurred

AccurateRip summary

Track 1 accurately ripped (confidence 29) [E09F2848]
Track 2 accurately ripped (confidence 29) [411CB87B]
Track 3 accurately ripped (confidence 29) [C75383A8]
Track 4 accurately ripped (confidence 29) [8453FAF3]
Track 5 accurately ripped (confidence 29) [E899BC87]
Track 6 accurately ripped (confidence 29) [FA2A26E5]

All tracks accurately ripped

End of status report

Exact Audio Copy V0.99 prebeta 5 from 4. May 2009

EAC extraction logfile from 27. October 2011, 13:18

Karajan / Berliner Philharmoniker / Schubert: Symphonies Nos. 8 & 9

Used drive : TSSTcorpCDDVDW SE-S224Q Adapter: 2 ID: 0

Read mode : Secure
Utilize accurate stream : Yes
Defeat audio cache : Yes
Make use of C2 pointers : No

Read offset correction : 6
Overread into Lead-In and Lead-Out : No
Fill up missing offset samples with silence : Yes
Delete leading and trailing silent blocks : No
Null samples used in CRC calculations : Yes
Used interface : Installed external ASPI interface

Used output format : Monkey's Audio Lossless Encoder v3.99 DLL
Sample format : Normal Lossless Compression

TOC of the extracted CD

Track | Start | Length | Start sector | End sector
––––––––––––––––––––––––––––-
1 | 0:00.00 | 11:33.62 | 0 | 52036
2 | 11:33.62 | 12:43.37 | 52037 | 109298
3 | 24:17.24 | 12:44.23 | 109299 | 166621
4 | 37:01.47 | 12:19.53 | 166622 | 222099
5 | 49:21.25 | 10:05.55 | 222100 | 267529
6 | 59:27.05 | 11:32.63 | 267530 | 319492

Range status and errors

Selected range

Filename E:\ICE\K.MR\Vol.07\Karajan Berliner Philharmoniker - Schubert Symphonies Nos. 8 & 9.ape

Peak level 98.0 %
Range quality 100.0 %
Test CRC 9DA6AA83
Copy CRC 9DA6AA83
Copy OK

No errors occurred

AccurateRip summary

Track 1 accurately ripped (confidence 17) [782F0B60]
Track 2 accurately ripped (confidence 17) [D83C415A]
Track 3 accurately ripped (confidence 17) [C8D260AA]
Track 4 accurately ripped (confidence 17) [29BDDA9D]
Track 5 accurately ripped (confidence 17) [580BD284]
Track 6 accurately ripped (confidence 17) [9FE59E6D]

All tracks accurately ripped

End of status report

CD8:EAC-log
Exact Audio Copy V0.99 prebeta 5 from 4. May 2009

EAC extraction logfile from 27. October 2011, 15:52

Karajan / Berliner Philharmoniker / Opera Intermezzzi

Used drive : TSSTcorpCDDVDW SE-S224Q Adapter: 2 ID: 0

Read mode : Secure
Utilize accurate stream : Yes
Defeat audio cache : Yes
Make use of C2 pointers : No

Read offset correction : 6
Overread into Lead-In and Lead-Out : No
Fill up missing offset samples with silence : Yes
Delete leading and trailing silent blocks : No
Null samples used in CRC calculations : Yes
Used interface : Installed external ASPI interface

Used output format : Monkey's Audio Lossless Encoder v3.99 DLL
Sample format : Normal Lossless Compression

TOC of the extracted CD

Track | Start | Length | Start sector | End sector
––––––––––––––––––––––––––––-
1 | 0:00.00 | 4:29.72 | 0 | 20246
2 | 4:29.72 | 3:31.37 | 20247 | 36108
3 | 8:01.34 | 4:37.32 | 36109 | 56915
4 | 12:38.66 | 3:42.54 | 56916 | 73619
5 | 16:21.45 | 4:09.28 | 73620 | 92322
6 | 20:30.73 | 5:37.54 | 92323 | 117651
7 | 26:08.52 | 4:43.31 | 117652 | 138907
8 | 30:52.08 | 6:04.25 | 138908 | 166232
9 | 36:56.33 | 2:03.33 | 166233 | 175490
10 | 38:59.66 | 2:28.13 | 175491 | 186603
11 | 41:28.04 | 3:41.53 | 186604 | 203231
12 | 45:09.57 | 5:01.69 | 203232 | 225875

Range status and errors

Selected range

Filename E:\ICE\K.MR\Vol.08\Karajan Berliner Philharmoniker - Opera Intermezzzi.ape

Peak level 100.0 %
Range quality 100.0 %
Test CRC 03A9ABFE
Copy CRC 03A9ABFE
Copy OK

No errors occurred

AccurateRip summary

Track 1 accurately ripped (confidence 25) [6EBD1A87]
Track 2 accurately ripped (confidence 27) [F3B4A6C6]
Track 3 accurately ripped (confidence 26) [1C4AE2C9]
Track 4 accurately ripped (confidence 26) [ACB4CDB1]
Track 5 accurately ripped (confidence 26) [7AB05FD1]
Track 6 accurately ripped (confidence 26) [2E9D9A91]
Track 7 accurately ripped (confidence 27) [D07C05FA]
Track 8 accurately ripped (confidence 26) [28C93CA8]
Track 9 accurately ripped (confidence 27) [380503A8]
Track 10 accurately ripped (confidence 26) [A1A9669E]
Track 11 accurately ripped (confidence 26) [763C21C6]
Track 12 accurately ripped (confidence 26) [63191918]

All tracks accurately ripped

End of status report

Exact Audio Copy V0.99 prebeta 5 from 4. May 2009

EAC extraction logfile from 26. October 2011, 14:14

Karajan - Berliner Philharmoniker / Mozart : Requiem K.626 - Mass K.317 "Coronation"

Used drive : TSSTcorpCDDVDW SE-S224Q Adapter: 2 ID: 0

Read mode : Secure
Utilize accurate stream : Yes
Defeat audio cache : Yes
Make use of C2 pointers : No

Read offset correction : 6
Overread into Lead-In and Lead-Out : No
Fill up missing offset samples with silence : Yes
Delete leading and trailing silent blocks : No
Null samples used in CRC calculations : Yes
Used interface : Installed external ASPI interface

Used output format : Monkey's Audio Lossless Encoder v3.99 DLL
Sample format : Normal Lossless Compression

TOC of the extracted CD

Track | Start | Length | Start sector | End sector
––––––––––––––––––––––––––––-
1 | 0:00.00 | 5:43.29 | 0 | 25753
2 | 5:43.29 | 2:48.41 | 25754 | 38394
3 | 8:31.70 | 1:52.00 | 38395 | 46794
4 | 10:23.70 | 4:13.05 | 46795 | 65774
5 | 14:37.00 | 2:27.00 | 65775 | 76799
6 | 17:04.00 | 5:18.13 | 76800 | 100662
7 | 22:22.13 | 2:24.62 | 100663 | 111524
8 | 24:47.00 | 3:22.00 | 111525 | 126674
9 | 28:09.00 | 3:50.00 | 126675 | 143924
10 | 31:59.00 | 4:28.00 | 143925 | 164024
11 | 36:27.00 | 1:44.60 | 164025 | 171884
12 | 38:11.60 | 5:13.50 | 171885 | 195409
13 | 43:25.35 | 3:35.18 | 195410 | 211552
14 | 47:00.53 | 6:24.32 | 211553 | 240384
15 | 53:25.10 | 3:15.42 | 240385 | 255051
16 | 56:40.52 | 3:58.45 | 255052 | 272946
17 | 60:39.22 | 6:39.40 | 272947 | 302911
18 | 67:18.62 | 1:57.65 | 302912 | 311751
19 | 69:16.52 | 3:16.70 | 311752 | 326521
20 | 72:33.47 | 3:51.30 | 326522 | 343876
21 | 76:25.02 | 2:48.73 | 343877 | 356549

Range status and errors

Selected range

Filename E:\ICE\K.MR\Vol.09\Karajan - Berliner Philharmoniker - Mozart Requiem K.626 - Mass K.317 Coronation.ape

Peak level 99.9 %
Range quality 100.0 %
Test CRC 9A58C534
Copy CRC 9A58C534
Copy OK

No errors occurred

AccurateRip summary

Track 1 accurately ripped (confidence 20) [4880AD25]
Track 2 accurately ripped (confidence 20) [12844CC6]
Track 3 accurately ripped (confidence 21) [6C929F09]
Track 4 accurately ripped (confidence 20) [6F250CA5]
Track 5 accurately ripped (confidence 20) [3E59E907]
Track 6 accurately ripped (confidence 20) [3D95D412]
Track 7 accurately ripped (confidence 20) [7124B026]
Track 8 accurately ripped (confidence 20) [C25F3F8C]
Track 9 accurately ripped (confidence 20) [228B89A8]
Track 10 accurately ripped (confidence 20) [6DC1E4BA]
Track 11 accurately ripped (confidence 20) [BD57BD97]
Track 12 accurately ripped (confidence 20) [42A3DC14]
Track 13 accurately ripped (confidence 20) [013CEF36]
Track 14 accurately ripped (confidence 20) [1FC99E5D]
Track 15 accurately ripped (confidence 20) [56087417]
Track 16 accurately ripped (confidence 20) [46A80454]
Track 17 accurately ripped (confidence 20) [25BF84B7]
Track 18 accurately ripped (confidence 20) [791D43D5]
Track 19 accurately ripped (confidence 20) [A6777B76]
Track 20 accurately ripped (confidence 20) [1CBBAB8C]
Track 21 accurately ripped (confidence 20) [01DB9EB9]

All tracks accurately ripped

End of status report

CD10:EAC-log
Exact Audio Copy V0.99 prebeta 5 from 4. May 2009

EAC extraction logfile from 27. October 2011, 17:36

A.-S. Mutter, Karajan / Berliner Philharmoniker / Beethoven : Concerto for Violin and Orchestra in D major, op. 61

Used drive : TSSTcorpCDDVDW SE-S224Q Adapter: 2 ID: 0

Read mode : Secure
Utilize accurate stream : Yes
Defeat audio cache : Yes
Make use of C2 pointers : No

Read offset correction : 6
Overread into Lead-In and Lead-Out : No
Fill up missing offset samples with silence : Yes
Delete leading and trailing silent blocks : No
Null samples used in CRC calculations : Yes
Used interface : Installed external ASPI interface

Used output format : Monkey's Audio Lossless Encoder v3.99 DLL
Sample format : Normal Lossless Compression

TOC of the extracted CD

Track | Start | Length | Start sector | End sector
––––––––––––––––––––––––––––-
1 | 0:00.00 | 26:34.32 | 0 | 119581
2 | 26:34.32 | 11:24.04 | 119582 | 170885
3 | 37:58.36 | 10:21.44 | 170886 | 217504

Range status and errors

Selected range

Filename E:\ICE\K.MR\Vol.10\A.-S. Mutter, Karajan Berliner Philharmoniker - Beethoven Concerto for Violin and Orchestra in D major, op. 61.ape

Peak level 99.8 %
Range quality 100.0 %
Test CRC 8CD4CBF2
Copy CRC 8CD4CBF2
Copy OK

No errors occurred

AccurateRip summary

Track 1 accurately ripped (confidence 39) [B9121AFC]
Track 2 accurately ripped (confidence 39) [EEB35D10]
Track 3 accurately ripped (confidence 39) [3D455C0B]

All tracks accurately ripped

End of status report


All thanks to original releaser!