Subcategories

Hocico - Artificial Extinction (Deluxe Edition) (2019)

Posted By: delpotro
Hocico - Artificial Extinction (Deluxe Edition) (2019)

Hocico - Artificial Extinction (Deluxe Edition) (2019)
EAC Rip | FLAC (tracks+log+.cue) - 749 Mb | MP3 CBR 320 kbps - 235 Mb | 01:42:28
EBM, Industrial, Dark Electro | Label: Out Of Line Music

Since the debut “Odio Bajo El Alma” Hocico stand for destruction, for darkness and pure aggression. Their kind of industrial has always been dirtier and more venomous, without particulate filter, music, that can only be created by Mexican Devils. “Artificial Extinction” is the highlight in this evolution: The unique Hocico sound is evolved to an even more brutal sound between Dark’N’Bass and Aggrotech. Massively pounding beats and roaring accelerations show a band that found strength never known before.
Tracklist:
CD 1
1. Dark Sunday (05:48)
2. El Ballet Mecanico (04:20)
3. Artificial Extinction (05:05)
4. Blinded Race (04:33)
5. Shut Me down! (05:32)
6. Psychonaut (05:42)
7. Damaged (05:17)
8. Breathing Under Your Feet (04:40)
9. Cross the Line (05:04)
10. Palabras de Sangre (06:29)
11. Quiet Zone (In Dead Silence) (04:33)

CD 2
1. Damaged (Remixed by Hallucinator) (04:55)
2. Artificial Extinction (Remixed by ErilaZ) (05:30)
3. Cross the Line (feat. Tragedy of Mine) [Remixed by Tragedy of Mine] (03:03)
4. Dark Sunday (Remixed by LUCKIID) (03:55)
5. Cross the Line (Remixed by Zardonic) (04:11)
6. Dark Sunday (Remixed by Poizon Party IV) (04:52)
7. Shut Me Down! (Remixed by Kreign) (04:14)
8. Shut Me Down! (Remixed by 89st) (05:22)
9. Palabras de Sangre (Remixed by Nohycit) (04:40)
10. Artificial Extinction (Remixed by Static of Masses) (04:31)

Exact Audio Copy V1.3 from 2. September 2016

EAC extraction logfile from 25. July 2019, 15:52

Hocico / Artificial Extinction

Used drive : ATAPI iHAS124 W Adapter: 1 ID: 0

Read mode : Secure
Utilize accurate stream : Yes
Defeat audio cache : Yes
Make use of C2 pointers : No

Read offset correction : 48
Overread into Lead-In and Lead-Out : No
Fill up missing offset samples with silence : Yes
Delete leading and trailing silent blocks : No
Null samples used in CRC calculations : Yes
Used interface : Native Win32 interface for Win NT & 2000
Gap handling : Appended to previous track

Used output format : User Defined Encoder
Selected bitrate : 1024 kBit/s
Quality : High
Add ID3 tag : No
Command line compressor : C:\Program Files\FLAC\win64\flac.exe
Additional command line options : -8 -e -p -V -T "ARTIST=%artist%" -T "TITLE=%title%" -T "ALBUM=%albumtitle%" -T "DATE=%year%" -T "TRACKNUMBER=%tracknr%" -T "GENRE=%genre%" -T "PERFORMER=%albuminterpret%" -T "COMPOSER=%composer%" %haslyrics%–tag-from-file=LYRICS="%lyricsfile%"%haslyrics% -T "ALBUMARTIST=%albumartist%" -T "DISCNUMBER=%cdnumber%" -T "TOTALDISCS=%totalcds%" -T "TOTALTRACKS=%numtracks%" -T "COMMENT=%comment%" %source% -o %dest%


TOC of the extracted CD

Track | Start | Length | Start sector | End sector
––––––––––––––––––––––––––––-
1 | 0:00.00 | 5:48.67 | 0 | 26166
2 | 5:48.67 | 4:20.30 | 26167 | 45696
3 | 10:09.22 | 5:05.46 | 45697 | 68617
4 | 15:14.68 | 4:33.70 | 68618 | 89162
5 | 19:48.63 | 5:32.25 | 89163 | 114087
6 | 25:21.13 | 5:42.22 | 114088 | 139759
7 | 31:03.35 | 5:17.62 | 139760 | 163596
8 | 36:21.22 | 4:40.39 | 163597 | 184635
9 | 41:01.61 | 5:04.71 | 184636 | 207506
10 | 46:06.57 | 6:29.37 | 207507 | 236718
11 | 52:36.19 | 4:33.64 | 236719 | 257257


Track 1

Filename C:\EAC Rips\Hocico - Artificial Extinction (Box Set) (2019) {OUT 1008 OUT 1025} [CD FLAC]\CD1 (Artificial Extinction) {OUT 1008}\01 - Dark Sunday.wav

Pre-gap length 0:00:02.00

Peak level 99.7 %
Extraction speed 3.6 X
Track quality 99.9 %
Test CRC 98E7BED1
Copy CRC 98E7BED1
Track not present in AccurateRip database
Copy OK

Track 2

Filename C:\EAC Rips\Hocico - Artificial Extinction (Box Set) (2019) {OUT 1008 OUT 1025} [CD FLAC]\CD1 (Artificial Extinction) {OUT 1008}\02 - El Ballet Mecánico.wav

Pre-gap length 0:00:02.00

Peak level 99.7 %
Extraction speed 5.2 X
Track quality 100.0 %
Test CRC 6F8C0C64
Copy CRC 6F8C0C64
Track not present in AccurateRip database
Copy OK

Track 3

Filename C:\EAC Rips\Hocico - Artificial Extinction (Box Set) (2019) {OUT 1008 OUT 1025} [CD FLAC]\CD1 (Artificial Extinction) {OUT 1008}\03 - Artificial Extinction.wav

Pre-gap length 0:00:02.00

Peak level 99.7 %
Extraction speed 5.8 X
Track quality 100.0 %
Test CRC B5782E0C
Copy CRC B5782E0C
Track not present in AccurateRip database
Copy OK

Track 4

Filename C:\EAC Rips\Hocico - Artificial Extinction (Box Set) (2019) {OUT 1008 OUT 1025} [CD FLAC]\CD1 (Artificial Extinction) {OUT 1008}\04 - Blinded Race.wav

Pre-gap length 0:00:02.00

Peak level 88.0 %
Extraction speed 6.1 X
Track quality 100.0 %
Test CRC 42CA07A3
Copy CRC 42CA07A3
Track not present in AccurateRip database
Copy OK

Track 5

Filename C:\EAC Rips\Hocico - Artificial Extinction (Box Set) (2019) {OUT 1008 OUT 1025} [CD FLAC]\CD1 (Artificial Extinction) {OUT 1008}\05 - Shut Me Down!.wav

Pre-gap length 0:00:02.00

Peak level 99.7 %
Extraction speed 5.2 X
Track quality 99.9 %
Test CRC 3C602FB0
Copy CRC 3C602FB0
Track not present in AccurateRip database
Copy OK

Track 6

Filename C:\EAC Rips\Hocico - Artificial Extinction (Box Set) (2019) {OUT 1008 OUT 1025} [CD FLAC]\CD1 (Artificial Extinction) {OUT 1008}\06 - Psychonaut.wav

Pre-gap length 0:00:02.00

Peak level 99.7 %
Extraction speed 5.5 X
Track quality 99.9 %
Test CRC BB74CCFF
Copy CRC BB74CCFF
Track not present in AccurateRip database
Copy OK

Track 7

Filename C:\EAC Rips\Hocico - Artificial Extinction (Box Set) (2019) {OUT 1008 OUT 1025} [CD FLAC]\CD1 (Artificial Extinction) {OUT 1008}\07 - Damaged.wav

Pre-gap length 0:00:02.00

Peak level 99.7 %
Extraction speed 7.5 X
Track quality 100.0 %
Test CRC AF0B10F7
Copy CRC AF0B10F7
Track not present in AccurateRip database
Copy OK

Track 8

Filename C:\EAC Rips\Hocico - Artificial Extinction (Box Set) (2019) {OUT 1008 OUT 1025} [CD FLAC]\CD1 (Artificial Extinction) {OUT 1008}\08 - Breathing Under Your Feet.wav

Pre-gap length 0:00:02.00

Peak level 99.7 %
Extraction speed 5.7 X
Track quality 99.9 %
Test CRC 761BE0D6
Copy CRC 761BE0D6
Track not present in AccurateRip database
Copy OK

Track 9

Filename C:\EAC Rips\Hocico - Artificial Extinction (Box Set) (2019) {OUT 1008 OUT 1025} [CD FLAC]\CD1 (Artificial Extinction) {OUT 1008}\09 - Cross The Line.wav

Pre-gap length 0:00:02.00

Peak level 99.7 %
Extraction speed 8.2 X
Track quality 100.0 %
Test CRC E93F9435
Copy CRC E93F9435
Track not present in AccurateRip database
Copy OK

Track 10

Filename C:\EAC Rips\Hocico - Artificial Extinction (Box Set) (2019) {OUT 1008 OUT 1025} [CD FLAC]\CD1 (Artificial Extinction) {OUT 1008}\10 - Palabras De Sangre.wav

Pre-gap length 0:00:02.00

Peak level 99.7 %
Extraction speed 8.7 X
Track quality 100.0 %
Test CRC 0DA40317
Copy CRC 0DA40317
Track not present in AccurateRip database
Copy OK

Track 11

Filename C:\EAC Rips\Hocico - Artificial Extinction (Box Set) (2019) {OUT 1008 OUT 1025} [CD FLAC]\CD1 (Artificial Extinction) {OUT 1008}\11 - Quite Zone (In Dead Silence).wav

Pre-gap length 0:00:02.00

Peak level 99.7 %
Extraction speed 8.6 X
Track quality 100.0 %
Test CRC 6F26880F
Copy CRC 6F26880F
Track not present in AccurateRip database
Copy OK


None of the tracks are present in the AccurateRip database

No errors occurred

End of status report

–– CUETools DB Plugin V2.1.6

[CTDB TOCID: fC2EZVlZn.aYHHYNCSAhMZ9Ev94-] found
Submit result: fC2EZVlZn.aYHHYNCSAhMZ9Ev94- has been confirmed
Track | CTDB Status
1 | (7/7) Accurately ripped
2 | (7/7) Accurately ripped
3 | (7/7) Accurately ripped
4 | (7/7) Accurately ripped
5 | (7/7) Accurately ripped
6 | (7/7) Accurately ripped
7 | (7/7) Accurately ripped
8 | (6/7) Accurately ripped
9 | (7/7) Accurately ripped
10 | (7/7) Accurately ripped
11 | (7/7) Accurately ripped


==== Log checksum 9804FB989E3A6A0F157B1119CF9E441259D858191ED0971C81C20C36109A085E ====
Exact Audio Copy V1.3 from 2. September 2016

EAC extraction logfile from 25. July 2019, 16:56

Hocico / Rextinction

Used drive : ATAPI iHAS124 W Adapter: 1 ID: 0

Read mode : Secure
Utilize accurate stream : Yes
Defeat audio cache : Yes
Make use of C2 pointers : No

Read offset correction : 48
Overread into Lead-In and Lead-Out : No
Fill up missing offset samples with silence : Yes
Delete leading and trailing silent blocks : No
Null samples used in CRC calculations : Yes
Used interface : Native Win32 interface for Win NT & 2000
Gap handling : Appended to previous track

Used output format : User Defined Encoder
Selected bitrate : 1024 kBit/s
Quality : High
Add ID3 tag : No
Command line compressor : C:\Program Files\FLAC\win64\flac.exe
Additional command line options : -8 -e -p -V -T "ARTIST=%artist%" -T "TITLE=%title%" -T "ALBUM=%albumtitle%" -T "DATE=%year%" -T "TRACKNUMBER=%tracknr%" -T "GENRE=%genre%" -T "PERFORMER=%albuminterpret%" -T "COMPOSER=%composer%" %haslyrics%–tag-from-file=LYRICS="%lyricsfile%"%haslyrics% -T "ALBUMARTIST=%albumartist%" -T "DISCNUMBER=%cdnumber%" -T "TOTALDISCS=%totalcds%" -T "TOTALTRACKS=%numtracks%" -T "COMMENT=%comment%" %source% -o %dest%


TOC of the extracted CD

Track | Start | Length | Start sector | End sector
––––––––––––––––––––––––––––-
1 | 0:00.00 | 4:55.36 | 0 | 22160
2 | 4:55.36 | 5:30.25 | 22161 | 46935
3 | 10:25.61 | 3:04.00 | 46936 | 60735
4 | 13:29.61 | 3:55.38 | 60736 | 78398
5 | 17:25.24 | 4:11.23 | 78399 | 97246
6 | 21:36.47 | 4:52.34 | 97247 | 119180
7 | 26:29.06 | 4:15.38 | 119181 | 138343
8 | 30:44.44 | 5:22.25 | 138344 | 162518
9 | 36:06.69 | 4:40.01 | 162519 | 183519
10 | 40:46.70 | 4:31.04 | 183520 | 203848


Track 1

Filename C:\EAC Rips\Hocico - Artificial Extinction (Box Set) (2019) {OUT 1008 OUT 1025} [CD FLAC]\CD2 (Rextinction) {OUT 1025}\01 - Damaged (Remixed by Hallucinator).wav

Pre-gap length 0:00:02.00

Peak level 92.2 %
Extraction speed 3.4 X
Track quality 99.9 %
Test CRC B33C2277
Copy CRC B33C2277
Track not present in AccurateRip database
Copy OK

Track 2

Filename C:\EAC Rips\Hocico - Artificial Extinction (Box Set) (2019) {OUT 1008 OUT 1025} [CD FLAC]\CD2 (Rextinction) {OUT 1025}\02 - Artifical Extinction (Remixed by Erilaz).wav

Pre-gap length 0:00:02.00

Peak level 99.7 %
Extraction speed 4.0 X
Track quality 99.9 %
Test CRC 52D3A693
Copy CRC 52D3A693
Track not present in AccurateRip database
Copy OK

Track 3

Filename C:\EAC Rips\Hocico - Artificial Extinction (Box Set) (2019) {OUT 1008 OUT 1025} [CD FLAC]\CD2 (Rextinction) {OUT 1025}\03 - Cross The Line (Remixed by Tragedy of Mine).wav

Pre-gap length 0:00:02.00

Peak level 100.0 %
Extraction speed 5.2 X
Track quality 100.0 %
Test CRC 9B0B85D4
Copy CRC 9B0B85D4
Track not present in AccurateRip database
Copy OK

Track 4

Filename C:\EAC Rips\Hocico - Artificial Extinction (Box Set) (2019) {OUT 1008 OUT 1025} [CD FLAC]\CD2 (Rextinction) {OUT 1025}\04 - Dark Sunday (Remixed by LUCKIID).wav

Pre-gap length 0:00:02.00

Peak level 98.7 %
Extraction speed 5.7 X
Track quality 100.0 %
Test CRC 5AA8880E
Copy CRC 5AA8880E
Track not present in AccurateRip database
Copy OK

Track 5

Filename C:\EAC Rips\Hocico - Artificial Extinction (Box Set) (2019) {OUT 1008 OUT 1025} [CD FLAC]\CD2 (Rextinction) {OUT 1025}\05 - Cross The Line (Remixed by Zardonic).wav

Pre-gap length 0:00:02.00

Peak level 99.5 %
Extraction speed 4.4 X
Track quality 99.9 %
Test CRC 2A7BB934
Copy CRC 2A7BB934
Track not present in AccurateRip database
Copy OK

Track 6

Filename C:\EAC Rips\Hocico - Artificial Extinction (Box Set) (2019) {OUT 1008 OUT 1025} [CD FLAC]\CD2 (Rextinction) {OUT 1025}\06 - Dark Sunday (Remixed by Poizon Party IV).wav

Pre-gap length 0:00:02.00

Peak level 99.2 %
Extraction speed 6.6 X
Track quality 100.0 %
Test CRC 321DF650
Copy CRC 321DF650
Track not present in AccurateRip database
Copy OK

Track 7

Filename C:\EAC Rips\Hocico - Artificial Extinction (Box Set) (2019) {OUT 1008 OUT 1025} [CD FLAC]\CD2 (Rextinction) {OUT 1025}\07 - Shut Me Down! (Remixed by Kreign).wav

Pre-gap length 0:00:02.00

Peak level 100.0 %
Extraction speed 6.8 X
Track quality 100.0 %
Test CRC A22B5D2D
Copy CRC A22B5D2D
Track not present in AccurateRip database
Copy OK

Track 8

Filename C:\EAC Rips\Hocico - Artificial Extinction (Box Set) (2019) {OUT 1008 OUT 1025} [CD FLAC]\CD2 (Rextinction) {OUT 1025}\08 - Shut Me Down! (Remixed by 89s†).wav

Pre-gap length 0:00:02.00

Peak level 100.0 %
Extraction speed 5.6 X
Track quality 99.9 %
Test CRC D98EC11A
Copy CRC D98EC11A
Track not present in AccurateRip database
Copy OK

Track 9

Filename C:\EAC Rips\Hocico - Artificial Extinction (Box Set) (2019) {OUT 1008 OUT 1025} [CD FLAC]\CD2 (Rextinction) {OUT 1025}\09 - Palabras De Sangre (Remixed by Nohycit).wav

Pre-gap length 0:00:02.00

Peak level 100.0 %
Extraction speed 7.5 X
Track quality 100.0 %
Test CRC 81C0A3E5
Copy CRC 81C0A3E5
Track not present in AccurateRip database
Copy OK

Track 10

Filename C:\EAC Rips\Hocico - Artificial Extinction (Box Set) (2019) {OUT 1008 OUT 1025} [CD FLAC]\CD2 (Rextinction) {OUT 1025}\10 - Artificial Extinction (Remixed by Static Of Masses).wav

Pre-gap length 0:00:02.00

Peak level 98.7 %
Extraction speed 7.7 X
Track quality 100.0 %
Test CRC 60EA32A7
Copy CRC 60EA32A7
Track not present in AccurateRip database
Copy OK


None of the tracks are present in the AccurateRip database

No errors occurred

End of status report

–– CUETools DB Plugin V2.1.6

[CTDB TOCID: X2uX3pDcF_DmtBlZE0Z5B.ufgZk-] found
Submit result: X2uX3pDcF_DmtBlZE0Z5B.ufgZk- has been confirmed
Track | CTDB Status
1 | (5/5) Accurately ripped
2 | (5/5) Accurately ripped
3 | (5/5) Accurately ripped
4 | (5/5) Accurately ripped
5 | (5/5) Accurately ripped
6 | (5/5) Accurately ripped
7 | (5/5) Accurately ripped
8 | (5/5) Accurately ripped
9 | (5/5) Accurately ripped
10 | (5/5) Accurately ripped


==== Log checksum 66DEDD617C623243BADDA3CEB3EBE2774DDE1B67EBF70C5A7CA785FF9D824552 ====

Thanks to the Original ripper !