Horace Parlan & Joe Van Enkhuizen - Joe Meets The Rhythm Section (1986) {2015 Japan Timeless Jazz Master Collection Series}

Posted By: ruskaval
Horace Parlan & Joe Van Enkhuizen - Joe Meets The Rhythm Section (1986) {2015 Japan Timeless Jazz Master Collection Series}

Horace Parlan & Joe Van Enkhuizen - Joe Meets The Rhythm Section (1986) {2015 Japan Timeless Jazz Master Collection Series}
EAC rip (secure mode) | FLAC (tracks)+CUE+LOG -> 245 Mb | MP3 @320 -> 94 Mb
Full Artwork @ 600 dpi (png) -> 235 Mb | 5% repair rar
© 2015 Timeless Records / Solid Records Japan / Ultra-Vibe | CDSOL-6339
Jazz / Post Bop / Piano / Saxophone

Reissue with the latest remastering. Features original cover artwork. Comes with a descripton in Japanese. The "Joe" here is Dutch tenorist Joe Van Enkhuizen, who's a great fit with a trio that features Horace Parlan on piano, Rufus Reid on bass, and Al Harewood on drums! The album's got that subtle approach that marks Parlan's later years – a less all-out style than his start on Blue Note, but one that's maybe even more rewarding if you're willing to let yourself slide into it – something that's easy to do when you've got Joe pointing the way with his well-blown, raspy-edged tenor! Reid is mighty nice too – with those instantly-deep notes that always grab us strongly when he's recorded this well – the sort of presence that most other bassists would need to be electric to reach. Titles include "Alfie's Theme", "Bluesville", "FSR", "Wadin", and "Willow Weep For Me".
Horace Parlan & Joe Van Enkhuizen - Joe Meets The Rhythm Section (1986) {2015 Japan Timeless Jazz Master Collection Series}


Ultra-Vibe INFO

Personnel:
Horace Parlan – piano
Joe Van Enkhuizen – tenor sax
Rufus Reid – bass
Al Harewood – drums

tracklist:
01 - Alfie's Theme
02 - God Bless The Child
03 - Bluesville
04 - Willow Weep For Me
05 - Wadin'
06 - F.S.R.

Exact Audio Copy V1.1 from 23. June 2015

EAC extraction logfile from 3. April 2016, 18:43

Horace Parlan / Joe Meets The Rhythm Section

Used drive : TSSTcorpCDDVDW SE-208DB Adapter: 1 ID: 0

Read mode : Secure
Utilize accurate stream : Yes
Defeat audio cache : Yes
Make use of C2 pointers : No

Read offset correction : 6
Overread into Lead-In and Lead-Out : No
Fill up missing offset samples with silence : Yes
Delete leading and trailing silent blocks : No
Null samples used in CRC calculations : Yes
Used interface : Native Win32 interface for Win NT & 2000
Gap handling : Appended to previous track

Used output format : User Defined Encoder
Selected bitrate : 1024 kBit/s
Quality : High
Add ID3 tag : No
Command line compressor : C:\Program Files (x86)\FLAC Frontend\tools\flac.exe
Additional command line options : -8 -V -T "ARTIST=%artist%" -T "TITLE=%title%" -T "ALBUM=%albumtitle%" -T "DATE=%year%" -T "TRACKNUMBER=%tracknr%" -T "TOTALTRACKS=%numtracks%" -T "GENRE=%genre%" -T "ALBUMARTIST=%albumartist%" -T "ALBUM ARTIST=%albumartist%" -T "COMMENT=EAC Secure Mode, Test & Copy, AccurateRip, FLAC -8" %source%


TOC of the extracted CD

Track | Start | Length | Start sector | End sector
––––––––––––––––––––––––––––-
1 | 0:00.00 | 6:28.70 | 0 | 29169
2 | 6:28.70 | 5:31.73 | 29170 | 54067
3 | 12:00.68 | 7:42.02 | 54068 | 88719
4 | 19:42.70 | 6:40.36 | 88720 | 118755
5 | 26:23.31 | 8:51.74 | 118756 | 158654
6 | 35:15.30 | 4:36.49 | 158655 | 179403


Track 1

Filename D:\_EAC\Horace Parlan - Joe Meets The Rhythm Section (1986) [FLAC] {CDSOL-6339}\01 - Alfie's Theme.wav

Pre-gap length 0:00:02.00

Peak level 97.3 %
Extraction speed 1.1 X
Track quality 100.0 %
Test CRC 1F8A766A
Copy CRC 1F8A766A
Accurately ripped (confidence 1) [48EA54D5] (AR v2)
Copy OK

Track 2

Filename D:\_EAC\Horace Parlan - Joe Meets The Rhythm Section (1986) [FLAC] {CDSOL-6339}\02 - God Bless The Child.wav

Peak level 94.5 %
Extraction speed 1.1 X
Track quality 99.9 %
Test CRC D562F41D
Copy CRC D562F41D
Accurately ripped (confidence 1) [8BEE807A] (AR v2)
Copy OK

Track 3

Filename D:\_EAC\Horace Parlan - Joe Meets The Rhythm Section (1986) [FLAC] {CDSOL-6339}\03 - Bluesville.wav

Peak level 97.3 %
Extraction speed 1.4 X
Track quality 100.0 %
Test CRC D295D681
Copy CRC D295D681
Accurately ripped (confidence 1) [29450EFB] (AR v2)
Copy OK

Track 4

Filename D:\_EAC\Horace Parlan - Joe Meets The Rhythm Section (1986) [FLAC] {CDSOL-6339}\04 - Willow Weep For Me.wav

Peak level 97.3 %
Extraction speed 1.5 X
Track quality 100.0 %
Test CRC B111BFE6
Copy CRC B111BFE6
Accurately ripped (confidence 1) [7EC1CF23] (AR v2)
Copy OK

Track 5

Filename D:\_EAC\Horace Parlan - Joe Meets The Rhythm Section (1986) [FLAC] {CDSOL-6339}\05 - Wadin'.wav

Peak level 97.3 %
Extraction speed 1.7 X
Track quality 100.0 %
Test CRC FDDDC202
Copy CRC FDDDC202
Accurately ripped (confidence 1) [852BCFE2] (AR v2)
Copy OK

Track 6

Filename D:\_EAC\Horace Parlan - Joe Meets The Rhythm Section (1986) [FLAC] {CDSOL-6339}\06 - F.S.R..wav

Peak level 97.3 %
Extraction speed 1.6 X
Track quality 100.0 %
Test CRC 109C60F4
Copy CRC 109C60F4
Accurately ripped (confidence 1) [873256C1] (AR v2)
Copy OK


All tracks accurately ripped

No errors occurred

End of status report

==== Log checksum E91FA7E0D1A535FC5B8D7C90F2DC646437D83432B66A30BB58B0611143C345B3 ====


Horace Parlan & Joe Van Enkhuizen - Joe Meets The Rhythm Section (1986) {2015 Japan Timeless Jazz Master Collection Series}

Horace Parlan & Joe Van Enkhuizen - Joe Meets The Rhythm Section (1986) {2015 Japan Timeless Jazz Master Collection Series}


Cedar Walton - Eastern Rebellion (1975) {2015 Japan Timeless Jazz Master Collection Complete Series}
Cedar Walton - Eastern Rebellion 2 (1977) {2015 Japan Timeless Jazz Master Collection Complete Series}
Carter Jefferson - The Rise Of Atlantis (1978) {2015 Japan Timeless Jazz Master Collection Complete Series}
Teddy Edwards - Good Gravy (1981) {2015 Japan Timeless Jazz Master Collection Complete Series}
Art Blakey and The Jazz Messengers Big Band - Live At Montreux and Northsea (1980) {2015 Japan Timeless Jazz Master Collection Complete Series}

Art Blakey and The Jazz Messengers - Album Of The Year (1981) {2015 Japan Timeless Jazz Master Collection Complete Series}
Lou Donaldson - Forgotten Man (1981) {2015 Japan Timeless Jazz Master Collection Complete Series}
Tete Montoliu - Live At The Keystone Corner (1979) {2015 Japan Timeless Jazz Master Collection Complete Series}
Herman Foster - The One And Only (1984) {2015 Japan Timeless Jazz Master Collection Complete Series}
Chet Baker - Mr.B (1983) {2015 Japan Timeless Jazz Master Collection Complete Series}

Pharoah Sanders - Africa (1987) {2015 Japan Timeless Jazz Master Collection Complete Series}
Al Cohn - Rifftide (1987) {2015 Japan Timeless Jazz Master Collection Complete Series}
Hank Jones & Red Mitchell - Duo (1987) {2015 Japan Timeless Jazz Master Collection Complete Series}
Tommy Flanagan - Jazz Poet (1989) {2015 Japan Timeless Jazz Master Collection Complete Series}
Ronnie Mathews - Selena's Dance (1988) {2015 Japan Timeless Jazz Master Collection Complete Series}

Dave Pike & Charles McPherson - Bluebird (1988) {2015 Japan Timeless Jazz Master Collection Complete Series}
Steve Grossman - Live At Cafe Praga (1990) {2015 Japan Timeless Jazz Master Collection Complete Series}
Kirk Lightsey Trio with Chet Baker - Everything Happens To Me (1983) {2015 Japan Timeless Jazz Master Collection Complete Series}
David Liebman Quintet - Doin' It Again (1979) {2015 Japan Timeless Jazz Master Collection Complete Series}
Archie Shepp - I Didn't Know About You (1990) {2015 Japan Timeless Jazz Master Collection Complete Series}

George Adams - Paradise Space Shuttle (1979) {2015 Japan Timeless Jazz Master Collection Complete Series}
Arnett Cobb - Live (1982) {2015 Japan Timeless Jazz Master Collection Complete Series}
Joe Farrell & Louis Hayes Quartet - Vim 'n' Vigor (1983) {2015 Japan Timeless Jazz Master Collection Complete Series}
Bobby Hutcherson - Four Seasons (1983) {2015 Japan Timeless Jazz Master Collection Complete Series}
Johnny Griffin / Art Taylor Quartet - The Jamfs Are Coming! (1975) {2015 Japan Timeless Jazz Master Collection Complete Series}

Joe Gilman Trio with Joe Henderson - Treasure Chest (1991) {2015 Japan Timeless Jazz Master Collection Complete Series}
Deborah Brown - Jazz 4 Jazz (1988) {2015 Japan Timeless Jazz Master Collection Complete Series}
Gary Bartz - Shadows (1991) {2015 Japan Timeless Jazz Master Collection Complete Series}
Enrico Pieranunzi Trio - New Lands (1984) {2015 Japan Timeless Jazz Master Collection Complete Series}
Rene Thomas - Hommage A… Rene Thomas (1974) {2015 Japan Timeless Jazz Master Collection Complete Series}

Cedar Walton - Eastern Rebellion 3 (1979) {2015 Japan Timeless Jazz Master Collection Complete Series}
Cedar Walton - Eastern Rebellion 4 (1983) {2015 Japan Timeless Jazz Master Collection Complete Series}
Louis Hayes ~ Junior Cook - Ichi-Ban (1976) {2015 Japan Timeless Jazz Master Collection Complete Series}
Art Blakey And The Jazzmessengers - Oh-By The Way (1982) {2015 Japan Timeless Jazz Master Collection Complete Series}
Art Blakey And The Jazzmessengers - Blue Night (1985) {2015 Japan Timeless Jazz Master Collection Complete Series}

Tete Montoliu - Yellow Dolphin Street (1977) {2015 Japan Timeless Jazz Master Collection Complete Series}
Pharoah Sanders - Moon Child (1989) {2015 Japan Timeless Jazz Master Collection Complete Series}
Lou Donaldson Quartet - Live In Bologna (1984) {2015 Japan Timeless Jazz Master Collection Complete Series}


NEXT -> More 2015 Japan Timeless Jazz Master Collection on the way…