Subcategories

Imogen Cooper & Friends - Mozart, Schubert, Schumann, Rachmaninov, Brahms, Beethoven, Wolf (2004) 3CD

Posted By: SuniR
Imogen Cooper & Friends - Mozart, Schubert, Schumann, Rachmaninov, Brahms, Beethoven, Wolf (2004) 3CD

Imogen Cooper & Friends - Mozart, Schubert, Schumann, Rachmaninov, Brahms, Beethoven, Wolf (2004) 3CD
EAC | FLAC (log,image+cue) -> 861 Mb (5% Rec.)
Mp3 CBR320 Kbps -> 557 Mb (5% Rec.) | Scans included
Classical | Label: Philips, #:476 209-5 | 03:53:59

Imogen Cooper with the Australian Chamber Orchestra & Richard Tognetti; Alfred Brendel, the Academy of St. Martin-In-The-Fields with Neville Marriner; Wolfgang Holzmair; Sonia Wider-Atherton. Imogen Cooper, one of the world's most elegant pianists, showcases her artistry as instrumentalist, concerto soloist and chamber musician on this magnificent 3CD Set. This collection is the first ever of Imogen Cooper's work and includes the first release of three Schumann songs (Clara and Robert) as well as the first commercial release of a 'live' recording of Mozart's B flat major Piano Concerto (KV 595) with the Australian Chamber Orchestra.

Tracklist:

CD 1:
Mozart: Concerto No.27 in B flat for Piano & Orchestra, KV 595
01. I. Allegro (14:19)
02. II. Larghetto (7:13)
03. III. Allegro (9:35)
Mozart: Concerto No.10 in E flat for Two Pianos & Orchestra, KV 365/316a
04. I. Allegro (9:52)
05. II. Andante (8:07)
06. III. Rondeaux. Allegro (7:05)
Mozart: Concerto No.7 in F for Three Pianos & Orchestra, KV 242 "Lodron"
07. I. Allegro (8:02)
08. II. Adagio (9:05)
09. III. Rondeaux. Tempo di menuetto (5:44)

CD 2:
Schubert: Piano Sonata No.21 in B flat, D.960
01. I. Molto moderato (15:05)
02. II. Andante sostenuto (9:34)
03. III. Scherzo - Allegro vivace, con delicatezza (3:51)
04. IV. Allegro ma non troppo (8:49)
Schubert: Piano Trio No.1 in B flat, D.898
05. I. Allegro moderato (15:03)
06. II. Andante un poco mosso (10:10)
07. III. Scherzo (Allegro) (6:57)
08. IV. Rondo (Allegro vivace) (8:56)

CD 3:
Rachmaninov: Sonata in G minor for Cello & Piano, Op.19
01. I. Lento - Allegro moderato (13:54)
02. II. Allegro scherzando (6:54)
03. III. Andante (6:13)
04. IV. Allegro mosso (11:33)

05. Brahms: Intermezzo in A minor, Op.116 No.2 (3:38)
06. Brahms: Intermezzo in E major, Op.116 No.6 (3:05)
07. R. Schumann: Mein Wagen rollet langsam, Op.142 No.4 (3:08)
08. R. Schumann: Die Lotusblume, Op.25 No.7 (1:52)
09. R. Schumann: Aus den Ostlichen Rosen, Op.25 No.25 (1:53)
10. R. Schumann: Rose, Meer und Sonne, Op.37 No.20 (4:39)
11. R. Schumann: Widmung, Op.25 No.1 (2:03)
12. Wolf: Liebesgluck (1:18)
13. Wolf: Seemans Abschied (1:59)
14. C. Schumann: Warum willst du and're fragen?, Op.37 No.11 (1:59)
15. C. Schumann: An einem lichten Morgen, Op.23 No.2 (2:48)
16. Beethoven: Adelaide, Op.46 (5:58)
17. Schubert: Standchen, D.957 (from "Schwanengesang") (3:50)

Musicians:
Imogen Cooper - piano
CD 1 Tracks 1-3:
Australian Chamber Orchestra
Richard Tognetti - conductor
CD 1 Tracks 4-9:
Alfred Brendel - piano
Academy of St. Martin-in-the-Fields
Sir Neville Marriner - condcutor
CD 2 Tracks 5-8:
Raphael Oleg - violin
Sonia Wieder-Atherton - cello
CD 3:
Sonia Wieder-Atherton - cello (Tracks 1-4)
Wolfgang Holzmair - baritone (Tracks 7-17)

Wolfgang Amadeus Mozart (1756-1791), Franz Schubert (1797-1828), Sergei Rachmaninov (1873-1943), Johannes Brahms (1833-1897), Robert Schumann (1810-1856), Hugo Wolf (1860-1903), Clara Schumann (1819-1896), Ludwig van Beethoven (1770-1827), Franz Schubert (1797-1828) - composers


Exact Audio Copy V1.0 beta 3 from 29. August 2011

EAC extraction logfile from 30. April 2013, 21:20

Imogen Cooper piano / Imogen Cooper and friends CD1of3- Mozart Concertos

Used drive : ASUS DRW-2014L1T Adapter: 4 ID: 1

Read mode : Secure
Utilize accurate stream : Yes
Defeat audio cache : Yes
Make use of C2 pointers : No

Read offset correction : 6
Overread into Lead-In and Lead-Out : No
Fill up missing offset samples with silence : Yes
Delete leading and trailing silent blocks : No
Null samples used in CRC calculations : Yes
Used interface : Installed external ASPI interface

Used output format : User Defined Encoder
Selected bitrate : 256 kBit/s
Quality : High
Add ID3 tag : Yes
Command line compressor : C:\Program Files\FLAC\flac.exe
Additional command line options : -V -8 -T "Date=%year%" -T "Genre=%genre%" %source%


TOC of the extracted CD

Track | Start | Length | Start sector | End sector
––––––––––––––––––––––––––––-
1 | 0:00.00 | 14:18.40 | 0 | 64389
2 | 14:18.40 | 7:12.30 | 64390 | 96819
3 | 21:30.70 | 9:34.27 | 96820 | 139896
4 | 31:05.22 | 9:51.12 | 139897 | 184233
5 | 40:56.34 | 8:06.13 | 184234 | 220696
6 | 49:02.47 | 7:04.53 | 220697 | 252549
7 | 56:07.25 | 8:01.62 | 252550 | 288686
8 | 64:09.12 | 9:04.65 | 288687 | 329551
9 | 73:14.02 | 5:43.70 | 329552 | 355346


Range status and errors

Selected range

Filename C:\Temp\Imogen Cooper & Friends\Imogen Cooper and friends CD1.wav

Peak level 92.8 %
Extraction speed 2.4 X
Range quality 99.9 %
Copy CRC 55C49F43
Copy OK

No errors occurred


AccurateRip summary

Track 1 not present in database
Track 2 not present in database
Track 3 not present in database
Track 4 not present in database
Track 5 not present in database
Track 6 not present in database
Track 7 not present in database
Track 8 not present in database
Track 9 not present in database

None of the tracks are present in the AccurateRip database

End of status report

==== Log checksum FB009E190576BD86E7303A840A0BCF9E2AEFB325EF8C6497AB010A0E5550E9D5 ====

]foobar2000 1.3.6 / Dynamic Range Meter 1.1.1
log date: 2018-03-15 17:20:25

––––––––––––––––––––––––––––––––––––––––
Analyzed: Imogen Cooper piano / Imogen Cooper and friends CD1of3- Mozart Concertos
––––––––––––––––––––––––––––––––––––––––

DR Peak RMS Duration Track
––––––––––––––––––––––––––––––––––––––––
DR14 -0.74 dB -21.35 dB 14:19 01-Concerto No. 27 in B flat for Piano & Orchestra, KV 595 - I Allegro
DR14 -2.72 dB -23.29 dB 7:12 02-Concerto No. 27 in B flat for Piano & Orchestra, KV 595 - II Larghetto
DR13 -2.14 dB -20.05 dB 9:34 03-Concerto No. 27 in B flat for Piano & Orchestra, KV 595 - III Allegro
DR15 -0.65 dB -20.58 dB 9:51 04-Concerto No. 10 in E flat for Two Pianos & Orchestra, KV 365/316a - I Allegro
DR16 -4.71 dB -25.34 dB 8:06 05-Concerto No. 10 in E flat for Two Pianos & Orchestra, KV 365/316a - II Andante
DR15 -0.90 dB -20.54 dB 7:05 06-Concerto No. 10 in E flat for Two Pianos & Orchestra, KV 365/316a - III Ronde…
DR14 -3.31 dB -21.14 dB 8:02 07-Concerto No. 7 in F for Three Pianos & Orchestra, KV 242 'Lodron' - I Allegro
DR14 -3.79 dB -23.80 dB 9:05 08-Concerto No. 7 in F for Three Pianos & Orchestra, KV 242 'Lodron' - II Adagio
DR14 -4.34 dB -22.27 dB 5:44 09-Concerto No. 7 in F for Three Pianos & Orchestra, KV 242 'Lodron' 0 III Ronde…
––––––––––––––––––––––––––––––––––––––––

Number of tracks: 9
Official DR value: DR14

Samplerate: 44100 Hz
Channels: 2
Bits per sample: 16
Bitrate: 515 kbps
Codec: FLAC
================================================================================

Exact Audio Copy V1.0 beta 3 from 29. August 2011

EAC extraction logfile from 1. May 2013, 1:36

Imogen Cooper / Imogen Cooper and friends CD2of3 - Schubert Piano Sonata no21 & Piano Trio No1

Used drive : ASUS DRW-2014L1T Adapter: 4 ID: 1

Read mode : Secure
Utilize accurate stream : Yes
Defeat audio cache : Yes
Make use of C2 pointers : No

Read offset correction : 6
Overread into Lead-In and Lead-Out : No
Fill up missing offset samples with silence : Yes
Delete leading and trailing silent blocks : No
Null samples used in CRC calculations : Yes
Used interface : Installed external ASPI interface

Used output format : User Defined Encoder
Selected bitrate : 256 kBit/s
Quality : High
Add ID3 tag : Yes
Command line compressor : C:\Program Files\FLAC\flac.exe
Additional command line options : -V -8 -T "Date=%year%" -T "Genre=%genre%" %source%


TOC of the extracted CD

Track | Start | Length | Start sector | End sector
––––––––––––––––––––––––––––-
1 | 0:00.00 | 15:03.56 | 0 | 67780
2 | 15:03.56 | 9:33.51 | 67781 | 110806
3 | 24:37.32 | 3:50.32 | 110807 | 128088
4 | 28:27.64 | 8:48.08 | 128089 | 167696
5 | 37:15.72 | 15:02.07 | 167697 | 235353
6 | 52:18.04 | 10:09.33 | 235354 | 281061
7 | 62:27.37 | 6:56.70 | 281062 | 312331
8 | 69:24.32 | 8:55.15 | 312332 | 352471


Range status and errors

Selected range

Filename C:\Temp\Imogen Cooper & Friends\Imogen Cooper and friends CD2.wav

Peak level 95.0 %
Extraction speed 0.3 X
Range quality 100.0 %
Copy CRC 82B4E78E
Copy OK

No errors occurred


AccurateRip summary

Track 1 not present in database
Track 2 not present in database
Track 3 not present in database
Track 4 not present in database
Track 5 not present in database
Track 6 not present in database
Track 7 not present in database
Track 8 not present in database

None of the tracks are present in the AccurateRip database

End of status report

==== Log checksum 47D9C74B1735CF98B4133C2D0763E73CB5292776EFC4038B42835F0635440B9A ====

]foobar2000 1.3.6 / Dynamic Range Meter 1.1.1
log date: 2018-03-15 17:21:29

––––––––––––––––––––––––––––––––––––––––
Analyzed: Imogen Cooper / Imogen Cooper and friends CD2of3 - Schubert Piano Sonata no21 & Piano Trio No1
––––––––––––––––––––––––––––––––––––––––

DR Peak RMS Duration Track
––––––––––––––––––––––––––––––––––––––––
DR15 -4.92 dB -25.54 dB 15:04 01-Piano Sonata No. 21 in B flat, D.960 - I Molto moderate
DR15 -8.24 dB -28.74 dB 9:34 02-Piano Sonata No. 21 in B flat, D.960 - II Andante sostenuto
DR11 -10.07 dB -25.27 dB 3:50 03-Piano Sonata No. 21 in B flat, D.960 - III Scherzo-Allegro vivace, con delica…
DR13 -2.97 dB -23.39 dB 8:48 04-Piano Sonata No. 21 in B flat, D.960 - IV Allegro ma non troppo
DR14 -0.44 dB -21.02 dB 15:02 05-Piano Trio No. 1 in B flat, D.898 - I Allegro moderato
DR16 -4.35 dB -27.74 dB 10:09 06-Piano Trio No. 1 in B flat, D.898 - II Andante un poco mosso
DR15 -1.36 dB -22.54 dB 6:57 07-Piano Trio No. 1 in B flat, D.898 - III Scherzo (Allegro)
DR15 -1.03 dB -21.85 dB 8:55 08-Piano Trio No. 1 in B flat, D.898 - IV Rondo (Allegro vivace)
––––––––––––––––––––––––––––––––––––––––

Number of tracks: 8
Official DR value: DR14

Samplerate: 44100 Hz
Channels: 2
Bits per sample: 16
Bitrate: 452 kbps
Codec: FLAC
================================================================================

Exact Audio Copy V1.0 beta 3 from 29. August 2011

EAC extraction logfile from 1. May 2013, 8:10

Wolfgang Holzmair / Imogen Cooper and friends CD2of3 - Piano & Lieder

Used drive : ASUS DRW-2014L1T Adapter: 4 ID: 1

Read mode : Secure
Utilize accurate stream : Yes
Defeat audio cache : Yes
Make use of C2 pointers : No

Read offset correction : 6
Overread into Lead-In and Lead-Out : No
Fill up missing offset samples with silence : Yes
Delete leading and trailing silent blocks : No
Null samples used in CRC calculations : Yes
Used interface : Installed external ASPI interface

Used output format : User Defined Encoder
Selected bitrate : 256 kBit/s
Quality : High
Add ID3 tag : Yes
Command line compressor : C:\Program Files\FLAC\flac.exe
Additional command line options : -V -8 -T "Date=%year%" -T "Genre=%genre%" %source%


TOC of the extracted CD

Track | Start | Length | Start sector | End sector
––––––––––––––––––––––––––––-
1 | 0:00.00 | 13:53.41 | 0 | 62515
2 | 13:53.41 | 6:53.41 | 62516 | 93531
3 | 20:47.07 | 6:13.03 | 93532 | 121509
4 | 27:00.10 | 11:32.43 | 121510 | 173452
5 | 38:32.53 | 3:38.07 | 173453 | 189809
6 | 42:10.60 | 3:04.69 | 189810 | 203678
7 | 45:15.54 | 3:07.45 | 203679 | 217748
8 | 48:23.24 | 1:52.20 | 217749 | 226168
9 | 50:15.44 | 1:53.11 | 226169 | 234654
10 | 52:08.55 | 4:38.58 | 234655 | 255562
11 | 56:47.38 | 2:02.65 | 255563 | 264777
12 | 58:50.28 | 1:17.36 | 264778 | 270588
13 | 60:07.64 | 1:59.00 | 270589 | 279513
14 | 62:06.64 | 1:58.63 | 279514 | 288426
15 | 64:05.52 | 2:48.22 | 288427 | 301048
16 | 66:53.74 | 5:57.53 | 301049 | 327876
17 | 72:51.52 | 3:49.55 | 327877 | 345106


Range status and errors

Selected range

Filename C:\Temp\Imogen Cooper & Friends\Imogen Cooper and friends CD3.wav

Peak level 98.7 %
Extraction speed 10.0 X
Range quality 100.0 %
Copy CRC A96A14BB
Copy OK

No errors occurred


AccurateRip summary

Track 1 not present in database
Track 2 not present in database
Track 3 not present in database
Track 4 not present in database
Track 5 not present in database
Track 6 not present in database
Track 7 not present in database
Track 8 not present in database
Track 9 not present in database
Track 10 not present in database
Track 11 not present in database
Track 12 not present in database
Track 13 not present in database
Track 14 not present in database
Track 15 not present in database
Track 16 not present in database
Track 17 not present in database

None of the tracks are present in the AccurateRip database

End of status report

==== Log checksum B46DE015ACF3B57385595B0D4FF1785B6F877D6A4B2343B5B84689870268AF25 ====

]foobar2000 1.3.6 / Dynamic Range Meter 1.1.1
log date: 2018-03-15 17:22:20

––––––––––––––––––––––––––––––––––––––––
Analyzed: Wolfgang Holzmair / Imogen Cooper and friends CD2of3 - Piano & Lieder
––––––––––––––––––––––––––––––––––––––––

DR Peak RMS Duration Track
––––––––––––––––––––––––––––––––––––––––
DR16 -0.92 dB -22.96 dB 13:54 01-RACHMANINOV Sonata in G minor for Cello & Piano, Op. 19 - I Lento - Allegr…
DR14 -2.37 dB -22.25 dB 6:54 02-RACHMANINOV Sonata in G minor for Cello & Piano, Op. 19 - II Allegro scherz…
DR15 -3.33 dB -24.60 dB 6:13 03-RACHMANINOV Sonata in G minor for Cello & Piano, Op. 19 - III Andante
DR14 -2.11 dB -21.44 dB 11:33 04-RACHMANINOV Sonata in G minor for Cello & Piano, Op. 19 - IV Allegro mosso
DR13 -6.28 dB -27.39 dB 3:38 05-BRAHMS - Intermezzo in A minor, Op. 116 No. 2 Andante - Non troppo presto - A…
DR12 -5.65 dB -25.83 dB 3:05 06-BRAHMS - Intermezzo in E major, Op. 116 No. 6 Andante teneramente
DR16 -9.26 dB -30.62 dB 3:08 07-SCHUMANN - Mein Wagen rollet langsam, Op. 142 No. 4
DR16 -6.00 dB -29.18 dB 1:52 08-SCHUMANN - Die Lotusblume, Op. 25 No. 7 Heinrich Heine
DR13 -9.45 dB -28.69 dB 1:53 09-SCHUMANN - Aus den Ostlichen Rosen, Op. 25 No. 25 Friedrich Ruckert
DR14 -0.29 dB -23.22 dB 4:39 10-SCHUMANN - Rose, Meer und Sonne, Op. 37 No. 20 Friedrich Ruckert
DR13 -4.30 dB -23.42 dB 2:03 11-SCHUMANN - Widmung, Op. 25 No. 1 Friedrich Ruckert
DR12 -0.11 dB -17.51 dB 1:17 12-WOLF - Liebesgluck, Joseph van Eichendorff
DR12 -0.19 dB -17.45 dB 1:59 13-WOLF - Seemans Abschied, Joseph van Eichendorff
DR13 -7.82 dB -28.33 dB 1:59 14-CLARA SCHUMANN - 0 Warum willst du and're fragen?, Op. 37 No. 11 Friedrich Ru…
DR14 -2.86 dB -23.09 dB 2:48 15-CLARA SCHUMANN - An einem lichten Morgen, Op. 23 No. 2 Hermann Rollet
DR15 -1.81 dB -21.88 dB 5:58 16-BEETHOVEN - Adelaide, Op. 46 Friedrich van Matthisson
DR15 -5.37 dB -27.39 dB 3:50 17-SCHUBERT - Standchen, 0.957 (from'Schwanengesang') Ludwig Rellstab
––––––––––––––––––––––––––––––––––––––––

Number of tracks: 17
Official DR value: DR14

Samplerate: 44100 Hz
Channels: 2
Bits per sample: 16
Bitrate: 490 kbps
Codec: FLAC
================================================================================

Thanks to the original releaser h-moll