Subcategories

Jack Wilkins - Alien Army (1991/1996)

Posted By: Domestos
Jack Wilkins - Alien Army (1991/1996)

Jack Wilkins - Alien Army (1991/1996)
EAC Rip | FLAC (tracks+.cue, log) ~ 292.49 Mb | 54:07 | Covers
Hard Bop, Post-Bop | Country: USA | Label: MusicMasters Jazz - 01612-65049-2

Jack Rivers Lewis (born June 4, 1944), known professionally as Jack Wilkins, is a jazz guitarist. A native of New York City, Wilkins grew up listening to his parents' music, such as Ella Fitzgerald, Frank Sinatra, and Billie Holiday. He started playing guitar when he was ten. He had an older cousin who played albums for him by Charlie Christian, Tal Farlow, Django Reinhardt, and Johnny Smith. He cites Smith's Designed for You as one of the albums that meant the most to him, in addition to Sounds of Synanon by Joe Pass, Poll Winners by Barney Kessel, The Swinging Guitar of Tal Farlow, and Interpretations of Tal Farlow.

While still in his teens, he worked as a guitarist in bands led by Les Elgart, Larry Elgart, Warren Covington, and Sammy Kaye.

He also worked with Dan Armstrong, Lew Soloff, Lew Tabackin, and Lloyd Wells. In his twenties, he worked as a vibraphonist. He formed the band The Jazz Partners and played vibes with pianist Barry Manilow, who admired the work of Bill Evans, Oscar Peterson, and Barney Kessel. Wilkins and Manilow arranged songs from Kessel's albums for their group. A copy of his first solo album, Windows (Mainstream, 1973), found its way into the hands of Buddy Rich's manager. Wilkins then became a member of the Buddy Rich septet.

Wilkins has also worked with Kenny Barron, Frank Foster, Sonny Fortune, Stan Getz, Dizzy Gillespie, Lionel Hampton, Jimmy McGriff, Sal Nistico, Zoot Sims, Sonny Stitt, Jack DeJohnette, Phil Woods, and the Brecker Brothers.



Track List:
01. Happy Eyes (Wilkins-Puricelli-Formanek-Clark) - 5:41
02. Barcelona Rising (Wilkins) - 6:57
03. Chess (Wilkins-Puricelli-Formanek-Clark) - 7:41
04. No Time But Now (Puricelli) - 5:44
Fun Fat (Sweet) (Wilkins-Puricelli-Formanek-Clark)
05. Fornix - 3:40
06. Clean Dreamer - 1:54
07. Pod Dance - 8:19
08. Moon Rain (Wilkins) - 5:58
09. She's the One (Wilkins-Puricelli) - 5:33
10. Romance (Wilkins-Puricelli) - 2:40

Jack Wilkins - electric guitar, acoustic guitar
Marc Puricelli - acoustic piano, keyboards
Michael Formanek - acoustic bass
Mike Clark - drums

Recorded on June 13-15, 1990.

Jack Wilkins - Alien Army (1991/1996)

Exact Audio Copy V1.3 from 2. September 2016

EAC extraction logfile from 31. May 2020, 16:37

Jack Wilkins / Alien Army

Used drive : PIONEER BD-RW BDR-UD03 Adapter: 1 ID: 0

Read mode : Secure
Utilize accurate stream : Yes
Defeat audio cache : Yes
Make use of C2 pointers : No

Read offset correction : 667
Overread into Lead-In and Lead-Out : No
Fill up missing offset samples with silence : Yes
Delete leading and trailing silent blocks : No
Null samples used in CRC calculations : Yes
Used interface : Native Win32 interface for Win NT & 2000
Gap handling : Appended to previous track

Used output format : User Defined Encoder
Selected bitrate : 1024 kBit/s
Quality : High
Add ID3 tag : No
Command line compressor : C:\EAC\Flac\flac.exe
Additional command line options : -8 -V -T "ARTIST=%artist%" -T "TITLE=%title%" -T "ALBUM=%albumtitle%" -T "DATE=%year%" -T "TRACKNUMBER=%tracknr%" -T "GENRE=%genre%" -T "PERFORMER=%albuminterpret%" -T "COMPOSER=%composer%" %haslyrics%–tag-from-file=LYRICS="%lyricsfile%"%haslyrics% -T "ALBUMARTIST=%albumartist%" -T "DISCNUMBER=%cdnumber%" -T "TOTALDISCS=%totalcds%" -T "TOTALTRACKS=%numtracks%" -T "COMMENT=%comment%" %source% -o %dest%


TOC of the extracted CD

Track | Start | Length | Start sector | End sector
––––––––––––––––––––––––––––-
1 | 0:00.32 | 5:41.23 | 32 | 25629
2 | 5:41.55 | 6:56.70 | 25630 | 56899
3 | 12:38.50 | 7:41.15 | 56900 | 91489
4 | 20:19.65 | 5:44.32 | 91490 | 117321
5 | 26:04.22 | 3:39.50 | 117322 | 133796
6 | 29:43.72 | 1:54.18 | 133797 | 142364
7 | 31:38.15 | 8:19.20 | 142365 | 179809
8 | 39:57.35 | 5:58.05 | 179810 | 206664
9 | 45:55.40 | 5:32.47 | 206665 | 231611
10 | 51:28.12 | 2:39.58 | 231612 | 243594


Track 1

Filename C:\EAC\Rips\Jack Wilkins - Alien Army (1996) [FLAC]\01 - Happy Eyes.wav

Pre-gap length 0:00:02.42

Peak level 72.1 %
Extraction speed 2.7 X
Track quality 99.9 %
Test CRC 92280C85
Copy CRC 92280C85
Cannot be verified as accurate (confidence 6) [7262E31F], AccurateRip returned [038CB312] (AR v2)
Copy OK

Track 2

Filename C:\EAC\Rips\Jack Wilkins - Alien Army (1996) [FLAC]\02 - Barcelona Rising.wav

Pre-gap length 0:00:00.80

Peak level 73.9 %
Extraction speed 3.5 X
Track quality 100.0 %
Test CRC 237568BB
Copy CRC 237568BB
Cannot be verified as accurate (confidence 6) [F21575DB], AccurateRip returned [554929DD] (AR v2)
Copy OK

Track 3

Filename C:\EAC\Rips\Jack Wilkins - Alien Army (1996) [FLAC]\03 - Chess.wav

Pre-gap length 0:00:00.73

Peak level 79.6 %
Extraction speed 3.9 X
Track quality 100.0 %
Test CRC A86CFC2E
Copy CRC A86CFC2E
Cannot be verified as accurate (confidence 6) [BBDE723A], AccurateRip returned [9A5D15D0] (AR v2)
Copy OK

Track 4

Filename C:\EAC\Rips\Jack Wilkins - Alien Army (1996) [FLAC]\04 - No Time But Now.wav

Pre-gap length 0:00:02.10

Peak level 87.8 %
Extraction speed 4.2 X
Track quality 100.0 %
Test CRC 99E01E90
Copy CRC 99E01E90
Cannot be verified as accurate (confidence 6) [DF992C05], AccurateRip returned [731E5B35] (AR v2)
Copy OK

Track 5

Filename C:\EAC\Rips\Jack Wilkins - Alien Army (1996) [FLAC]\05 - Fun Fat (Sweet) Fornix.wav

Pre-gap length 0:00:01.20

Peak level 85.7 %
Extraction speed 4.2 X
Track quality 100.0 %
Test CRC 8D29D324
Copy CRC 8D29D324
Cannot be verified as accurate (confidence 6) [F13B7D56], AccurateRip returned [C43F24E5] (AR v2)
Copy OK

Track 6

Filename C:\EAC\Rips\Jack Wilkins - Alien Army (1996) [FLAC]\06 - Clean Dreamer.wav

Peak level 68.4 %
Extraction speed 3.8 X
Track quality 100.0 %
Test CRC B74140B9
Copy CRC B74140B9
Cannot be verified as accurate (confidence 6) [ED0290CD], AccurateRip returned [30D9F794] (AR v2)
Copy OK

Track 7

Filename C:\EAC\Rips\Jack Wilkins - Alien Army (1996) [FLAC]\07 - Pod Dance.wav

Peak level 82.3 %
Extraction speed 4.9 X
Track quality 100.0 %
Test CRC 27BD800F
Copy CRC 27BD800F
Cannot be verified as accurate (confidence 6) [D2975533], AccurateRip returned [9022426E] (AR v2)
Copy OK

Track 8

Filename C:\EAC\Rips\Jack Wilkins - Alien Army (1996) [FLAC]\08 - Moon Rain.wav

Pre-gap length 0:00:02.53

Peak level 79.9 %
Extraction speed 5.1 X
Track quality 100.0 %
Test CRC 052CE530
Copy CRC 052CE530
Cannot be verified as accurate (confidence 6) [C55AF48B], AccurateRip returned [C0C37AE6] (AR v2)
Copy OK

Track 9

Filename C:\EAC\Rips\Jack Wilkins - Alien Army (1996) [FLAC]\09 - She`s The One.wav

Pre-gap length 0:00:01.26

Peak level 81.0 %
Extraction speed 4.8 X
Track quality 99.9 %
Test CRC 21310FCC
Copy CRC 21310FCC
Cannot be verified as accurate (confidence 6) [EA865955], AccurateRip returned [F31F79BB] (AR v2)
Copy OK

Track 10

Filename C:\EAC\Rips\Jack Wilkins - Alien Army (1996) [FLAC]\10 - Romance.wav

Pre-gap length 0:00:00.56

Peak level 64.8 %
Extraction speed 4.8 X
Track quality 100.0 %
Test CRC 3E570B2B
Copy CRC 3E570B2B
Cannot be verified as accurate (confidence 5) [D28A0E16], AccurateRip returned [5AD4FC98] (AR v2)
Copy OK


No tracks could be verified as accurate
You may have a different pressing from the one(s) in the database

No errors occurred

End of status report

–– CUETools DB Plugin V2.1.6

[CTDB TOCID: M5uwtc5g_zD7PPP8Enox.pTgulE-] found
Submit result: M5uwtc5g_zD7PPP8Enox.pTgulE- has been confirmed
Track | CTDB Status
1 | (5/5) Accurately ripped
2 | (4/5) Accurately ripped, or (1/5) differs in 60 samples @05:46:17,05:46:51,05:46:62,05:59:14-05:59:15
3 | (5/5) Accurately ripped
4 | (5/5) Accurately ripped
5 | (5/5) Accurately ripped
6 | (5/5) Accurately ripped
7 | (4/5) Accurately ripped, or (1/5) differs in 372 samples @03:31:09,03:32:12,03:33:14,04:16:09,04:16:40,04:16:71-04:16:72,04:17:12,04:17:28,04:17:43-04:17:44,04:18:31,04:20:54,04:21:42,04:22:14,05:19:61-05:19:62
8 | (5/5) Accurately ripped
9 | (5/5) Accurately ripped
10 | (5/5) Accurately ripped


==== Log checksum 6E3F55117EA6335B3AFCC98CFCC5C074518FA4EB16F15F377D3DF2A8769B16AE ====

All thanks go to the just_a_sundog

More Music in My Blog
Follow My RSS Channel