Subcategories

Jackie McLean - New And Old Gospel (1967) {2007 BN Rudy Van Gelder Remaster}

Posted By: ruskaval
Jackie McLean - New And Old Gospel (1967) {2007 BN Rudy Van Gelder Remaster}

Jackie McLean - New And Old Gospel (1967) {2007 BN Rudy Van Gelder Remaster}
EAC rip (secure mode) | FLAC+CUE+LOG -> 264 Mb | MP3 @320 -> 99 Mb
Full Artwork @ 300 dpi (jpg) -> 15 Mb
© 2007 Blue Note / Capitol | 0946 3 74234 2 4 | 24-bit remaster
Jazz / Hard Bop / Post Bop / Avant-Garde Jazz / Saxophone


Jackie McLean - New And Old Gospel (1967) {2007 BN Rudy Van Gelder Remaster}

Originally issued in 1967, NEW AND OLD GOSPEL is one of the final albums in jazz saxophonist Jackie McLean's long and impressive run on the iconic Blue Note label. What makes this adventurous hard-bop album even more significant, however, is the presence of the legendary Ornette Coleman, in a rare turn as both a sideman and a trumpet player. Although Coleman graciously lets McLean, a powerhouse player in his own right, retain the center spotlight, the free-jazz giant undeniably shapes the proceedings, as best evinced on his own composition "Old Gospel," a lively and fiercely funky showcase for McLean's formidable alto-sax lines.
Personnel: Jackie McLean (alto saxophone); Ornette Coleman (trumpet); Lamont Johnson (piano); Scott Holt (bass); Billy Higgins (drums).

tracklist:
01. Lifeline: Offspring/Midway/Vernzone/The Inevitable End
02. Old Gospel
03. Strange as It Seems

Jackie McLean - New And Old Gospel (1967) {2007 BN Rudy Van Gelder Remaster}

Jackie McLean - New And Old Gospel (1967) {2007 BN Rudy Van Gelder Remaster}

Exact Audio Copy V0.99 prebeta 5 from 4. May 2009

EAC extraction logfile from 14. October 2010, 7:18

Jackie McLean / New And Old Gospel

Used drive : TSSTcorpCD/DVDW TS-H552L Adapter: 3 ID: 0

Read mode : Secure
Utilize accurate stream : Yes
Defeat audio cache : Yes
Make use of C2 pointers : No

Read offset correction : 6
Overread into Lead-In and Lead-Out : No
Fill up missing offset samples with silence : Yes
Delete leading and trailing silent blocks : No
Null samples used in CRC calculations : Yes
Used interface : Native Win32 interface for Win NT & 2000
Gap handling : Appended to previous track

Used output format : User Defined Encoder
Selected bitrate : 1024 kBit/s
Quality : High
Add ID3 tag : No
Command line compressor : C:\Program Files\FLAC\flac.exe
Additional command line options : -6 -V -T "ARTIST=%a" -T "TITLE=%t" -T "ALBUM=%g" -T "DATE=%y" -T "TRACKNUMBER=%n" -T "GENRE=%m" -T "COMMENT=EAC FLAC -6" %s


TOC of the extracted CD

Track | Start | Length | Start sector | End sector
––––––––––––––––––––––––––––-
1 | 0:00.00 | 21:40.53 | 0 | 97552
2 | 21:40.53 | 10:42.62 | 97553 | 145764
3 | 32:23.40 | 9:10.40 | 145765 | 187054


Track 1

Filename C:\Jackie McLean - New And Old Gospel (1967) {2007 BN Rudy Van Gelder Remaster}\01 - Lifeline.wav

Pre-gap length 0:00:02.00

Peak level 97.9 %
Track quality 99.9 %
Test CRC 7333BA12
Copy CRC 7333BA12
Accurately ripped (confidence 4) [F98EDA9D]
Copy OK

Track 2

Filename C:\Jackie McLean - New And Old Gospel (1967) {2007 BN Rudy Van Gelder Remaster}\02 - Old Gospel.wav

Pre-gap length 0:00:04.04

Peak level 97.9 %
Track quality 100.0 %
Test CRC B7CDDB68
Copy CRC B7CDDB68
Accurately ripped (confidence 4) [D7ACE124]
Copy OK

Track 3

Filename C:\Jackie McLean - New And Old Gospel (1967) {2007 BN Rudy Van Gelder Remaster}\03 - Strange As It Seems.wav

Pre-gap length 0:00:02.35

Peak level 97.9 %
Track quality 100.0 %
Test CRC D5609AC3
Copy CRC D5609AC3
Accurately ripped (confidence 4) [A63A5234]
Copy OK


All tracks accurately ripped

No errors occurred

End of status report

FileServe Linkz

or

FSonic Linkz

p.s. the files are interchangeable…

No Mirror, plz!