Subcategories

Jackson C. Frank - The Complete Recordings (2014) {3 CD Set Ba Da Bing - BING 105 rec 1957-1997}

Posted By: ruskaval
Jackson C. Frank - The Complete Recordings (2014) {3 CD Set Ba Da Bing - BING 105 rec 1957-1997}

Jackson C. Frank - The Complete Recordings (2014) {3 CD Set Ba Da Bing - BING 105 rec 1957-1997}
EAC rip (secure mode) | FLAC (tracks)+CUE+LOG -> 746 Mb | MP3 @320 -> 500 Mb
Full Artwork @ 300 dpi (png) -> 40 Mb | 5% repair rar
© 1957-97, 2014 Ba Da Bing | BING 105
Folk / Folk Revival / Folk Blues / Acoustic / Experimental

While Jackson C. Frank’s eponymous 1965 album and other material has enjoyed numerous official and unofficial reissues, Jackson C Frank: The Complete Recordings is the first to compile his entire recording career. The Complete Recordings contains a total of 67 tracks, 24 of which have never appeared before. Every song has been mastered or remastered, a number of them straight from the original, brittle reel-to-reels on which they were originally laid down.

Plagued by tragedy with the most haunting music to show for it, Frank’s life can be heard through his music, which has been covered by the likes of Nick Drake, Simon & Garfunkel, Fairport Convention, Bert Jansch, John Renbourn, Robin Pecknold of Fleet Foxes, Colin Meloy of The Decemberists, John Mayer, South Korean jazz singer Nah Youn Sun, French singer Graeme Allwright, and sampled by Nas for “Undying Love.” While never fully recognized as one of the great musicians of the ’60s, Frank clearly had his fans.

Jackson C. Frank - The Complete Recordings (2014) {3 CD Set Ba Da Bing - BING 105 rec 1957-1997}


The artist’s story is a cautionary tale for the dangerous pitfalls of a life lived. At the age of eleven, he was the victim of the infamous Cleveland Hill School Fire in a New York suburb, leaving him burned and disabled, and killing fifteen of his classmates. He spent an agonizing eight months in the hospital, during which time he picked up a guitar for the first time. Scarred both physically and psychologically, and left a shell of his former self, Frank would never fully recover from the wounds. His never-released second album was to include the song “Marlene,” which honors his childhood girlfriend lost in the fire.

After an aborted attempt at college, where he formed a folk trio, Frank, along with a Martin guitar and his then-girlfriend Kathy Henry, caught The Queen Elizabeth in February 1965, on which he apocryphally wrote his first, and now his most famous, song “Blues Run the Game.” He soon found himself making the rounds of the London folk clubs and rubbed shoulders with Jansch, Renbourn, Roy Harper, Dave Van Ronk, Tom Paxton, Mike Seeger and Sandy Denny (who became Jackson’s girlfriend and later wrote the somber song “Next Time Around” about him).

Frank’s music caught the interest of another young American songwriter in London named Paul Simon, who offered to record and produce his album Jackson C. Frank in 1965. Simon brought Al Stewart along to play guitar, while Denny, Judith Piepe and Art Garfunkel kept them company (and supposedly even ran out for teas for the performer).

After recording his album, however, Frank’s health took a turn for the worse and the following years were unkind. He met future wife Elaine Sedgwick, cousin of Edie Sedgwick, at a London party, and when his money began to run out he left London for Woodstock, where they married. The relationship was marked by a miscarriage and the death of their first-born son to cystic fibrosis, and Frank’s subsequent mental unraveling. He was later diagnosed as a paranoid schizophrenic and battled excessive weight gain from a thyroid problem developed after the fire. Additionally, he went through bouts of intermittent homelessness between stays at various upstate shelters. One day, while Jackson waited in a park to be moved to a new facility, he was shot and blinded in his left eye by neighborhood children with a BB gun. The light from this period of his life came from Jim Abbott, who looked after Frank until his death in 1999.

Frank’s recordings span four decades of a hard-lived life, and every experience, every trial, is reflected in his voice. If ever a person’s individual journey could be traced through his music, it’s Frank’s, and The Complete Recordings is nothing less than a representative map of the artist’s high points and deepest, most shadowed valleys. While the 1965 debut album has seen intermittent reissues, an expanded double-CD edition appeared in 2003 from Sanctuary, with 33 songs that had never appeared before. Jackson C Frank: The Complete Recordings contains a total of 67 tracks, including all the Sanctuary material, plus 24 more songs.
Jackson C. Frank - The Complete Recordings (2014) {3 CD Set Ba Da Bing - BING 105 rec 1957-1997}


badabingrecords.com INFO

Track Listing

CD1

01 - Blues Run The Game
02 - Don't Look Back
03 - Kimbie
04 - Yellow Walls
05 - Here Come The Blues
06 - Milk And Honey
07 - My Name Is Carnival
08 - Dialogue (I Want To Be Alone)
09 - Just Like Anything
10 - You Never Wanted Me
11 - I've Been 'Buked And I've Been Scorned
12 - Gospel Plow
13 - CC Rider
14 - Banana Boat Song
15 - Frankie & Johnny
16 - John Henry
17 - In The Pines
18 - John Henry's Hammer
19 - Ananias
20 - Borrow Love And Go
21 - Jesse James
22 - Last Month Of The Year
23 - Washington Jail

Jackson C. Frank - The Complete Recordings (2014) {3 CD Set Ba Da Bing - BING 105 rec 1957-1997}


CD2
01 - Blues Run The Game (Single Version)
02 - Can't Get Away From My Love
03 - Marlene
04 - Marcy's Song
05 - Madonna Of Swans
06 - Relations
07 - Cover Me With Roses
08 - Cryin' Like A Baby
09 - Spanish Moss
10 - The Visit
11 - Have You Seen The Unicorns
12 - Juliette
13 - China Blue
14 - Madonna Of Swans
15 - Box Canyon
16 - Cover Me With Roses
17 - Spanish Moss
18 - Stitch In Time
19 - Heartbreak Hotel
20 - Santa Bring My Baby Back To Me - Precious Lord

Jackson C. Frank - The Complete Recordings (2014) {3 CD Set Ba Da Bing - BING 105 rec 1957-1997}


CD3
01 - Blues Run The Game (Peel Session)
02 - My Name Is Carnival (Peel Session)
03 - Jimmy Clay (Peel Session)
04 - Just Like Anything (Peel Session)
05 - You Never Wanted Me (Peel Session)
06 - Juliette
07 - Instrumental
08 - Night Of The Blues (Version 1)
09 - (Tumble) In The Wind (Version 1)
10 - The Spectre
11 - Half The Distance
12 - Bull Men
13 - Maria Spanish Rose
14 - Singing Sailors
15 - Night Of The Blues (Version 2)
16 - (Tumble) In The Wind (Version 2)
17 - Goodbye (To My Loving You)
18 - October
19 - Mystery
20 - I Don't Want To Love You No More
21 - Child Fixin' To Die
22 - Halloween Is Black As Night
23 - In The Pines
24 - On My Way To The Canaan Land

Jackson C. Frank - The Complete Recordings (2014) {3 CD Set Ba Da Bing - BING 105 rec 1957-1997}


Exact Audio Copy V1.0 beta 3 from 29. August 2011

EAC extraction logfile from 9. November 2016, 16:48

Jackson C. Frank / The Complete Recordings CD1

Used drive : ATAPI iHBS212 2 Adapter: 3 ID: 0

Read mode : Secure
Utilize accurate stream : Yes
Defeat audio cache : Yes
Make use of C2 pointers : No

Read offset correction : 6
Overread into Lead-In and Lead-Out : No
Fill up missing offset samples with silence : Yes
Delete leading and trailing silent blocks : No
Null samples used in CRC calculations : Yes
Used interface : Native Win32 interface for Win NT & 2000
Gap handling : Appended to previous track

Used output format : User Defined Encoder
Selected bitrate : 128 kBit/s
Quality : High
Add ID3 tag : No
Command line compressor : C:\Program Files (x86)\Exact Audio Copy\Flac\flac.exe
Additional command line options : -8 -V -T "ARTIST=%artist%" -T "TITLE=%title%" -T "ALBUM=%albumtitle%" -T "DATE=%year%" -T "TRACKNUMBER=%tracknr%" -T "TOTALTRACKS=%numtracks%" -T "GENRE=%genre%" -T "ALBUMARTIST=%albumartist%" -T "ALBUM ARTIST=%albumartist%" -T "COMMENT=EAC Secure Mode, Test & Copy, AccurateRip, FLAC -8" %source%


TOC of the extracted CD

Track | Start | Length | Start sector | End sector
––––––––––––––––––––––––––––-
1 | 0:00.00 | 3:31.29 | 0 | 15853
2 | 3:31.29 | 2:58.07 | 15854 | 29210
3 | 6:29.36 | 3:14.27 | 29211 | 43787
4 | 9:43.63 | 2:58.67 | 43788 | 57204
5 | 12:42.55 | 4:00.52 | 57205 | 75256
6 | 16:43.32 | 3:37.48 | 75257 | 91579
7 | 20:21.05 | 3:44.63 | 91580 | 108442
8 | 24:05.68 | 3:18.01 | 108443 | 123293
9 | 27:23.69 | 2:22.20 | 123294 | 133963
10 | 29:46.14 | 3:09.19 | 133964 | 148157
11 | 32:55.33 | 3:44.19 | 148158 | 164976
12 | 36:39.52 | 1:55.54 | 164977 | 173655
13 | 38:35.31 | 3:43.68 | 173656 | 190448
14 | 42:19.24 | 2:43.73 | 190449 | 202746
15 | 45:03.22 | 3:32.43 | 202747 | 218689
16 | 48:35.65 | 3:30.17 | 218690 | 234456
17 | 52:06.07 | 3:08.43 | 234457 | 248599
18 | 55:14.50 | 4:17.55 | 248600 | 267929
19 | 59:32.30 | 1:33.41 | 267930 | 274945
20 | 61:05.71 | 2:07.47 | 274946 | 284517
21 | 63:13.43 | 3:02.73 | 284518 | 298240
22 | 66:16.41 | 2:56.33 | 298241 | 311473
23 | 69:12.74 | 2:35.63 | 311474 | 323161


Track 1

Filename C:\Users\Rob\Desktop\Uploads\Jackson C. Frank - The Complete Recordings (2014) [FLAC] (3 CD)\Disc 1\01 - Blues Run The Game.wav

Pre-gap length 0:00:02.00

Peak level 97.6 %
Extraction speed 2.1 X
Track quality 100.0 %
Test CRC 8CE4FFC2
Copy CRC 8CE4FFC2
Accurately ripped (confidence 2) [CBEA3362] (AR v2)
Copy OK

Track 2

Filename C:\Users\Rob\Desktop\Uploads\Jackson C. Frank - The Complete Recordings (2014) [FLAC] (3 CD)\Disc 1\02 - Don't Look Back.wav

Peak level 97.8 %
Extraction speed 2.2 X
Track quality 100.0 %
Test CRC 69372D01
Copy CRC 69372D01
Accurately ripped (confidence 2) [E782A1B5] (AR v2)
Copy OK

Track 3

Filename C:\Users\Rob\Desktop\Uploads\Jackson C. Frank - The Complete Recordings (2014) [FLAC] (3 CD)\Disc 1\03 - Kimbie.wav

Peak level 97.8 %
Extraction speed 2.4 X
Track quality 100.0 %
Test CRC AF93B5C1
Copy CRC AF93B5C1
Accurately ripped (confidence 2) [17CE3387] (AR v2)
Copy OK

Track 4

Filename C:\Users\Rob\Desktop\Uploads\Jackson C. Frank - The Complete Recordings (2014) [FLAC] (3 CD)\Disc 1\04 - Yellow Walls.wav

Peak level 88.9 %
Extraction speed 2.5 X
Track quality 100.0 %
Test CRC CEA0100A
Copy CRC CEA0100A
Accurately ripped (confidence 2) [58679781] (AR v2)
Copy OK

Track 5

Filename C:\Users\Rob\Desktop\Uploads\Jackson C. Frank - The Complete Recordings (2014) [FLAC] (3 CD)\Disc 1\05 - Here Come The Blues.wav

Peak level 88.3 %
Extraction speed 2.1 X
Track quality 99.9 %
Test CRC 918545A5
Copy CRC 918545A5
Accurately ripped (confidence 2) [2017502A] (AR v2)
Copy OK

Track 6

Filename C:\Users\Rob\Desktop\Uploads\Jackson C. Frank - The Complete Recordings (2014) [FLAC] (3 CD)\Disc 1\06 - Milk And Honey.wav

Peak level 88.7 %
Extraction speed 2.9 X
Track quality 100.0 %
Test CRC 0BAF1C61
Copy CRC 0BAF1C61
Accurately ripped (confidence 2) [9A9F989E] (AR v2)
Copy OK

Track 7

Filename C:\Users\Rob\Desktop\Uploads\Jackson C. Frank - The Complete Recordings (2014) [FLAC] (3 CD)\Disc 1\07 - My Name Is Carnival.wav

Peak level 79.3 %
Extraction speed 3.1 X
Track quality 100.0 %
Test CRC A467463B
Copy CRC A467463B
Accurately ripped (confidence 2) [F365A1F1] (AR v2)
Copy OK

Track 8

Filename C:\Users\Rob\Desktop\Uploads\Jackson C. Frank - The Complete Recordings (2014) [FLAC] (3 CD)\Disc 1\08 - Dialogue (I Want To Be Alone).wav

Peak level 84.2 %
Extraction speed 3.2 X
Track quality 100.0 %
Test CRC 968432D3
Copy CRC 968432D3
Accurately ripped (confidence 2) [25244557] (AR v2)
Copy OK

Track 9

Filename C:\Users\Rob\Desktop\Uploads\Jackson C. Frank - The Complete Recordings (2014) [FLAC] (3 CD)\Disc 1\09 - Just Like Anything.wav

Peak level 85.3 %
Extraction speed 3.1 X
Track quality 100.0 %
Test CRC 4A0D2BE1
Copy CRC 4A0D2BE1
Accurately ripped (confidence 2) [BF707475] (AR v2)
Copy OK

Track 10

Filename C:\Users\Rob\Desktop\Uploads\Jackson C. Frank - The Complete Recordings (2014) [FLAC] (3 CD)\Disc 1\10 - You Never Wanted Me.wav

Peak level 86.4 %
Extraction speed 2.3 X
Track quality 99.9 %
Test CRC B825F9DD
Copy CRC B825F9DD
Accurately ripped (confidence 2) [F270C526] (AR v2)
Copy OK

Track 11

Filename C:\Users\Rob\Desktop\Uploads\Jackson C. Frank - The Complete Recordings (2014) [FLAC] (3 CD)\Disc 1\11 - I've Been 'Buked And I've Been Scorned.wav

Peak level 65.4 %
Extraction speed 3.5 X
Track quality 100.0 %
Test CRC 6AA55416
Copy CRC 6AA55416
Accurately ripped (confidence 2) [255A640E] (AR v2)
Copy OK

Track 12

Filename C:\Users\Rob\Desktop\Uploads\Jackson C. Frank - The Complete Recordings (2014) [FLAC] (3 CD)\Disc 1\12 - Gospel Plow.wav

Peak level 81.8 %
Extraction speed 3.2 X
Track quality 100.0 %
Test CRC 5ADCB648
Copy CRC 5ADCB648
Accurately ripped (confidence 2) [1A6C6AD6] (AR v2)
Copy OK

Track 13

Filename C:\Users\Rob\Desktop\Uploads\Jackson C. Frank - The Complete Recordings (2014) [FLAC] (3 CD)\Disc 1\13 - CC Rider.wav

Peak level 73.7 %
Extraction speed 3.7 X
Track quality 100.0 %
Test CRC 9FDEF64F
Copy CRC 9FDEF64F
Accurately ripped (confidence 2) [48F3E558] (AR v2)
Copy OK

Track 14

Filename C:\Users\Rob\Desktop\Uploads\Jackson C. Frank - The Complete Recordings (2014) [FLAC] (3 CD)\Disc 1\14 - Banana Boat Song.wav

Peak level 85.6 %
Extraction speed 2.4 X
Track quality 99.9 %
Test CRC DB643BA0
Copy CRC DB643BA0
Accurately ripped (confidence 2) [6E567154] (AR v2)
Copy OK

Track 15

Filename C:\Users\Rob\Desktop\Uploads\Jackson C. Frank - The Complete Recordings (2014) [FLAC] (3 CD)\Disc 1\15 - Frankie & Johnny.wav

Peak level 91.8 %
Extraction speed 3.9 X
Track quality 100.0 %
Test CRC 65B1C5DA
Copy CRC 65B1C5DA
Accurately ripped (confidence 2) [5C8D0D1F] (AR v2)
Copy OK

Track 16

Filename C:\Users\Rob\Desktop\Uploads\Jackson C. Frank - The Complete Recordings (2014) [FLAC] (3 CD)\Disc 1\16 - John Henry.wav

Peak level 88.5 %
Extraction speed 4.0 X
Track quality 100.0 %
Test CRC 498E232E
Copy CRC 498E232E
Accurately ripped (confidence 2) [99F1A7AA] (AR v2)
Copy OK

Track 17

Filename C:\Users\Rob\Desktop\Uploads\Jackson C. Frank - The Complete Recordings (2014) [FLAC] (3 CD)\Disc 1\17 - In The Pines.wav

Peak level 81.3 %
Extraction speed 2.8 X
Track quality 99.9 %
Test CRC 296CD834
Copy CRC 296CD834
Accurately ripped (confidence 2) [14E41F30] (AR v2)
Copy OK

Track 18

Filename C:\Users\Rob\Desktop\Uploads\Jackson C. Frank - The Complete Recordings (2014) [FLAC] (3 CD)\Disc 1\18 - John Henry's Hammer.wav

Peak level 98.7 %
Extraction speed 4.3 X
Track quality 100.0 %
Test CRC 331C556D
Copy CRC 331C556D
Accurately ripped (confidence 2) [E13FD052] (AR v2)
Copy OK

Track 19

Filename C:\Users\Rob\Desktop\Uploads\Jackson C. Frank - The Complete Recordings (2014) [FLAC] (3 CD)\Disc 1\19 - Ananias.wav

Peak level 98.7 %
Extraction speed 3.5 X
Track quality 100.0 %
Test CRC 8F2D90EB
Copy CRC 8F2D90EB
Accurately ripped (confidence 2) [43DF652A] (AR v2)
Copy OK

Track 20

Filename C:\Users\Rob\Desktop\Uploads\Jackson C. Frank - The Complete Recordings (2014) [FLAC] (3 CD)\Disc 1\20 - Borrow Love And Go.wav

Peak level 97.7 %
Extraction speed 3.9 X
Track quality 100.0 %
Test CRC A4AD4841
Copy CRC A4AD4841
Accurately ripped (confidence 2) [7AE0C79F] (AR v2)
Copy OK

Track 21

Filename C:\Users\Rob\Desktop\Uploads\Jackson C. Frank - The Complete Recordings (2014) [FLAC] (3 CD)\Disc 1\21 - Jesse James.wav

Peak level 98.7 %
Extraction speed 4.3 X
Track quality 100.0 %
Test CRC F1ABD5BF
Copy CRC F1ABD5BF
Accurately ripped (confidence 2) [DF3DFBD7] (AR v2)
Copy OK

Track 22

Filename C:\Users\Rob\Desktop\Uploads\Jackson C. Frank - The Complete Recordings (2014) [FLAC] (3 CD)\Disc 1\22 - Last Month Of The Year.wav

Peak level 98.7 %
Extraction speed 4.4 X
Track quality 100.0 %
Test CRC 92722B60
Copy CRC 92722B60
Accurately ripped (confidence 2) [3F1D2C5F] (AR v2)
Copy OK

Track 23

Filename C:\Users\Rob\Desktop\Uploads\Jackson C. Frank - The Complete Recordings (2014) [FLAC] (3 CD)\Disc 1\23 - Washington Jail.wav

Peak level 98.7 %
Extraction speed 4.3 X
Track quality 100.0 %
Test CRC F5080671
Copy CRC F5080671
Accurately ripped (confidence 2) [322C7F35] (AR v2)
Copy OK


All tracks accurately ripped

No errors occurred

End of status report

==== Log checksum 0CAD6CA1A8FA1DC94DBFC5EA9E119AF0A3EEA4A28906F487DD60F587C9995E90 ====

––-

Exact Audio Copy V1.0 beta 3 from 29. August 2011

EAC extraction logfile from 9. November 2016, 23:01

Jackson C. Frank / The Complete Recordings CD2

Used drive : ATAPI iHBS212 2 Adapter: 3 ID: 0

Read mode : Secure
Utilize accurate stream : Yes
Defeat audio cache : Yes
Make use of C2 pointers : No

Read offset correction : 6
Overread into Lead-In and Lead-Out : No
Fill up missing offset samples with silence : Yes
Delete leading and trailing silent blocks : No
Null samples used in CRC calculations : Yes
Used interface : Native Win32 interface for Win NT & 2000
Gap handling : Appended to previous track

Used output format : User Defined Encoder
Selected bitrate : 128 kBit/s
Quality : High
Add ID3 tag : No
Command line compressor : C:\Program Files (x86)\Exact Audio Copy\Flac\flac.exe
Additional command line options : -8 -V -T "ARTIST=%artist%" -T "TITLE=%title%" -T "ALBUM=%albumtitle%" -T "DATE=%year%" -T "TRACKNUMBER=%tracknr%" -T "TOTALTRACKS=%numtracks%" -T "GENRE=%genre%" -T "ALBUMARTIST=%albumartist%" -T "ALBUM ARTIST=%albumartist%" -T "COMMENT=EAC Secure Mode, Test & Copy, AccurateRip, FLAC -8" %source%


TOC of the extracted CD

Track | Start | Length | Start sector | End sector
––––––––––––––––––––––––––––-
1 | 0:00.00 | 2:48.42 | 0 | 12641
2 | 2:48.42 | 2:50.24 | 12642 | 25415
3 | 5:38.66 | 4:55.32 | 25416 | 47572
4 | 10:34.23 | 4:28.01 | 47573 | 67673
5 | 15:02.24 | 5:11.67 | 67674 | 91065
6 | 20:14.16 | 3:53.62 | 91066 | 108602
7 | 24:08.03 | 2:17.52 | 108603 | 118929
8 | 26:25.55 | 3:33.31 | 118930 | 134935
9 | 29:59.11 | 3:51.29 | 134936 | 152289
10 | 33:50.40 | 4:55.37 | 152290 | 174451
11 | 38:46.02 | 0:35.71 | 174452 | 177147
12 | 39:21.73 | 4:40.05 | 177148 | 198152
13 | 44:02.03 | 4:18.28 | 198153 | 217530
14 | 48:20.31 | 2:00.49 | 217531 | 226579
15 | 50:21.05 | 3:02.28 | 226580 | 240257
16 | 53:23.33 | 2:28.65 | 240258 | 251422
17 | 55:52.23 | 4:27.62 | 251423 | 271509
18 | 60:20.10 | 2:35.32 | 271510 | 283166
19 | 62:55.42 | 2:24.61 | 283167 | 294027
20 | 65:20.28 | 2:37.64 | 294028 | 305866


Track 1

Filename C:\Users\Rob\Desktop\Uploads\Jackson C. Frank - The Complete Recordings (2014) [FLAC] (3 CD)\Disc 2\01 - Blues Run The Game (Single Version).wav

Pre-gap length 0:00:02.00

Peak level 68.8 %
Extraction speed 3.5 X
Track quality 100.0 %
Test CRC 912C0396
Copy CRC 912C0396
Accurately ripped (confidence 2) [77CFA42E] (AR v2)
Copy OK

Track 2

Filename C:\Users\Rob\Desktop\Uploads\Jackson C. Frank - The Complete Recordings (2014) [FLAC] (3 CD)\Disc 2\02 - Can't Get Away From My Love.wav

Peak level 63.8 %
Extraction speed 3.2 X
Track quality 99.9 %
Test CRC 2C43FC2E
Copy CRC 2C43FC2E
Accurately ripped (confidence 2) [C004172F] (AR v2)
Copy OK

Track 3

Filename C:\Users\Rob\Desktop\Uploads\Jackson C. Frank - The Complete Recordings (2014) [FLAC] (3 CD)\Disc 2\03 - Marlene.wav

Peak level 72.7 %
Extraction speed 4.4 X
Track quality 100.0 %
Test CRC 993DDE8D
Copy CRC 993DDE8D
Accurately ripped (confidence 2) [BAFF1C8A] (AR v2)
Copy OK

Track 4

Filename C:\Users\Rob\Desktop\Uploads\Jackson C. Frank - The Complete Recordings (2014) [FLAC] (3 CD)\Disc 2\04 - Marcy's Song.wav

Peak level 56.9 %
Extraction speed 4.8 X
Track quality 100.0 %
Test CRC CE8C088B
Copy CRC CE8C088B
Accurately ripped (confidence 2) [40B3379C] (AR v2)
Copy OK

Track 5

Filename C:\Users\Rob\Desktop\Uploads\Jackson C. Frank - The Complete Recordings (2014) [FLAC] (3 CD)\Disc 2\05 - Madonna Of Swans.wav

Peak level 59.5 %
Extraction speed 5.3 X
Track quality 100.0 %
Test CRC DFD58EFE
Copy CRC DFD58EFE
Accurately ripped (confidence 2) [0AAFD1E2] (AR v2)
Copy OK

Track 6

Filename C:\Users\Rob\Desktop\Uploads\Jackson C. Frank - The Complete Recordings (2014) [FLAC] (3 CD)\Disc 2\06 - Relations.wav

Peak level 61.3 %
Extraction speed 5.4 X
Track quality 100.0 %
Test CRC D3A1E4C7
Copy CRC D3A1E4C7
Accurately ripped (confidence 2) [E6A64E14] (AR v2)
Copy OK

Track 7

Filename C:\Users\Rob\Desktop\Uploads\Jackson C. Frank - The Complete Recordings (2014) [FLAC] (3 CD)\Disc 2\07 - Cover Me With Roses.wav

Peak level 61.2 %
Extraction speed 5.1 X
Track quality 100.0 %
Test CRC F8BE1796
Copy CRC F8BE1796
Accurately ripped (confidence 2) [DF0DF2A9] (AR v2)
Copy OK

Track 8

Filename C:\Users\Rob\Desktop\Uploads\Jackson C. Frank - The Complete Recordings (2014) [FLAC] (3 CD)\Disc 2\08 - Cryin' Like A Baby.wav

Peak level 57.8 %
Extraction speed 5.7 X
Track quality 100.0 %
Test CRC 7B3BB646
Copy CRC 7B3BB646
Accurately ripped (confidence 2) [5FEF31D5] (AR v2)
Copy OK

Track 9

Filename C:\Users\Rob\Desktop\Uploads\Jackson C. Frank - The Complete Recordings (2014) [FLAC] (3 CD)\Disc 2\09 - Spanish Moss.wav

Peak level 67.0 %
Extraction speed 5.3 X
Track quality 99.9 %
Test CRC 8B32048E
Copy CRC 8B32048E
Accurately ripped (confidence 2) [0BFFCED3] (AR v2)
Copy OK

Track 10

Filename C:\Users\Rob\Desktop\Uploads\Jackson C. Frank - The Complete Recordings (2014) [FLAC] (3 CD)\Disc 2\10 - The Visit.wav

Peak level 55.8 %
Extraction speed 5.9 X
Track quality 99.9 %
Test CRC FF092E6D
Copy CRC FF092E6D
Accurately ripped (confidence 2) [BC5545F5] (AR v2)
Copy OK

Track 11

Filename C:\Users\Rob\Desktop\Uploads\Jackson C. Frank - The Complete Recordings (2014) [FLAC] (3 CD)\Disc 2\11 - Have You Seen The Unicorns.wav

Peak level 38.6 %
Extraction speed 3.6 X
Track quality 100.0 %
Test CRC 84454879
Copy CRC 84454879
Accurately ripped (confidence 2) [70D2220A] (AR v2)
Copy OK

Track 12

Filename C:\Users\Rob\Desktop\Uploads\Jackson C. Frank - The Complete Recordings (2014) [FLAC] (3 CD)\Disc 2\12 - Juliette.wav

Peak level 70.2 %
Extraction speed 6.7 X
Track quality 100.0 %
Test CRC 5FDEE032
Copy CRC 5FDEE032
Accurately ripped (confidence 2) [67290368] (AR v2)
Copy OK

Track 13

Filename C:\Users\Rob\Desktop\Uploads\Jackson C. Frank - The Complete Recordings (2014) [FLAC] (3 CD)\Disc 2\13 - China Blue.wav

Peak level 69.5 %
Extraction speed 7.0 X
Track quality 100.0 %
Test CRC 64C61695
Copy CRC 64C61695
Accurately ripped (confidence 2) [2B3E572E] (AR v2)
Copy OK

Track 14

Filename C:\Users\Rob\Desktop\Uploads\Jackson C. Frank - The Complete Recordings (2014) [FLAC] (3 CD)\Disc 2\14 - Madonna Of Swans.wav

Peak level 78.4 %
Extraction speed 6.1 X
Track quality 100.0 %
Test CRC A2ED7ADA
Copy CRC A2ED7ADA
Accurately ripped (confidence 2) [18493679] (AR v2)
Copy OK

Track 15

Filename C:\Users\Rob\Desktop\Uploads\Jackson C. Frank - The Complete Recordings (2014) [FLAC] (3 CD)\Disc 2\15 - Box Canyon.wav

Peak level 64.4 %
Extraction speed 6.9 X
Track quality 100.0 %
Test CRC 3E0AFD44
Copy CRC 3E0AFD44
Accurately ripped (confidence 2) [2D50F14A] (AR v2)
Copy OK

Track 16

Filename C:\Users\Rob\Desktop\Uploads\Jackson C. Frank - The Complete Recordings (2014) [FLAC] (3 CD)\Disc 2\16 - Cover Me With Roses.wav

Peak level 65.4 %
Extraction speed 6.7 X
Track quality 100.0 %
Test CRC 1E717BCD
Copy CRC 1E717BCD
Accurately ripped (confidence 2) [22002214] (AR v2)
Copy OK

Track 17

Filename C:\Users\Rob\Desktop\Uploads\Jackson C. Frank - The Complete Recordings (2014) [FLAC] (3 CD)\Disc 2\17 - Spanish Moss.wav

Peak level 75.4 %
Extraction speed 7.5 X
Track quality 100.0 %
Test CRC 9439F7FD
Copy CRC 9439F7FD
Accurately ripped (confidence 2) [6E39087F] (AR v2)
Copy OK

Track 18

Filename C:\Users\Rob\Desktop\Uploads\Jackson C. Frank - The Complete Recordings (2014) [FLAC] (3 CD)\Disc 2\18 - Stitch In Time.wav

Peak level 69.1 %
Extraction speed 7.0 X
Track quality 100.0 %
Test CRC BCF8823C
Copy CRC BCF8823C
Accurately ripped (confidence 2) [EDA35D4F] (AR v2)
Copy OK

Track 19

Filename C:\Users\Rob\Desktop\Uploads\Jackson C. Frank - The Complete Recordings (2014) [FLAC] (3 CD)\Disc 2\19 - Heartbreak Hotel.wav

Peak level 58.3 %
Extraction speed 7.1 X
Track quality 100.0 %
Test CRC 2AD41913
Copy CRC 2AD41913
Accurately ripped (confidence 2) [08C1ED52] (AR v2)
Copy OK

Track 20

Filename C:\Users\Rob\Desktop\Uploads\Jackson C. Frank - The Complete Recordings (2014) [FLAC] (3 CD)\Disc 2\20 - Santa Bring My Baby Back To Me - Precious Lord.wav

Peak level 72.5 %
Extraction speed 7.3 X
Track quality 100.0 %
Test CRC F2046739
Copy CRC F2046739
Accurately ripped (confidence 2) [267FF51C] (AR v2)
Copy OK


All tracks accurately ripped

No errors occurred

End of status report

==== Log checksum 1793A4D6C460A451D6578AA6369F1FAF2663D191F023B9E9866FEDB0E9D8E41F ====

––-

Exact Audio Copy V1.0 beta 3 from 29. August 2011

EAC extraction logfile from 10. November 2016, 9:15

Jackson C. Frank / The Complete Recordings CD3

Used drive : ATAPI iHBS212 2 Adapter: 3 ID: 0

Read mode : Secure
Utilize accurate stream : Yes
Defeat audio cache : Yes
Make use of C2 pointers : No

Read offset correction : 6
Overread into Lead-In and Lead-Out : No
Fill up missing offset samples with silence : Yes
Delete leading and trailing silent blocks : No
Null samples used in CRC calculations : Yes
Used interface : Native Win32 interface for Win NT & 2000
Gap handling : Appended to previous track

Used output format : User Defined Encoder
Selected bitrate : 128 kBit/s
Quality : High
Add ID3 tag : No
Command line compressor : C:\Program Files (x86)\Exact Audio Copy\Flac\flac.exe
Additional command line options : -8 -V -T "ARTIST=%artist%" -T "TITLE=%title%" -T "ALBUM=%albumtitle%" -T "DATE=%year%" -T "TRACKNUMBER=%tracknr%" -T "TOTALTRACKS=%numtracks%" -T "GENRE=%genre%" -T "ALBUMARTIST=%albumartist%" -T "ALBUM ARTIST=%albumartist%" -T "COMMENT=EAC Secure Mode, Test & Copy, AccurateRip, FLAC -8" %source%


TOC of the extracted CD

Track | Start | Length | Start sector | End sector
––––––––––––––––––––––––––––-
1 | 0:00.00 | 3:22.30 | 0 | 15179
2 | 3:22.30 | 4:02.54 | 15180 | 33383
3 | 7:25.09 | 4:08.08 | 33384 | 51991
4 | 11:33.17 | 2:06.17 | 51992 | 61458
5 | 13:39.34 | 2:57.71 | 61459 | 74804
6 | 16:37.30 | 2:59.55 | 74805 | 88284
7 | 19:37.10 | 2:35.29 | 88285 | 99938
8 | 22:12.39 | 2:02.47 | 99939 | 109135
9 | 24:15.11 | 2:40.71 | 109136 | 121206
10 | 26:56.07 | 1:59.51 | 121207 | 130182
11 | 28:55.58 | 2:35.50 | 130183 | 141857
12 | 31:31.33 | 2:14.08 | 141858 | 151915
13 | 33:45.41 | 2:48.50 | 151916 | 164565
14 | 36:34.16 | 2:45.53 | 164566 | 176993
15 | 39:19.69 | 3:49.63 | 176994 | 194231
16 | 43:09.57 | 3:08.41 | 194232 | 208372
17 | 46:18.23 | 3:56.65 | 208373 | 226137
18 | 50:15.13 | 4:06.11 | 226138 | 244598
19 | 54:21.24 | 2:35.11 | 244599 | 256234
20 | 56:56.35 | 2:37.47 | 256235 | 268056
21 | 59:34.07 | 2:56.74 | 268057 | 281330
22 | 62:31.06 | 2:41.49 | 281331 | 293454
23 | 65:12.55 | 3:28.56 | 293455 | 309110
24 | 68:41.36 | 2:51.33 | 309111 | 321968


Track 1

Filename C:\Users\Rob\Desktop\Uploads\Jackson C. Frank - The Complete Recordings (2014) [FLAC] (3 CD)\Disc 3\01 - Blues Run The Game (Peel Session).wav

Pre-gap length 0:00:02.00

Peak level 79.5 %
Extraction speed 1.8 X
Track quality 99.5 %
Test CRC 62D8CC12
Copy CRC 62D8CC12
Accurately ripped (confidence 2) [12130859] (AR v2)
Copy OK

Track 2

Filename C:\Users\Rob\Desktop\Uploads\Jackson C. Frank - The Complete Recordings (2014) [FLAC] (3 CD)\Disc 3\02 - My Name Is Carnival (Peel Session).wav

Peak level 64.8 %
Extraction speed 6.2 X
Track quality 100.0 %
Test CRC 09520583
Copy CRC 09520583
Accurately ripped (confidence 2) [E5D52835] (AR v2)
Copy OK

Track 3

Filename C:\Users\Rob\Desktop\Uploads\Jackson C. Frank - The Complete Recordings (2014) [FLAC] (3 CD)\Disc 3\03 - Jimmy Clay (Peel Session).wav

Peak level 61.4 %
Extraction speed 6.8 X
Track quality 100.0 %
Test CRC 5FD1B1ED
Copy CRC 5FD1B1ED
Accurately ripped (confidence 2) [F9AED465] (AR v2)
Copy OK

Track 4

Filename C:\Users\Rob\Desktop\Uploads\Jackson C. Frank - The Complete Recordings (2014) [FLAC] (3 CD)\Disc 3\04 - Just Like Anything (Peel Session).wav

Peak level 53.4 %
Extraction speed 3.8 X
Track quality 99.8 %
Test CRC C2544D0C
Copy CRC C2544D0C
Accurately ripped (confidence 2) [3972295E] (AR v2)
Copy OK

Track 5

Filename C:\Users\Rob\Desktop\Uploads\Jackson C. Frank - The Complete Recordings (2014) [FLAC] (3 CD)\Disc 3\05 - You Never Wanted Me (Peel Session).wav

Peak level 78.0 %
Extraction speed 5.6 X
Track quality 99.9 %
Test CRC 79237580
Copy CRC 79237580
Accurately ripped (confidence 2) [B4D4C77B] (AR v2)
Copy OK

Track 6

Filename C:\Users\Rob\Desktop\Uploads\Jackson C. Frank - The Complete Recordings (2014) [FLAC] (3 CD)\Disc 3\06 - Juliette.wav

Peak level 48.5 %
Extraction speed 7.4 X
Track quality 100.0 %
Test CRC 6B40F901
Copy CRC 6B40F901
Accurately ripped (confidence 2) [CF2E4FD9] (AR v2)
Copy OK

Track 7

Filename C:\Users\Rob\Desktop\Uploads\Jackson C. Frank - The Complete Recordings (2014) [FLAC] (3 CD)\Disc 3\07 - Instrumental.wav

Peak level 44.1 %
Extraction speed 4.7 X
Track quality 99.8 %
Test CRC F45F4132
Copy CRC F45F4132
Accurately ripped (confidence 2) [8B2D0C41] (AR v2)
Copy OK

Track 8

Filename C:\Users\Rob\Desktop\Uploads\Jackson C. Frank - The Complete Recordings (2014) [FLAC] (3 CD)\Disc 3\08 - Night Of The Blues (Version 1).wav

Peak level 48.9 %
Extraction speed 7.3 X
Track quality 100.0 %
Test CRC 1C2C74AE
Copy CRC 1C2C74AE
Accurately ripped (confidence 2) [62D47DF1] (AR v2)
Copy OK

Track 9

Filename C:\Users\Rob\Desktop\Uploads\Jackson C. Frank - The Complete Recordings (2014) [FLAC] (3 CD)\Disc 3\09 - (Tumble) In The Wind (Version 1).wav

Peak level 67.3 %
Extraction speed 7.9 X
Track quality 100.0 %
Test CRC C7F2BC3F
Copy CRC C7F2BC3F
Accurately ripped (confidence 2) [427485BF] (AR v2)
Copy OK

Track 10

Filename C:\Users\Rob\Desktop\Uploads\Jackson C. Frank - The Complete Recordings (2014) [FLAC] (3 CD)\Disc 3\10 - The Spectre.wav

Peak level 62.5 %
Extraction speed 7.8 X
Track quality 100.0 %
Test CRC A7A94A0D
Copy CRC A7A94A0D
Accurately ripped (confidence 2) [9D3ACAAA] (AR v2)
Copy OK

Track 11

Filename C:\Users\Rob\Desktop\Uploads\Jackson C. Frank - The Complete Recordings (2014) [FLAC] (3 CD)\Disc 3\11 - Half The Distance.wav

Peak level 63.6 %
Extraction speed 2.6 X
Track quality 99.5 %
Test CRC 518B2878
Copy CRC 518B2878
Accurately ripped (confidence 2) [5CC2E3A5] (AR v2)
Copy OK

Track 12

Filename C:\Users\Rob\Desktop\Uploads\Jackson C. Frank - The Complete Recordings (2014) [FLAC] (3 CD)\Disc 3\12 - Bull Men.wav

Peak level 65.6 %
Extraction speed 6.3 X
Track quality 99.9 %
Test CRC 37BC01FF
Copy CRC 37BC01FF
Accurately ripped (confidence 2) [56325A7F] (AR v2)
Copy OK

Track 13

Filename C:\Users\Rob\Desktop\Uploads\Jackson C. Frank - The Complete Recordings (2014) [FLAC] (3 CD)\Disc 3\13 - Maria Spanish Rose.wav

Peak level 68.7 %
Extraction speed 3.3 X
Track quality 99.6 %
Test CRC 7B5EBF0C
Copy CRC 7B5EBF0C
Accurately ripped (confidence 2) [3DF377DE] (AR v2)
Copy OK

Track 14

Filename C:\Users\Rob\Desktop\Uploads\Jackson C. Frank - The Complete Recordings (2014) [FLAC] (3 CD)\Disc 3\14 - Singing Sailors.wav

Peak level 83.3 %
Extraction speed 9.0 X
Track quality 100.0 %
Test CRC B9230CB3
Copy CRC B9230CB3
Accurately ripped (confidence 2) [A1C0F7A4] (AR v2)
Copy OK

Track 15

Filename C:\Users\Rob\Desktop\Uploads\Jackson C. Frank - The Complete Recordings (2014) [FLAC] (3 CD)\Disc 3\15 - Night Of The Blues (Version 2).wav

Peak level 67.5 %
Extraction speed 9.8 X
Track quality 100.0 %
Test CRC D0B8002B
Copy CRC D0B8002B
Accurately ripped (confidence 2) [EBEA4F73] (AR v2)
Copy OK

Track 16

Filename C:\Users\Rob\Desktop\Uploads\Jackson C. Frank - The Complete Recordings (2014) [FLAC] (3 CD)\Disc 3\16 - (Tumble) In The Wind (Version 2).wav

Peak level 66.1 %
Extraction speed 7.7 X
Track quality 99.9 %
Test CRC 70AD91DA
Copy CRC 70AD91DA
Accurately ripped (confidence 2) [11E28F3C] (AR v2)
Copy OK

Track 17

Filename C:\Users\Rob\Desktop\Uploads\Jackson C. Frank - The Complete Recordings (2014) [FLAC] (3 CD)\Disc 3\17 - Goodbye (To My Loving You).wav

Peak level 63.5 %
Extraction speed 10.5 X
Track quality 100.0 %
Test CRC 196361B8
Copy CRC 196361B8
Accurately ripped (confidence 2) [C10AA4A5] (AR v2)
Copy OK

Track 18

Filename C:\Users\Rob\Desktop\Uploads\Jackson C. Frank - The Complete Recordings (2014) [FLAC] (3 CD)\Disc 3\18 - October.wav

Peak level 55.8 %
Extraction speed 8.8 X
Track quality 99.9 %
Test CRC CDD47AD8
Copy CRC CDD47AD8
Accurately ripped (confidence 2) [6215EFE5] (AR v2)
Copy OK

Track 19

Filename C:\Users\Rob\Desktop\Uploads\Jackson C. Frank - The Complete Recordings (2014) [FLAC] (3 CD)\Disc 3\19 - Mystery.wav

Peak level 56.4 %
Extraction speed 10.2 X
Track quality 100.0 %
Test CRC 298B7C3B
Copy CRC 298B7C3B
Accurately ripped (confidence 2) [AE10288A] (AR v2)
Copy OK

Track 20

Filename C:\Users\Rob\Desktop\Uploads\Jackson C. Frank - The Complete Recordings (2014) [FLAC] (3 CD)\Disc 3\20 - I Don't Want To Love You No More.wav

Peak level 57.1 %
Extraction speed 8.1 X
Track quality 99.9 %
Test CRC 2866B322
Copy CRC 2866B322
Accurately ripped (confidence 2) [F2C10D16] (AR v2)
Copy OK

Track 21

Filename C:\Users\Rob\Desktop\Uploads\Jackson C. Frank - The Complete Recordings (2014) [FLAC] (3 CD)\Disc 3\21 - Child Fixin' To Die.wav

Peak level 58.1 %
Extraction speed 4.1 X
Track quality 99.6 %
Test CRC 923BF630
Copy CRC 923BF630
Accurately ripped (confidence 2) [7FEE4765] (AR v2)
Copy OK

Track 22

Filename C:\Users\Rob\Desktop\Uploads\Jackson C. Frank - The Complete Recordings (2014) [FLAC] (3 CD)\Disc 3\22 - Halloween Is Black As Night.wav

Peak level 55.7 %
Extraction speed 3.9 X
Track quality 99.6 %
Test CRC BE099A6F
Copy CRC BE099A6F
Accurately ripped (confidence 2) [F200FD61] (AR v2)
Copy OK

Track 23

Filename C:\Users\Rob\Desktop\Uploads\Jackson C. Frank - The Complete Recordings (2014) [FLAC] (3 CD)\Disc 3\23 - In The Pines.wav

Peak level 98.7 %
Extraction speed 3.8 X
Track quality 99.6 %
Test CRC 8C14D907
Copy CRC 8C14D907
Accurately ripped (confidence 2) [BA24B835] (AR v2)
Copy OK

Track 24

Filename C:\Users\Rob\Desktop\Uploads\Jackson C. Frank - The Complete Recordings (2014) [FLAC] (3 CD)\Disc 3\24 - On My Way To The Canaan Land.wav

Peak level 99.0 %
Extraction speed 4.0 X
Track quality 99.6 %
Test CRC 248DAC44
Copy CRC 248DAC44
Accurately ripped (confidence 2) [8C684914] (AR v2)
Copy OK


All tracks accurately ripped

No errors occurred

End of status report

==== Log checksum 85C1F6A88B45EE954580489BEAD784C1A8C929D794A632B63B21983912D56A4F ====



Jackson C. Frank - The Complete Recordings (2014) {3 CD Set Ba Da Bing - BING 105 rec 1957-1997}



===