Subcategories
Tags
Language
Tags

Jah Thomas - Stop Yu Loafin (1978) {2013 Reissue, Greensleeves Records GREWCD3}

Posted By: ruskaval
Jah Thomas - Stop Yu Loafin (1978) {2013 Reissue, Greensleeves Records GREWCD3}

Jah Thomas - Stop Yu Loafin (1978) {2013 Reissue, Greensleeves Records GREWCD3}
EAC rip (secure mode) | FLAC (tracks)+CUE+LOG -> 186 Mb | MP3 @320 -> 74 Mb
Full Artwork @ 300 dpi (png) -> 35 Mb | 5% repair rar
© 1978, 2013 Greensleeves Records | GREWCD3
Reggae / Dub / Roots Reggae / Dancehall / Sound System

1978 classic DJ set finally gets a CD re-issue in the Greensleeves Reggae Classic series. One of the original album releases that launched the Greensleeves record label Stop Yu Loafin captures Jah Thomas flashing at the height of his powers over a set of 10 crucial Revolutionaries rhythms. “Full Up”, “Death In The Arena”, “Answer” – this is the Rockers sound that revolutionized the sound of Jamaica.
Jah Thomas - Stop Yu Loafin (1978) {2013 Reissue, Greensleeves Records GREWCD3}

Produced by Joseph Hookim at the then ruling Channel One Studios and expertly engineered by Ernest Hookim & Barnabas Stop Yu Loafin locks down ten classic microphone attacks including DJ cuts to Leroy Smart’s do-over of Bob Marley’s “Waiting In Vain”, Horace Andy’s “Girl I Love You” and two John Holt killers cuts in “Anywhere” and “Satisfaction”.

Stop Yu Loafin was the first release to feature the iconic artwork of Greensleeves longtime cover illustrator Tony McDermott and is a long overdue and most welcome addition to Greensleeves Reggae Classics series.
Jah Thomas - Stop Yu Loafin (1978) {2013 Reissue, Greensleeves Records GREWCD3}


Personnel
BASS: Ranchie Mclean, Robbie Shakespeare
DRUMS: Sly Dunbar
LEAD GUITAR: Dougie Bryan
RHYTHM GUITAR: Robbie Shakespeare
KEYBOARDS: Ansel Collins, Touter Harvey
PERCUSSION: Sticky, Scully, Barnabas

Tracklist:
1 Stop Yu Loafin - Jah Thomas 3:17 (Skylarking rhythm)
2 Black Star Liner - Jah Thomas 3:03 (Moving Away rhythm)
3 Love and Happiness - Jah Thomas 3:20 (Waiting In Vain)
4 Bicycle Skank - Jah Thomas 3:09 (Pretty Looks rhythm)
5 Send Me the Pillow - Jah Thomas 3:10 (Anywhere rhythm)
6 Uncle Lester - Jah Thomas 2:57 (Love Net rhythm)
7 Mr. Nkruma - Jah Thomas 3:01 (Death In The Arena rhythm)
8 Landlord - Jah Thomas 3:14 (Landlord rhythm)
9 My Jamaican Girl - Jah Thomas 3:07 (Full Up/Pass The Kouchie rhythm)
10 Sister Dawn - Jah Thomas 2:44 (Satisfaction/Zion Gate rhythm)

Exact Audio Copy V1.0 beta 3 from 29. August 2011

EAC extraction logfile from 11. March 2014, 21:11

Jah Thomas / Stop Yu Loafin

Used drive : TSSTcorp CDDVDW Adapter: 0 ID: 0

Read mode : Secure
Utilize accurate stream : Yes
Defeat audio cache : Yes
Make use of C2 pointers : No

Read offset correction : 6
Overread into Lead-In and Lead-Out : No
Fill up missing offset samples with silence : Yes
Delete leading and trailing silent blocks : No
Null samples used in CRC calculations : Yes
Used interface : Native Win32 interface for Win NT & 2000
Gap handling : Appended to previous track

Used output format : User Defined Encoder
Selected bitrate : 128 kBit/s
Quality : High
Add ID3 tag : No
Command line compressor : C:\Program Files (x86)\Exact Audio Copy\Flac\flac.exe
Additional command line options : -8 -V -T "ARTIST=%artist%" -T "TITLE=%title%" -T "ALBUM=%albumtitle%" -T "DATE=%year%" -T "TRACKNUMBER=%tracknr%" -T "TOTALTRACKS=%numtracks%" -T "GENRE=%genre%" -T "ALBUMARTIST=%albumartist%" -T "ALBUM ARTIST=%albumartist%" -T "COMMENT=EAC Secure Mode, Test & Copy, AccurateRip, FLAC -8" %source%


TOC of the extracted CD

Track | Start | Length | Start sector | End sector
––––––––––––––––––––––––––––-
1 | 0:00.00 | 3:17.70 | 0 | 14844
2 | 3:17.70 | 3:03.09 | 14845 | 28578
3 | 6:21.04 | 3:20.09 | 28579 | 43587
4 | 9:41.13 | 3:09.50 | 43588 | 57812
5 | 12:50.63 | 3:10.54 | 57813 | 72116
6 | 16:01.42 | 2:57.22 | 72117 | 85413
7 | 18:58.64 | 3:01.35 | 85414 | 99023
8 | 22:00.24 | 3:14.32 | 99024 | 113605
9 | 25:14.56 | 3:07.32 | 113606 | 127662
10 | 28:22.13 | 2:44.67 | 127663 | 140029


Track 1

Filename C:\AddisistheGodFlac\01 - Stop Yu Loafin.wav

Pre-gap length 0:00:02.00

Peak level 100.0 %
Extraction speed 2.7 X
Track quality 100.0 %
Test CRC 4A1DA87F
Copy CRC 4A1DA87F
Track not present in AccurateRip database
Copy OK

Track 2

Filename C:\AddisistheGodFlac\02 - Black Star Liner.wav

Pre-gap length 0:00:01.55

Peak level 100.0 %
Extraction speed 2.9 X
Track quality 100.0 %
Test CRC C4F3566F
Copy CRC C4F3566F
Track not present in AccurateRip database
Copy OK

Track 3

Filename C:\AddisistheGodFlac\03 - Love And Happiness.wav

Pre-gap length 0:00:01.55

Peak level 100.0 %
Extraction speed 3.1 X
Track quality 100.0 %
Test CRC 53504F43
Copy CRC 53504F43
Track not present in AccurateRip database
Copy OK

Track 4

Filename C:\AddisistheGodFlac\04 - Bycicle Skank.wav

Pre-gap length 0:00:01.55

Peak level 100.0 %
Extraction speed 3.3 X
Track quality 100.0 %
Test CRC 76704115
Copy CRC 76704115
Track not present in AccurateRip database
Copy OK

Track 5

Filename C:\AddisistheGodFlac\05 - Send Me The Pillow.wav

Pre-gap length 0:00:01.55

Peak level 100.0 %
Extraction speed 3.5 X
Track quality 100.0 %
Test CRC 050BF94A
Copy CRC 050BF94A
Track not present in AccurateRip database
Copy OK

Track 6

Filename C:\AddisistheGodFlac\06 - Uncle Lester.wav

Pre-gap length 0:00:01.55

Peak level 100.0 %
Extraction speed 2.7 X
Track quality 99.9 %
Test CRC 4923CADE
Copy CRC 4923CADE
Track not present in AccurateRip database
Copy OK

Track 7

Filename C:\AddisistheGodFlac\07 - Mr Nkruma.wav

Pre-gap length 0:00:01.55

Peak level 100.0 %
Extraction speed 3.8 X
Track quality 100.0 %
Test CRC E5B6A23F
Copy CRC E5B6A23F
Track not present in AccurateRip database
Copy OK

Track 8

Filename C:\AddisistheGodFlac\08 - Landlord.wav

Pre-gap length 0:00:01.55

Peak level 100.0 %
Extraction speed 4.0 X
Track quality 100.0 %
Test CRC EBE2CD69
Copy CRC EBE2CD69
Track not present in AccurateRip database
Copy OK

Track 9

Filename C:\AddisistheGodFlac\09 - My Jamaican Girl.wav

Pre-gap length 0:00:01.55

Peak level 100.0 %
Extraction speed 4.1 X
Track quality 100.0 %
Test CRC A10CFFC3
Copy CRC A10CFFC3
Track not present in AccurateRip database
Copy OK

Track 10

Filename C:\AddisistheGodFlac\10 - Sister Dawn.wav

Pre-gap length 0:00:01.55

Peak level 100.0 %
Extraction speed 4.2 X
Track quality 100.0 %
Test CRC 87511A64
Copy CRC 87511A64
Track not present in AccurateRip database
Copy OK


None of the tracks are present in the AccurateRip database

No errors occurred

End of status report

==== Log checksum 4956943C271591F8CCA271511F0782D8A021F43156A1D68C52A16EE7B48C907B ====


Jah Thomas - Stop Yu Loafin (1978) {2013 Reissue, Greensleeves Records GREWCD3}

Jah Thomas - Stop Yu Loafin (1978) {2013 Reissue, Greensleeves Records GREWCD3}



===