Subcategories

Jah Wobble & The Modern Jazz Ensemble - 7 (2011) {30 Hertz Records ‎30hzcd33}

Posted By: ruskaval
Jah Wobble & The Modern Jazz Ensemble - 7 (2011) {30 Hertz Records ‎30hzcd33}

Jah Wobble & The Modern Jazz Ensemble - 7 (2011) {30 Hertz Records ‎30hzcd33}
EAC rip (secure mode) | FLAC (tracks)+CUE+LOG -> 255 Mb | MP3 @320 -> 96 Mb
Full Artwork @ 300 dpi (png) -> 18 Mb | 5% repair rar
© 2011 30 Hertz Records ‎| 30hzcd33
Jazz / Electric Jazz / Fusion / Jazz Funk / Bass

This is right up there with the best of them; Miles, Zawinul, Arthur Blythe, Dave Brubeck et al. But its its own thing at the same time. It grooves hard. It just keeps coming at you. Like Mike Tyson. Boxes clever like Ali. Sean Corby reminds me of a young Donald Bird. George King cool and understated on keys. Marc Layton-Bennet is monster on kit. He just eats it up. Clive Bell studiously working his moves; interweaving and threading his flute melodies; bopping and weaving; jabbing and moving. Chris Cookson on guitar, thinking textural, floating just out of range. Jah Wobble on Bass ; orchestrating the moves….. still a contender. I saw this band in London last November. The BEST I have ever seen . Truly.

Personnel:

Jah Wobble & The Modern Jazz Ensemble - 7 (2011) {30 Hertz Records ‎30hzcd33}


Track Listing
01 - West End
02 - 9
03 - Country Cousin
04 - City Meets Country
05 - No Man's Land
06 - 7

Exact Audio Copy V1.0 beta 1 from 15. November 2010

EAC extraction logfile from 4. October 2011, 10:37

Jah Wobble & The Modern Jazz Ensemble / 7

Used drive : PLEXTOR DVDR PX-860A Adapter: 0 ID: 0

Read mode : Secure
Utilize accurate stream : Yes
Defeat audio cache : Yes
Make use of C2 pointers : No

Read offset correction : 96
Overread into Lead-In and Lead-Out : No
Fill up missing offset samples with silence : Yes
Delete leading and trailing silent blocks : No
Null samples used in CRC calculations : Yes
Used interface : Native Win32 interface for Win NT & 2000
Gap handling : Appended to previous track

Used output format : User Defined Encoder
Selected bitrate : 1024 kBit/s
Quality : High
Add ID3 tag : No
Command line compressor : C:\Program Files\Exact Audio Copy\Flac\flac.exe
Additional command line options : -8 -V -T "ARTIST=%a" -T "TITLE=%t" -T "ALBUM=%g" -T "DATE=%y" -T "TRACKNUMBER=%n" -T "TOTALTRACKS=%x" -T "GENRE=%m" -T "ALBUM ARTIST=%v" -T "ALBUMARTIST=%v" -T "COMMENT=EAC V1.0 beta 1, Secure Mode, Test & Copy, AccurateRip


TOC of the extracted CD

Track | Start | Length | Start sector | End sector
––––––––––––––––––––––––––––-
1 | 0:00.00 | 8:11.30 | 0 | 36854
2 | 8:11.30 | 4:16.62 | 36855 | 56116
3 | 12:28.17 | 3:46.59 | 56117 | 73125
4 | 16:15.01 | 5:07.47 | 73126 | 96197
5 | 21:22.48 | 9:51.11 | 96198 | 140533
6 | 31:13.59 | 8:37.65 | 140534 | 179373


Track 1

Filename S:\DL\Jah Wobble & The Modern Jazz Ensemble - 7 (2011) [FLAC]\01 - West End.wav

Pre-gap length 0:00:02.00

Peak level 100.0 %
Extraction speed 4.7 X
Track quality 99.9 %
Test CRC 0F04EEDF
Copy CRC 0F04EEDF
Accurately ripped (confidence 1) [A83611C6]
Copy OK

Track 2

Filename S:\DL\Jah Wobble & The Modern Jazz Ensemble - 7 (2011) [FLAC]\02 - 9.wav

Peak level 100.0 %
Extraction speed 5.4 X
Track quality 100.0 %
Test CRC 01D63370
Copy CRC 01D63370
Accurately ripped (confidence 1) [92E0661C]
Copy OK

Track 3

Filename S:\DL\Jah Wobble & The Modern Jazz Ensemble - 7 (2011) [FLAC]\03 - Country Cousin.wav

Peak level 95.6 %
Extraction speed 5.0 X
Track quality 99.9 %
Test CRC A83D33B2
Copy CRC A83D33B2
Accurately ripped (confidence 1) [5A62C33A]
Copy OK

Track 4

Filename S:\DL\Jah Wobble & The Modern Jazz Ensemble - 7 (2011) [FLAC]\04 - City Meets Country.wav

Peak level 95.1 %
Extraction speed 6.3 X
Track quality 100.0 %
Test CRC CAB3A066
Copy CRC CAB3A066
Accurately ripped (confidence 1) [6518060D]
Copy OK

Track 5

Filename S:\DL\Jah Wobble & The Modern Jazz Ensemble - 7 (2011) [FLAC]\05 - No Man's Land.wav

Peak level 100.0 %
Extraction speed 7.3 X
Track quality 100.0 %
Test CRC 468D8126
Copy CRC 468D8126
Accurately ripped (confidence 1) [F00BA394]
Copy OK

Track 6

Filename S:\DL\Jah Wobble & The Modern Jazz Ensemble - 7 (2011) [FLAC]\06 - 7.wav

Peak level 100.0 %
Extraction speed 6.9 X
Track quality 99.9 %
Test CRC 17F77875
Copy CRC 17F77875
Accurately ripped (confidence 1) [30908D4F]
Copy OK


All tracks accurately ripped

No errors occurred

End of status report

==== Log checksum 5AFF4A8A5432F55DA5C8801A9B5E7D4811CFF23E747B9B564130FB3E8476AEA8 ====


Jah Wobble & The Modern Jazz Ensemble - 7 (2011) {30 Hertz Records ‎30hzcd33}

Jah Wobble & The Modern Jazz Ensemble - 7 (2011) {30 Hertz Records ‎30hzcd33}



===