Subcategories

Jambinai - ONDA (2019)

Posted By: delpotro
Jambinai - ONDA (2019)

Jambinai - ONDA (2019)
EAC Rip | FLAC (tracks+log+.cue) - 333 Mb | MP3 CBR 320 kbps - 155 Mb | Scans included | 00:50:43
Avant-Rock, Ethnic Fusion, Experimental | Label: Bella Union

When the three founders of Jambinai decided to, “communicate with the ordinary person who doesn't listen to Korean traditional music,” few outsiders anticipated an extra-ordinary fusion with metal, post-rock and noise. “Most people expect Asian traditional music to make something smooth for yoga or meditation,” says band spokesman Lee Il-woo. “We wanted to break all of that.”

Even fewer would have predicted that the likes of Jambinai would play the 2018 Winter Olympic Games closing ceremony in the city of Pyeongchang, accompanied by a troupe of geomungo (Korean zither) players - an audio-visual spectacle that such an occasion demanded. Now comes ONDA, their spectacular new album on Bella Union.

Says Lee, “Onda means ‘come’ in Korean. The title track has the lyric, ‘At the end of your darkness, pain will turn into the shining stars and it’s going to come to you.’ I want to cheer people up when they hear that track. Onda also means ‘wave’ in Spanish, and I also want to say the third big wave of Jambinai is coming!”

The first big wave arrived in 2010 after traditional music students Lee (guitar and piri, a bamboo oboe), Kim Bo-mi (the bow-stringed haegum) and Sim Eun-young (geomungo) joined forces and released the Jambinai EP. The trio’s debut album Différance won Best Crossover Album at the 2013 Korean Music Awards, triggering several overseas tours and the second wave of Jambinai - an international deal with Bella Union and a second album, A Hermitage. At the time, Lee cited the influence of bands like Metallica, Mogwai and Sigur Rös, but such was the trio’s energy levels, they seemed to draw more on thunderstorms, tidal waves, volcanic eruptions, blizzards and desert winds – a force of nature more than a band.

It’s hard to believe but ONDA is even more dynamic and rhythmic, with the permanent addition of Jaehyuk Choi (drums) and B.K Yu (bass), fixtures of Jambinai’s live band since 2017. The way the quintet “sticks together like gears of a clock or machine,” says Lee, is celebrated on ‘Square Wave’, a breathtaking example of Jambinai’s ability to alternate between ambient serenity and molten ferocity.

‘Square Wave’ is also one of several ONDA cuts to feature vocals. “Voice and lyrics have strong energy, they can touch someone's heart directly more than instruments,” Lee explains. “Also, most people don’t know Korean, so they hear our voices as sound rather than meaning. We needed more sounds on this album.”

Not that the instrumental tracks are any less momentous. Take the opening ‘Sawtooth’ (featuring Hwiseon Choi on yanggeum, a hammered dulcimer), because Lee thinks the band’s constantly shifting dynamic, “resembles the sawtooth waveform of electronic sound.”

Other ONDA song titles are similarly revealing. ‘Event Horizon’ was suggested by a Jambinai fan to represent the music’s, “strength and chaos”, though the haunting folk instrumentation is never swept aside by the energy on display. ‘Sun. Tears. Red’ is one way to describe Jambinai’s emotional as well as visceral impact, punctuated here by hollering, anguished voices. Says Lee, “I saw a documentary about Korean independence against Japanese imperialism. I wanted to express the soldiers’ fear when they greet the rising sun, preparing to battle for freedom even though they knew they were going to die that day.”

13 minutes long, ‘In The Woods’ is the album’s lengthiest epic, originally recorded for Jambiani’s 2010 EP and now rearranged for the expanded quintet, plus guest traditional singer Bora Kim. The inspiration here is environmental pollution, soundtracked by eight minutes of mournful ambience that slowly builds to a shattering climax. “The earth is in serious pain,” Lee concludes.

ONDA ends on a thematic note of drama and redemption. In ‘Small Consolation’, says Lee, “a person leads their weary body to a distant glow, which is small consolation. But when they get there, it turns into a big light, big consolation and happiness.” The closing title track comes in two parts: a calm prelude (featuring Lee on saenghwang, a tall reed mouth organ) before the euphoric main course, graced by choral grandeur. Once the music dies away, the feeling is one of blissful exhaustion.

Says Lee: “After Jambinai’s US tour of 2017, I travelled the country for a month. I was worried about my future and the music because I had quit my job for the band but we didn’t have much money and the tour was tough and tiring for everyone. But when I visited the Grand Canyon, Mother Nature cheered me up and it was felt like she was telling me, “you are doing really well. Back in Korea, I wrote more songs with confidence and happiness.”

The third wave of Jambinai is here…
Tracklist:
1. Sawtooth (07:39)
2. Square Wave (05:03)
3. Event Horizon (03:55)
4. Sun. Tears. Red (05:51)
5. In the Woods (13:16)
6. Small Consolation (05:18)
7. ONDA Prelude (02:18)
8. ONDA (07:07)

Exact Audio Copy V1.3 from 2. September 2016

EAC extraction logfile from 5. July 2019, 17:05

JAMBINAI / 온다 (ONDA)

Used drive : ATAPI DVD A DH16AASH Adapter: 1 ID: 0

Read mode : Secure
Utilize accurate stream : Yes
Defeat audio cache : Yes
Make use of C2 pointers : No

Read offset correction : 6
Overread into Lead-In and Lead-Out : No
Fill up missing offset samples with silence : Yes
Delete leading and trailing silent blocks : No
Null samples used in CRC calculations : Yes
Used interface : Native Win32 interface for Win NT & 2000
Gap handling : Appended to previous track

Used output format : User Defined Encoder
Selected bitrate : 1024 kBit/s
Quality : High
Add ID3 tag : No
Command line compressor : C:\Program Files (x86)\Exact Audio Copy\Flac\flac.exe
Additional command line options : -8 -e -V -T "ARTIST=%artist%" -T "TITLE=%title%" -T "ALBUM=%albumtitle%" -T "DATE=%year%" -T "TRACKNUMBER=%tracknr%" -T "GENRE=%genre%" -T "PERFORMER=%albuminterpret%" -T "COMPOSER=%composer%" %haslyrics%–tag-from-file=LYRICS="%lyricsfile%"%haslyrics% -T "ALBUMARTIST=%albumartist%" -T "DISCNUMBER=%cdnumber%" -T "TOTALDISCS=%totalcds%" -T "TOTALTRACKS=%numtracks%" -T "COMMENT=%comment%" %source% -o %dest%


TOC of the extracted CD

Track | Start | Length | Start sector | End sector
––––––––––––––––––––––––––––-
1 | 0:00.00 | 7:41.31 | 0 | 34605
2 | 7:41.31 | 5:05.27 | 34606 | 57507
3 | 12:46.58 | 3:57.65 | 57508 | 75347
4 | 16:44.48 | 5:53.43 | 75348 | 101865
5 | 22:38.16 | 13:18.55 | 101866 | 161770
6 | 35:56.71 | 5:20.33 | 161771 | 185803
7 | 41:17.29 | 2:18.36 | 185804 | 196189
8 | 43:35.65 | 7:07.60 | 196190 | 228274


Track 1

Filename X:\J\JAMBINAI\2019 온다 (ONDA)\01 - Sawtooth.wav

Pre-gap length 0:00:02.00

Peak level 99.9 %
Extraction speed 2.0 X
Track quality 100.0 %
Test CRC 505D01EB
Copy CRC 505D01EB
Track not present in AccurateRip database
Copy OK

Track 2

Filename X:\J\JAMBINAI\2019 온다 (ONDA)\02 - Square Wave.wav

Pre-gap length 0:00:02.00

Peak level 99.7 %
Extraction speed 2.2 X
Track quality 100.0 %
Test CRC 9C668BB2
Copy CRC 9C668BB2
Track not present in AccurateRip database
Copy OK

Track 3

Filename X:\J\JAMBINAI\2019 온다 (ONDA)\03 - 사상의 지평선 (Event Horizon).wav

Pre-gap length 0:00:02.00

Peak level 99.2 %
Extraction speed 2.3 X
Track quality 100.0 %
Test CRC 462C2525
Copy CRC 462C2525
Track not present in AccurateRip database
Copy OK

Track 4

Filename X:\J\JAMBINAI\2019 온다 (ONDA)\04 - 검은 빛은 붉은 빛으로 (Sun. Tears. Red.).wav

Pre-gap length 0:00:02.00

Peak level 99.7 %
Extraction speed 2.1 X
Track quality 99.9 %
Test CRC C5368173
Copy CRC C5368173
Track not present in AccurateRip database
Copy OK

Track 5

Filename X:\J\JAMBINAI\2019 온다 (ONDA)\05 - 나무의 대화 (In the Woods).wav

Pre-gap length 0:00:02.00

Peak level 100.0 %
Extraction speed 3.1 X
Track quality 100.0 %
Test CRC 5340E6BB
Copy CRC 5340E6BB
Track not present in AccurateRip database
Copy OK

Track 6

Filename X:\J\JAMBINAI\2019 온다 (ONDA)\06 - 작은 위로가 있는 곳에 (Small Consolation).wav

Pre-gap length 0:00:02.00

Peak level 99.2 %
Extraction speed 3.2 X
Track quality 100.0 %
Test CRC C97424EB
Copy CRC C97424EB
Track not present in AccurateRip database
Copy OK

Track 7

Filename X:\J\JAMBINAI\2019 온다 (ONDA)\07 - 그대가 지내온 아픔들이 빛나는 축복의 별이 되어 (ONDA Prelude).wav

Pre-gap length 0:00:02.00

Peak level 53.4 %
Extraction speed 2.9 X
Track quality 100.0 %
Test CRC F0D7E235
Copy CRC F0D7E235
Track not present in AccurateRip database
Copy OK

Track 8

Filename X:\J\JAMBINAI\2019 온다 (ONDA)\08 - 온다 (ONDA).wav

Peak level 99.1 %
Extraction speed 3.5 X
Track quality 100.0 %
Test CRC BE7A7C12
Copy CRC BE7A7C12
Track not present in AccurateRip database
Copy OK


None of the tracks are present in the AccurateRip database

No errors occurred

End of status report

–– CUETools DB Plugin V2.1.6

[CTDB TOCID: Aj5H_e4eoXNR_lvYvwZgVy8iCvc-] found
Submit result: Aj5H_e4eoXNR_lvYvwZgVy8iCvc- has been confirmed
Track | CTDB Status
1 | (5/5) Accurately ripped
2 | (5/5) Accurately ripped
3 | (5/5) Accurately ripped
4 | (5/5) Accurately ripped
5 | (5/5) Accurately ripped
6 | (5/5) Accurately ripped
7 | (5/5) Accurately ripped
8 | (5/5) Accurately ripped


==== Log checksum B958A72451F965B9F616E021AF1689DB201EE7468A4862E61EBA8E565F636876 ====

Thanks to the Original ripper VladimirNabokov !