Subcategories

James Last - Aennchen von Tharau bittet zum Tanz (1966, 1980's reissue, Polydor # 821 611-2)

Posted By: luckburz
James Last - Aennchen von Tharau bittet zum Tanz (1966, 1980's reissue, Polydor # 821 611-2)

James Last - Ännchen von Tharau bittet zum Tanz
EAC+LOG+CUE | FLAC: 246 MB | Artwork | 5% Recovery Info
Label/Cat#: Polydor # 821 611-2 | Country/Year: Germany 198_, 1966
Genre: Pop, Classical, Folk | Style: Easy Listening, Instrumental, German Folk

MD5 [X] CUE [X] LOG [X] INFO TEXT [X] ARTWORK [X]

my rip [ ] not my rip [X]

James Last - Aennchen von Tharau bittet zum Tanz (1966, 1980's reissue, Polydor # 821 611-2)


Exact Audio Copy V0.99 prebeta 4 from 23. January 2008

EAC 抓取日志文件从24. 九月 2009, 9:52

James Last / Aennchen von Tharau bittet zum Tanz

使用驱动器 :ATAPI DVD D DH16D3S Adapter: 2 ID: 0

读取模式 : 保护
使用精确流 : 是
废除音频缓冲 : 是
使用 C2 指针 : 否

读取偏移校正 : 0
读取 Lead-In 和 Lead-Out : 否
用静音填充抓取中丢失偏移的采样 : 是
去除首尾静音块 : 否
在 CRC 计算中使用了空样本 : 是
已用接口 : Win NT 及 2000 本地 Win32 接口

所用输出格式 : 用户定义的编码器
已选比特率 : 768 kBit/s
质量 : 高
添加 ID3 标签 : 是
命令行压缩器 : D:\Program Files\Exact Audio Copy V0\FLAC\FLAC.EXE
附加命令行参数 : -6 -V -T "ARTIST=%a" -T "TITLE=%t" -T "ALBUM=%g" -T "DATE=%y" -T "TRACKNUMBER=%n" -T "GENRE=%m" -T "COMMENT=%e" %s -o %d
使用压缩偏移 : 0

被抓轨 CD 的 TOC

音轨 | 开始 | 长度 | 起始扇区 | 结尾扇区
–––––––––––––––––––––––––
1 | 0:00.32 | 3:28.60 | 32 | 15691
2 | 3:29.17 | 5:15.38 | 15692 | 39354
3 | 8:44.55 | 3:27.05 | 39355 | 54884
4 | 12:11.60 | 3:11.12 | 54885 | 69221
5 | 15:22.72 | 3:27.23 | 69222 | 84769
6 | 18:50.20 | 4:18.00 | 84770 | 104119
7 | 23:08.20 | 4:48.45 | 104120 | 125764
8 | 27:56.65 | 4:08.57 | 125765 | 144421
9 | 32:05.47 | 4:13.20 | 144422 | 163416
10 | 36:18.67 | 4:52.60 | 163417 | 185376

范围状态及错误

已选择范围

文件名 C:\James Last - Aennchen von Tharau bittet zum Tanz.wav

峰值电平 83.0 %
范围质量 100.0 %
测试 CRC 1EA15291
复制 CRC 1EA15291
复制成功

没有错误发生

状态报告结尾

foobar2000 1.1.14a / Dynamic Range Meter 1.1.1
log date: 2015-05-31 15:42:48

––––––––––––––––––––––––––––––––––––––––
Analyzed: James Last & His Orchestra / Aennchen von Tharau bittet zum Tanz
––––––––––––––––––––––––––––––––––––––––

DR Peak RMS Duration Track
––––––––––––––––––––––––––––––––––––––––
DR10 -2.74 dB -16.88 dB 3:29 01-Ub' immer Treu und Redlichkeit
DR10 -4.50 dB -17.71 dB 5:16 02-Sah ein Knab'ein Roeslein steh'n
DR12 -1.61 dB -16.64 dB 3:27 03-Du, Du liegst mir im Herzen
DR10 -4.06 dB -17.30 dB 3:11 04-Annchen Von Tharau Ist's
DR11 -3.49 dB -16.92 dB 3:27 05-Muss I'denn
DR12 -2.29 dB -16.99 dB 4:18 06-Freut euch des Lebens
DR11 -3.55 dB -18.10 dB 4:49 07-Gold und Silber lieb'ich sehr
DR10 -3.47 dB -17.76 dB 4:09 08-Nun ade Du mein lieb'Heimatland
DR10 -4.13 dB -17.51 dB 4:13 09-Guter Mond, Du gehst so stille
DR11 -3.23 dB -18.03 dB 4:53 10-Das Lieben bringt gross'Freud
––––––––––––––––––––––––––––––––––––––––

Number of tracks: 10
Official DR value: DR11

Samplerate: 44100 Hz
Channels: 2
Bits per sample: 16
Bitrate: 820 kbps
Codec: FLAC
================================================================================



CD Info:

James Last - Ännchen von Tharau bittet zum Tanz

Label: Polydor
Catalog#: 821 611-2
Format: CD, Album, Reissue
Country: Germany
Released: 198_, 1966
Genre: Pop, Classical, Folk
Style: Easy Listening, Instrumental, German Folk

Tracklist:

1 Ub' immer Treu und Redlichkeit 3:29
2 Sah ein Knab'ein Roeslein steh'n 5:16
3 Du, Du liegst mir im Herzen 3:27
4 Annchen Von Tharau Ist's 3:11
5 Muss I'denn 3:27
6 Freut euch des Lebens 4:18
7 Gold und Silber lieb'ich sehr 4:49
8 Nun ade Du mein lieb'Heimatland 4:09
9 Guter Mond, Du gehst so stille 4:13
10 Das Lieben bringt gross'Freud 4:53

CD is manufactured by PolyGram in Hanover, West Germany

Artist Biography by Stephen Thomas Erlewine

James Last is a German big band leader with a large fan base in Europe, although he has never had a comparable following in the United States. Last's trademark is arranging pop hits in a big-band style; his series of "party albums" is equally well-known. Over the course of his career, he has sold well over 50 million albums.

Last learned how to play piano as child, switching to bass as a teenager. He joined Hans-Gunther Oesterreich's Radio Bremen Dance Orchestra in 1946, when he was 17 years old. In 1948, he became the leader of the Becker-Last Ensemble, which performed for seven years. During that time, he was voted as the best bassist in the country by a German jazz poll for three consecutive years, from 1950-1952. After the disbandment of the Becker-Last Ensemble, he became the in-house arranger for Polydor Records, as well as for a number of European radio stations. For the next decade, he helped arrange hits for artists like Helmut Zacharias and Caterina Valente.

Last released his first album, Non-Stop Dancing, in 1965. The record of brief renditions of popular songs, all tied together by an insistent dance beat and joyous crowd noises. It was a hit and helped make him a major European star. Over the next two decades, Last released over 50 records, including several more volumes of Non-Stop Dancing. On these records, he varied his formula by adding different songs from different countries and genres, as well as guest performers like Richard Clayderman and Astrud Gilberto.

Though his concerts and albums were consistently successful – especially in England, where he had 52 hit albums between 1967-1986, which made him second to Elvis Presley in terms of number of charting records – he only had one hit single with "The Seduction," the theme from American Gigolo (1980). ~allmusicguide

________________

NITROFLARE

Music Pt. 1 | | Music Pt. 2

________________