Subcategories

James Last - Classics (1972, later reissue, Polydor # 800 017-2)

Posted By: luckburz
James Last - Classics (1972, later reissue, Polydor # 800 017-2)

James Last - Classics
EAC+LOG+CUE | FLAC: 206 MB | Artwork | 5% Recovery Info
Label/Cat#: Polydor # 800 017-2 | Country/Year: Germany 198_, 1973
Genre: Pop, Classical | Style: Easy Listening, Instrumental

MD5 [X] CUE [X] LOG [X] INFO TEXT [X] ARTWORK [X]

my rip [ ] not my rip [X]

James Last - Classics (1972, later reissue, Polydor # 800 017-2)


Exact Audio Copy V0.99 prebeta 4 from 23. January 2008

EAC 抓取日志文件从14. 十一月 2009, 15:56

James Last / Classics

使用驱动器 :HL-DT-STDVD-ROM GDR8163B Adapter: 0 ID: 1

读取模式 : 保护
使用精确流 : 是
废除音频缓冲 : 是
使用 C2 指针 : 是

组合读/写偏移校正 : 0
读取 Lead-In 和 Lead-Out : 否
用静音填充抓取中丢失偏移的采样 : 是
去除首尾静音块 : 否
在 CRC 计算中使用了空样本 : 否
已用接口 : Win NT 及 2000 本地 Win32 接口

所用输出格式 : 用户定义的编码器
已选比特率 : 768 kBit/s
质量 : 高
添加 ID3 标签 : 否
命令行压缩器 : D:\Program Files\Exact Audio Copy\FLAC\FLAC.EXE
附加命令行参数 : -6 -V -T "ARTIST=%a" -T "TITLE=%t" -T "ALBUM=%g" -T "DATE=%y" -T "TRACKNUMBER=%n" -T "GENRE=%m" -T "COMMENT=%e" %s -o %d

被抓轨 CD 的 TOC

音轨 | 开始 | 长度 | 起始扇区 | 结尾扇区
–––––––––––––––––––––––––
1 | 0:00.33 | 4:06.50 | 33 | 18532
2 | 4:07.08 | 4:13.70 | 18533 | 37577
3 | 8:21.03 | 5:06.27 | 37578 | 60554
4 | 13:27.30 | 4:39.15 | 60555 | 81494
5 | 18:06.45 | 4:57.43 | 81495 | 103812
6 | 23:04.13 | 4:30.25 | 103813 | 124087
7 | 27:34.38 | 4:08.45 | 124088 | 142732
8 | 31:43.08 | 2:17.72 | 142733 | 153079
9 | 34:01.05 | 2:47.25 | 153080 | 165629
10 | 36:48.30 | 5:15.33 | 165630 | 189287

范围状态及错误

已选择范围

文件名 J:\James Last-Classics Up To Date\Classics\James Last - Classics.wav

峰值电平 86.4 %
范围质量 100.0 %
复制 CRC DC724CB4
复制成功

没有错误发生

状态报告结尾

foobar2000 1.1.14a / Dynamic Range Meter 1.1.1
log date: 2015-06-06 19:41:57

––––––––––––––––––––––––––––––––––––––––
Analyzed: James Last & His Orchestra / Classics
––––––––––––––––––––––––––––––––––––––––

DR Peak RMS Duration Track
––––––––––––––––––––––––––––––––––––––––
DR12 -4.41 dB -22.97 dB 4:07 01-Intermezzo From 'Cavalleria Rusticana' / Pietro Mascagni
DR14 -1.79 dB -19.58 dB 4:14 02-Scherzo from Symphony No. 2 / Robert Schumann
DR11 -4.02 dB -18.61 dB 5:06 03-Largo from Double Violin Concerto / J.S.Bach
DR14 -2.78 dB -21.13 dB 4:39 04-Last Movement from Trumpet Concerto / Joseph Haydn
DR15 -1.54 dB -20.74 dB 4:58 05-March To The Scaffold from Symphonie Fantasque / Hector Berlioz
DR12 -1.32 dB -20.86 dB 4:30 06-Still As The Night / Carl Bohm
DR13 -1.80 dB -19.03 dB 4:09 07-Last Movement from Symphony No.39 In E Flat Major / W.A.Mozart
DR13 -4.39 dB -21.42 dB 2:18 08-Romance No.1 In G Major For Violin And Orchestra / L.v.Beethoven
DR14 -1.27 dB -21.58 dB 2:47 09-In The Hall Of The Mountain King From Peter Gynt Suite No.1 / Edvard Grieg
DR13 -3.62 dB -22.39 dB 5:15 10-Second Movement from Symphony No.3 In F Major / Johannes Brahms
––––––––––––––––––––––––––––––––––––––––

Number of tracks: 10
Official DR value: DR13

Samplerate: 44100 Hz
Channels: 2
Bits per sample: 16
Bitrate: 676 kbps
Codec: FLAC
================================================================================



CD Info:

James Last - Classics

Label: Polydor
Catalog#: 800 017-2
Format: CD, Album, Reissue
Country: Germany
Released: 198_, 1973
Genre: Pop, Classical
Style: Easy Listening, Instrumental

Tracklist:

01. Intermezzo From 'Cavalleria Rusticana' / Pietro Mascagni (4:07)
02. Scherzo from Symphony No. 2 / Robert Schumann (4:14)
03. Largo from Double Violin Concerto / J.S.Bach (5:06)
04. Last Movement from Trumpet Concerto / Joseph Haydn (4:39)
05. March To The Scaffold from Symphonie Fantasque / Hector Berlioz (4:58)
06. Still As The Night / Carl Bohm (4:30)
07. Last Movement from Symphony No.39 In E Flat Major / W.A.Mozart (4:09)
08. Romance No.1 In G Major For Violin And Orchestra / L.v.Beethoven (2:18)
09. In The Hall Of The Mountain King From Peter Gynt Suite No.1 / Edvard Grieg (2:47)
10. Second Movement from Symphony No.3 In F Major / Johannes Brahms (5:15)

CD is manufactured by PolyGram in Hanover, West Germany

Artist Biography by Stephen Thomas Erlewine

James Last is a German big band leader with a large fan base in Europe, although he has never had a comparable following in the United States. Last's trademark is arranging pop hits in a big-band style; his series of "party albums" is equally well-known. Over the course of his career, he has sold well over 50 million albums.

Last learned how to play piano as child, switching to bass as a teenager. He joined Hans-Gunther Oesterreich's Radio Bremen Dance Orchestra in 1946, when he was 17 years old. In 1948, he became the leader of the Becker-Last Ensemble, which performed for seven years. During that time, he was voted as the best bassist in the country by a German jazz poll for three consecutive years, from 1950-1952. After the disbandment of the Becker-Last Ensemble, he became the in-house arranger for Polydor Records, as well as for a number of European radio stations. For the next decade, he helped arrange hits for artists like Helmut Zacharias and Caterina Valente.

Last released his first album, Non-Stop Dancing, in 1965. The record of brief renditions of popular songs, all tied together by an insistent dance beat and joyous crowd noises. It was a hit and helped make him a major European star. Over the next two decades, Last released over 50 records, including several more volumes of Non-Stop Dancing. On these records, he varied his formula by adding different songs from different countries and genres, as well as guest performers like Richard Clayderman and Astrud Gilberto.

Though his concerts and albums were consistently successful – especially in England, where he had 52 hit albums between 1967-1986, which made him second to Elvis Presley in terms of number of charting records – he only had one hit single with "The Seduction," the theme from American Gigolo (1980). ~allmusicguide

Thanks to the original releaser!

________________

NITROFLARE

Music Pt. 1 | | Music Pt. 2

________________