Subcategories

James Last - Classics Up To Date Vol 1-6 (6CD, 1966-1984)

Posted By: Speedyclick
James Last - Classics Up To Date Vol 1-6 (6CD, 1966-1984)

James Last - Classics up to date Vol 1-6 (6CD, 1966-1984)
EAC Rip | FLAC (image & cue & log) & mp3 @ 320 kbps | tracks: 70 | Scans | 4:20:26 | ~ 1,43 Gb & 624 Mb
Label: Polydor | 5% recovery record | Easy listening, orchestra, classic

The popular and multi-awarded german bandleader James Last, among the various thematic easy listening albums, he released in 1966 an album with the title "Classics Up To Date", where he selected 12 immortal pieces from the classical repertoire and presented melodic and rhythmic renditions arranged for orchestra and chorus. The experiment was very succesful and "Classics Up To Date" became a great best-seller. So, Last continued with later releases of more albums with renditions of classical themes. The music is uplifting and relaxing, ideal for any time and occasion. Enjoy the euphoric feeling of great classics played by James Last and his Orchestra.

James Last - Classics Up To Date Vol 1-6 (6CD, 1966-1984)

Classics up to date Vol 1 (1966) (34:17 | ~ 218 Mb & 83 Mb)

TRACKLIST
01. Barcarolle from 'Les contes d'Hoffmann' opera - Jacques Offenbach
02. Prisoners-Choir from 'Nabucco' opera (Nabucodonosor) - Giuseppe Verdi
03. Hungarian Dance for piano, 4 hands, in G minor, WoO 1-5 - Johannes Brahms
04. Waltz for 2 pianos in A flat major (arr. from 4 hand version), Op. 39-15 - Johannes Brahms
05. March of the Toreadors from 'Carmen' opera - Georges Bizet
06. An den Fruehling (To Spring), lyric piece for piano, Op. 43-6 - Edvard Grieg
07. Habanera from 'Carmen' opera - Georges Bizet
08. Nocturne for String Orchestra - Alexander Borodin
09. Romeo and Juliet, fantasy-overture for orchestra in B minor - Pyotr Tchaikovsky
10. In a Persian Market, Intermezzo-scene For Chorus & Orchestra - Albert William Ketelby
11. Going Home (Adagio 'From the New World' Symphony No. 9 in E minor) - Antonin Dvorak
12. Adagio from the Violin Concerto No.1 in G minor, Op. 26 - Max Bruch
James Last - Classics Up To Date Vol 1-6 (6CD, 1966-1984)

Classics up to date Vol 2 (1969) (40:00 | ~ 241 Mb & 97 Mb)

TRACKLIST
01. Theme From 'Elvira Madigan'(Andante) - W.A.Mozart
02. Presto From The Symphony No. 7 in a Major, Op. 92 - L.v.Beethoven
03. Romance For Violin And Orchestra in F Major, Op. 50 - L.v.Beethoven
04. Impromptu No. 2 in a Flat Major Op. 142 - F.Schubert
05. Air From The Suit No. 3 In D Major, BWV 1068 - J.S. Bach
06. Impromptu No. 3 in G Flat Major Op. 90 - F.Schubert
07. Adagio From The Sonata 'Pathetique' No. 8 in C Minor, Op. 13 - L.v.Beethoven
08. The Slavonic Dance No.10, Op.72 No.2 - A. Dvorak
09. Andante From The Violin Concerto in E Minor, Op. 64 - F.B.Mendelssohn
10. Prelude in C Major BWV 846 (Well-Tempered Clavier) - J.S.Bach
11. Andante From The Symphony No. 5 in C Minor, Op. 67 - L.v.Beethoven
12. Ballet Music From 'Prince Igor' - Alexander Borodin
James Last - Classics Up To Date Vol 1-6 (6CD, 1966-1984)

Classics up to date Vol 3 (1974) (46:59 | ~ 259 Mb & 113 Mb)

TRACKLIST
01. La Mattinata - Ruggero Leoncavallo
02. Fantaisie - Impromptu in C Sharp Minor, Op. 66 - Frederic Chopin
03. Orientale - Cesare Cui
04. Symphony No. 94 'Surprise' - Joseph Jaydn
05. Etude 'Tristesse', Op. 10 No. 3 - Frederic Chopin
06. Music for the Royal Fireworks - G.F.Handel
07. Traumerei, Op. 15 - Robert Schumann
08. Liebestraum No. 3 in A flat Major - Franz Liszt
09. Solveig's Song from Peer Gynt - Edvard Grieg
10. Slawischer Marsch op. 31 (Marche Slave) - P.Y.Tschaikowsky
11. Cavatine for violon et orchestre, op.85 - Joseph Joachim Raff
James Last - Classics Up To Date Vol 1-6 (6CD, 1966-1984)

Classics up to date Vol 4 (1976) (49:37 | ~ 252 Mb & 120 Mb)

TRACKLIST
01. Eines Tages (aus 'Madame Butterfly') - Giacomo Puccini
02. Die Moldau - Friedrich Smetana
03. Summchor (aus 'Madame Butterfly') - Giacomo Puccini
04. Danse Espagnole - Enrique Granados
05. Fruehlingslied - F.Mendelssohn Bartholdy
06. Rodrigos Concerto - Joaquin Rodrigo
07. Zigeunerweisen - Pablo de Saraste
08. Adagio in G minor - Tommaso Albinoni (arr. by Remo Giazotto)
09. Romance for Violin and Orchestra in G major, Op. 26 - Johan Svendsen
10. Berceuse in D flat Op. 57 - Frederic Chopin
11. Pavane (for a Dead Princess) - Maurice Ravel
James Last - Classics Up To Date Vol 1-6 (6CD, 1966-1984)

Classics up to date Vol 5 (1978) (44:46 | ~ 253 Mb & 106 Mb)

TRACKLIST
01. Ballade Pour Adeline - Seneville, Toussaint
02. Adagio (aus der Sonate Nr. 6) - W..A.Mozart
03. Romance - P.I.Tschaikowsky
04. Jog Din Oas - Traditional, Bearb.- James Last
05. Concerto In Fa - Tommaso Albinoni
06. Zwischenspiel aus 'Notre Dame'- Franz Schmidt
07. Nocturne Opus 27 Nr. 2 - Frederic Chopin
08. Sonata Nr. 3 - Chanson Triste - Arcangelo Corelli
09. Chanson Triste - P.I.Tschaikowsky
10. Nocturne Opus 37 Nr. 2 - Frederic Chopin
11. Largo - Arcangelo Corelli
12. Piece No. 1 - Ronald Last
James Last - Classics Up To Date Vol 1-6 (6CD, 1966-1984)

Classics up to date Vol 6 (1984) (44:47 | ~ 243 Mb & 105 Mb)

TRACKLIST
01. Eine Kleine Nachtmusik - W.A.Mozart
02. Ballade - Frederik Chopin
03. Sonata V - Arcangelo Corelli
04. Cantabile - Niccolo Paganini
05. Kaiserquartett C-dur (Emperor Quartett) - Joseph Haydn
06. Largo - Antonio Vivaldi
07. Nordische Weise - Edvard Grieg
08. Allegro - W.A.Mozart
09. Reverie - Claude Debussy
10. Presto - Antonio Vivaldi
11. Thema aus der Symphonie Nr.1 - Johannes Brahms
12. Promenade from 'Pictures at an Exhibition' - Modest Mussorgsky


––––––––––––––- Vol 1 –––––––––––––––-
Exact Audio Copy V0.99 prebeta 4 from 23. January 2008

EAC 抓取日志文件从14. 十一月 2009, 14:48

James Last / Orchestra Classics Up To Date

使用驱动器 :HL-DT-STDVD-ROM GDR8163B Adapter: 0 ID: 1

读取模式 : 保护
使用精确流 : 是
废除音频缓冲 : 是
使用 C2 指针 : 是

组合读/写偏移校正 : 0
读取 Lead-In 和 Lead-Out : 否
用静音填充抓取中丢失偏移的采样 : 是
去除首尾静音块 : 否
在 CRC 计算中使用了空样本 : 否
已用接口 : Win NT 及 2000 本地 Win32 接口

所用输出格式 : 用户定义的编码器
已选比特率 : 768 kBit/s
质量 : 高
添加 ID3 标签 : 否
命令行压缩器 : D:\Program Files\Exact Audio Copy\FLAC\FLAC.EXE
附加命令行参数 : -6 -V -T "ARTIST=%a" -T "TITLE=%t" -T "ALBUM=%g" -T "DATE=%y" -T "TRACKNUMBER=%n" -T "GENRE=%m" -T "COMMENT=%e" %s -o %d


被抓轨 CD 的 TOC

音轨 | 开始 | 长度 | 起始扇区 | 结尾扇区
–––––––––––––––––––––––––
1 | 0:00.33 | 2:48.50 | 33 | 12682
2 | 2:49.08 | 2:43.42 | 12683 | 24949
3 | 5:32.50 | 2:41.40 | 24950 | 37064
4 | 8:14.15 | 2:52.53 | 37065 | 50017
5 | 11:06.68 | 2:18.42 | 50018 | 60409
6 | 13:25.35 | 3:13.03 | 60410 | 74887
7 | 16:38.38 | 3:26.70 | 74888 | 90407
8 | 20:05.33 | 2:48.05 | 90408 | 103012
9 | 22:53.38 | 2:28.47 | 103013 | 114159
10 | 25:22.10 | 3:14.68 | 114160 | 128777
11 | 28:37.03 | 3:11.72 | 128778 | 143174
12 | 31:49.00 | 2:28.08 | 143175 | 154282


范围状态及错误

已选择范围

文件名 J:\James Last-Classics Up To Date\Classics Up To Date\James Last - Orchestra Classics Up To Date.wav

峰值电平 99.2 %
范围质量 99.9 %
复制 CRC A647632A
复制成功

没有错误发生

状态报告结尾
––––––––––––––- Vol 2 –––––––––––––––-
Exact Audio Copy V0.99 prebeta 4 from 23. January 2008

EAC 抓取日志文件从14. 十一月 2009, 14:59

James Last / Classics Up to Date Vol. 2

使用驱动器 :HL-DT-STDVD-ROM GDR8163B Adapter: 0 ID: 1

读取模式 : 保护
使用精确流 : 是
废除音频缓冲 : 是
使用 C2 指针 : 是

组合读/写偏移校正 : 0
读取 Lead-In 和 Lead-Out : 否
用静音填充抓取中丢失偏移的采样 : 是
去除首尾静音块 : 否
在 CRC 计算中使用了空样本 : 否
已用接口 : Win NT 及 2000 本地 Win32 接口

所用输出格式 : 用户定义的编码器
已选比特率 : 768 kBit/s
质量 : 高
添加 ID3 标签 : 否
命令行压缩器 : D:\Program Files\Exact Audio Copy\FLAC\FLAC.EXE
附加命令行参数 : -6 -V -T "ARTIST=%a" -T "TITLE=%t" -T "ALBUM=%g" -T "DATE=%y" -T "TRACKNUMBER=%n" -T "GENRE=%m" -T "COMMENT=%e" %s -o %d


被抓轨 CD 的 TOC

音轨 | 开始 | 长度 | 起始扇区 | 结尾扇区
–––––––––––––––––––––––––
1 | 0:00.33 | 3:21.25 | 33 | 15132
2 | 3:21.58 | 2:44.17 | 15133 | 27449
3 | 6:06.00 | 4:32.25 | 27450 | 47874
4 | 10:38.25 | 3:31.45 | 47875 | 63744
5 | 14:09.70 | 4:35.43 | 63745 | 84412
6 | 18:45.38 | 3:49.20 | 84413 | 101607
7 | 22:34.58 | 3:15.45 | 101608 | 116277
8 | 25:50.28 | 2:19.02 | 116278 | 126704
9 | 28:09.30 | 4:49.48 | 126705 | 148427
10 | 32:59.03 | 2:37.20 | 148428 | 160222
11 | 35:36.23 | 1:53.65 | 160223 | 168762
12 | 37:30.13 | 2:29.70 | 168763 | 180007


范围状态及错误

已选择范围

文件名 J:\James Last-Classics Up To Date\Classics Up to Date Vol. 2\James Last - Classics Up to Date Vol. 2.wav

峰值电平 92.9 %
范围质量 100.0 %
复制 CRC 3956A594
复制成功

没有错误发生

状态报告结尾

––––––––––––––- Vol 3 –––––––––––––––-
Exact Audio Copy V0.99 prebeta 4 from 23. January 2008

EAC 抓取日志文件从14. 十一月 2009, 15:20

James Last Orchestra / Classics Up to Date Vol. 3

使用驱动器 :HL-DT-STDVD-ROM GDR8163B Adapter: 0 ID: 1

读取模式 : 保护
使用精确流 : 是
废除音频缓冲 : 是
使用 C2 指针 : 是

组合读/写偏移校正 : 0
读取 Lead-In 和 Lead-Out : 否
用静音填充抓取中丢失偏移的采样 : 是
去除首尾静音块 : 否
在 CRC 计算中使用了空样本 : 否
已用接口 : Win NT 及 2000 本地 Win32 接口

所用输出格式 : 用户定义的编码器
已选比特率 : 768 kBit/s
质量 : 高
添加 ID3 标签 : 否
命令行压缩器 : D:\Program Files\Exact Audio Copy\FLAC\FLAC.EXE
附加命令行参数 : -6 -V -T "ARTIST=%a" -T "TITLE=%t" -T "ALBUM=%g" -T "DATE=%y" -T "TRACKNUMBER=%n" -T "GENRE=%m" -T "COMMENT=%e" %s -o %d


被抓轨 CD 的 TOC

音轨 | 开始 | 长度 | 起始扇区 | 结尾扇区
–––––––––––––––––––––––––
1 | 0:00.33 | 3:15.55 | 33 | 14712
2 | 3:16.13 | 3:38.17 | 14713 | 31079
3 | 6:54.30 | 3:19.15 | 31080 | 46019
4 | 10:13.45 | 4:09.05 | 46020 | 64699
5 | 14:22.50 | 4:04.20 | 64700 | 83019
6 | 18:26.70 | 5:25.50 | 83020 | 107444
7 | 23:52.45 | 4:16.28 | 107445 | 126672
8 | 28:08.73 | 2:50.10 | 126673 | 139432
9 | 30:59.08 | 5:56.55 | 139433 | 166187
10 | 36:55.63 | 6:31.42 | 166188 | 195554
11 | 43:27.30 | 3:32.03 | 195555 | 211457


范围状态及错误

已选择范围

文件名 J:\James Last-Classics Up To Date\Classics Up to Date Vol. 3\James Last Orchestra - Classics Up to Date Vol. 3.wav

峰值电平 98.1 %
范围质量 100.0 %
复制 CRC 1E33D389
复制成功

没有错误发生

状态报告结尾

––––––––––––––- Vol 4 –––––––––––––––-
Exact Audio Copy V0.99 prebeta 4 from 23. January 2008

EAC 抓取日志文件从14. 十一月 2009, 15:31

James Last / Classic Up To Date Vol. 4

使用驱动器 :HL-DT-STDVD-ROM GDR8163B Adapter: 0 ID: 1

读取模式 : 保护
使用精确流 : 是
废除音频缓冲 : 是
使用 C2 指针 : 是

组合读/写偏移校正 : 0
读取 Lead-In 和 Lead-Out : 否
用静音填充抓取中丢失偏移的采样 : 是
去除首尾静音块 : 否
在 CRC 计算中使用了空样本 : 否
已用接口 : Win NT 及 2000 本地 Win32 接口

所用输出格式 : 用户定义的编码器
已选比特率 : 768 kBit/s
质量 : 高
添加 ID3 标签 : 否
命令行压缩器 : D:\Program Files\Exact Audio Copy\FLAC\FLAC.EXE
附加命令行参数 : -6 -V -T "ARTIST=%a" -T "TITLE=%t" -T "ALBUM=%g" -T "DATE=%y" -T "TRACKNUMBER=%n" -T "GENRE=%m" -T "COMMENT=%e" %s -o %d


被抓轨 CD 的 TOC

音轨 | 开始 | 长度 | 起始扇区 | 结尾扇区
–––––––––––––––––––––––––
1 | 0:00.33 | 3:08.62 | 33 | 14194
2 | 3:09.20 | 4:45.00 | 14195 | 35569
3 | 7:54.20 | 4:38.13 | 35570 | 56432
4 | 12:32.33 | 5:41.27 | 56433 | 82034
5 | 18:13.60 | 2:51.40 | 82035 | 94899
6 | 21:05.25 | 4:03.40 | 94900 | 113164
7 | 25:08.65 | 6:45.00 | 113165 | 143539
8 | 31:53.65 | 4:43.30 | 143540 | 164794
9 | 36:37.20 | 3:21.38 | 164795 | 179907
10 | 39:58.58 | 3:40.70 | 179908 | 196477
11 | 43:39.53 | 5:58.05 | 196478 | 223332


范围状态及错误

已选择范围

文件名 J:\James Last-Classics Up To Date\Classics Up to Date Vol. 4\James Last - Classic Up To Date Vol. 4.wav

峰值电平 91.5 %
范围质量 99.9 %
复制 CRC F3A5D568
复制成功

没有错误发生

状态报告结尾

––––––––––––––- Vol 5 –––––––––––––––-
Exact Audio Copy V0.99 prebeta 4 from 23. January 2008

EAC 抓取日志文件从14. 十一月 2009, 15:39

James Last / Classics Up to Date Vol. 5

使用驱动器 :HL-DT-STDVD-ROM GDR8163B Adapter: 0 ID: 1

读取模式 : 保护
使用精确流 : 是
废除音频缓冲 : 是
使用 C2 指针 : 是

组合读/写偏移校正 : 0
读取 Lead-In 和 Lead-Out : 否
用静音填充抓取中丢失偏移的采样 : 是
去除首尾静音块 : 否
在 CRC 计算中使用了空样本 : 否
已用接口 : Win NT 及 2000 本地 Win32 接口

所用输出格式 : 用户定义的编码器
已选比特率 : 768 kBit/s
质量 : 高
添加 ID3 标签 : 否
命令行压缩器 : D:\Program Files\Exact Audio Copy\FLAC\FLAC.EXE
附加命令行参数 : -6 -V -T "ARTIST=%a" -T "TITLE=%t" -T "ALBUM=%g" -T "DATE=%y" -T "TRACKNUMBER=%n" -T "GENRE=%m" -T "COMMENT=%e" %s -o %d


被抓轨 CD 的 TOC

音轨 | 开始 | 长度 | 起始扇区 | 结尾扇区
–––––––––––––––––––––––––
1 | 0:00.32 | 3:17.03 | 32 | 14809
2 | 3:17.35 | 5:07.35 | 14810 | 37869
3 | 8:24.70 | 4:02.15 | 37870 | 56034
4 | 12:27.10 | 4:10.35 | 56035 | 74819
5 | 16:37.45 | 3:24.20 | 74820 | 90139
6 | 20:01.65 | 3:37.32 | 90140 | 106446
7 | 23:39.22 | 4:45.55 | 106447 | 127876
8 | 28:25.02 | 3:08.55 | 127877 | 142031
9 | 31:33.57 | 3:35.45 | 142032 | 158201
10 | 35:09.27 | 3:19.23 | 158202 | 173149
11 | 38:28.50 | 1:46.17 | 173150 | 181116
12 | 40:14.67 | 4:31.15 | 181117 | 201456


范围状态及错误

已选择范围

文件名 J:\James Last-Classics Up To Date\Classics Up to Date Vol. 5\James Last - Classics Up to Date Vol. 5.wav

峰值电平 100.0 %
范围质量 100.0 %
复制 CRC D0EFDECC
复制成功

没有错误发生

状态报告结尾

––––––––––––––- Vol 6 –––––––––––––––-
Exact Audio Copy V0.99 prebeta 4 from 23. January 2008

EAC 抓取日志文件从14. 十一月 2009, 15:48

James Last / Classics Up to Date Vol. 6

使用驱动器 :HL-DT-STDVD-ROM GDR8163B Adapter: 0 ID: 1

读取模式 : 保护
使用精确流 : 是
废除音频缓冲 : 是
使用 C2 指针 : 是

组合读/写偏移校正 : 0
读取 Lead-In 和 Lead-Out : 否
用静音填充抓取中丢失偏移的采样 : 是
去除首尾静音块 : 否
在 CRC 计算中使用了空样本 : 否
已用接口 : Win NT 及 2000 本地 Win32 接口

所用输出格式 : 用户定义的编码器
已选比特率 : 768 kBit/s
质量 : 高
添加 ID3 标签 : 否
命令行压缩器 : D:\Program Files\Exact Audio Copy\FLAC\FLAC.EXE
附加命令行参数 : -6 -V -T "ARTIST=%a" -T "TITLE=%t" -T "ALBUM=%g" -T "DATE=%y" -T "TRACKNUMBER=%n" -T "GENRE=%m" -T "COMMENT=%e" %s -o %d


被抓轨 CD 的 TOC

音轨 | 开始 | 长度 | 起始扇区 | 结尾扇区
–––––––––––––––––––––––––
1 | 0:00.33 | 5:47.17 | 33 | 26074
2 | 5:47.50 | 4:32.70 | 26075 | 46544
3 | 10:20.45 | 2:15.63 | 46545 | 56732
4 | 12:36.33 | 3:42.10 | 56733 | 73392
5 | 16:18.43 | 3:25.37 | 73393 | 88804
6 | 19:44.05 | 2:42.33 | 88805 | 100987
7 | 22:26.38 | 3:56.10 | 100988 | 118697
8 | 26:22.48 | 3:44.57 | 118698 | 135554
9 | 30:07.30 | 5:29.38 | 135555 | 160267
10 | 35:36.68 | 2:23.27 | 160268 | 171019
11 | 38:00.20 | 3:51.63 | 171020 | 188407
12 | 41:52.08 | 2:55.30 | 188408 | 201562


范围状态及错误

已选择范围

文件名 J:\James Last-Classics Up To Date\Classics Up to Date Vol. 6\James Last - Classics Up to Date Vol. 6.wav

峰值电平 85.4 %
范围质量 100.0 %
复制 CRC 93E6080F
复制成功

没有错误发生

状态报告结尾

AUDIOCHECKER v2.0 beta (build 457) - by Dester - opdester@freemail.hu
~~~~~~~~~~~~~~~~~~~~~~~~~~~~~~~~~~

Started at: Saturday, 31. 08. 2013. - 2:12.43
1 file found

1 -===- S:\MUSIC\Non Greek Lossless\James Last\1966 - Classics Up To Date Vol.1\Classics Up To Date.flac
Extracted successfully
Conclusion: this track is CDDA with probability 99%
Tempfile successfully deleted.


Finished at: Saturday, 31. 08. 2013. - 2:15.37 (operation time: 0:02.53)

AUDIOCHECKER v2.0 beta (build 457) - by Dester - opdester@freemail.hu
~~~~~~~~~~~~~~~~~~~~~~~~~~~~~~~~~~

Started at: Saturday, 31. 08. 2013. - 2:19.53
1 file found

1 -===- S:\MUSIC\Non Greek Lossless\James Last\1969 - Classics Up To Date Vol.2\Classics Up to Date Vol. 2.flac
Extracted successfully
Conclusion: this track is CDDA with probability 100%
Tempfile successfully deleted.


Finished at: Saturday, 31. 08. 2013. - 2:23.18 (operation time: 0:03.24)

AUDIOCHECKER v2.0 beta (build 457) - by Dester - opdester@freemail.hu
~~~~~~~~~~~~~~~~~~~~~~~~~~~~~~~~~~

Started at: Saturday, 31. 08. 2013. - 2:24.09
1 file found

1 -===- S:\MUSIC\Non Greek Lossless\James Last\1974 - Classics Up To Date Vol.3\Classics Up to Date Vol. 3.flac
Extracted successfully
Conclusion: this track is CDDA with probability 100%
Tempfile successfully deleted.


Finished at: Saturday, 31. 08. 2013. - 2:28.05 (operation time: 0:03.56)

AUDIOCHECKER v2.0 beta (build 457) - by Dester - opdester@freemail.hu
~~~~~~~~~~~~~~~~~~~~~~~~~~~~~~~~~~

Started at: Saturday, 31. 08. 2013. - 2:30.04
1 file found

1 -===- S:\MUSIC\Non Greek Lossless\James Last\1976 - Classics Up To Date Vol.4\Classic Up To Date Vol. 4.flac
Extracted successfully
Conclusion: this track is CDDA with probability 100%
Tempfile successfully deleted.


Finished at: Saturday, 31. 08. 2013. - 2:34.13 (operation time: 0:04.09)

AUDIOCHECKER v2.0 beta (build 457) - by Dester - opdester@freemail.hu
~~~~~~~~~~~~~~~~~~~~~~~~~~~~~~~~~~

Started at: Saturday, 31. 08. 2013. - 2:35.00
1 file found

1 -===- S:\MUSIC\Non Greek Lossless\James Last\1978 - Classics Up To Date Vol.5\Classics Up to Date Vol. 5.flac
Extracted successfully
Conclusion: this track is CDDA with probability 100%
Tempfile successfully deleted.


Finished at: Saturday, 31. 08. 2013. - 2:38.36 (operation time: 0:03.36)

AUDIOCHECKER v2.0 beta (build 457) - by Dester - opdester@freemail.hu
~~~~~~~~~~~~~~~~~~~~~~~~~~~~~~~~~~

Started at: Saturday, 31. 08. 2013. - 2:39.16
1 file found

1 -===- S:\MUSIC\Non Greek Lossless\James Last\1984 - Classics Up To Date Vol.6\Classics Up to Date Vol. 6.flac
Extracted successfully
Conclusion: this track is CDDA with probability 100%
Tempfile successfully deleted.


Finished at: Saturday, 31. 08. 2013. - 2:42.57 (operation time: 0:03.40)


All credits to the initial ripper / uploader of these albums