Subcategories

James Last - Plays Bach (1987)

Posted By: Speedyclick
James Last - Plays Bach (1987)

James Last - Plays Bach (1987)
EAC Rip | FLAC (image & cue & log) & mp3 @ 320 kbps | tracks: 12 | Scans | 44:37 | ~ 284 Mb & 105 Mb
Label: Polydor | 5% recovery record | Easy listening, orchestra, classic

Maybe the best adaption of Bach's Preludes and Fugues for light orchestra you've ever heard. Violins, brass and percussion in superb arrangements by a master. Bach's musical perfection with that well known magic touch of James Last. Enjoy a gem.

TRACKLIST
01. Preludium II
02. Preludium VIII
03. Fuga II
04. Preludium I
05. Fuga VII
06. Preludium VI
07. Fuga VIII
08. Fuga IV
09. Preludium V
10. Fuga XII
11. Preludium XV
12. Fuga XIX

AUDIOCHECKER v2.0 beta (build 457) - by Dester - opdester@freemail.hu
~~~~~~~~~~~~~~~~~~~~~~~~~~~~~~~~~~

Started at: Tuesday, 24. 09. 2013. - 19:18.39
1 file found

1 -===- S:\MUSIC\Non Greek Lossless\James Last\1987 - James Last Spielt Bach (Polydor 833-665)\James Last Spielt Bach.flac
Extracted successfully
Conclusion: this track is CDDA with probability 100%
Tempfile successfully deleted.


Finished at: Tuesday, 24. 09. 2013. - 19:22.43 (operation time: 0:04.04)

Exact Audio Copy V0.99 prebeta 4 from 23. January 2008

EAC 抓取日志文件从3. 十二月 2009, 17:15

James Last / James Last Spielt Bach

使用驱动器 :ATAPI DVD D DH16D3S Adapter: 2 ID: 0

读取模式 : 保护
使用精确流 : 是
废除音频缓冲 : 是
使用 C2 指针 : 否

读取偏移校正 : 6
读取 Lead-In 和 Lead-Out : 否
用静音填充抓取中丢失偏移的采样 : 是
去除首尾静音块 : 否
在 CRC 计算中使用了空样本 : 否
已用接口 : Win NT 及 2000 本地 Win32 接口

所用输出格式 : 用户定义的编码器
已选比特率 : 768 kBit/s
质量 : 高
添加 ID3 标签 : 是
命令行压缩器 : D:\Program Files\Exact Audio Copy V0\FLAC\FLAC.EXE
附加命令行参数 : -6 -V -T "ARTIST=%a" -T "TITLE=%t" -T "ALBUM=%g" -T "DATE=%y" -T "TRACKNUMBER=%n" -T "GENRE=%m" -T "COMMENT=%e" %s -o %d


被抓轨 CD 的 TOC

音轨 | 开始 | 长度 | 起始扇区 | 结尾扇区
–––––––––––––––––––––––––
1 | 0:00.33 | 3:08.45 | 33 | 14177
2 | 3:09.03 | 5:15.50 | 14178 | 37852
3 | 8:24.53 | 2:38.72 | 37853 | 49774
4 | 11:03.50 | 5:42.40 | 49775 | 75464
5 | 16:46.15 | 2:17.38 | 75465 | 85777
6 | 19:03.53 | 3:17.55 | 85778 | 100607
7 | 22:21.33 | 4:08.37 | 100608 | 119244
8 | 26:29.70 | 4:03.63 | 119245 | 137532
9 | 30:33.58 | 2:39.45 | 137533 | 149502
10 | 33:13.28 | 5:12.05 | 149503 | 172907
11 | 38:25.33 | 3:14.40 | 172908 | 187497
12 | 41:39.73 | 2:58.00 | 187498 | 200847


范围状态及错误

已选择范围

Credits to the initial ripper / uploader