Subcategories

James Last & Richard Clayderman - In Harmony (1994, Polydor # 523 824-2)

Posted By: luckburz
James Last & Richard Clayderman - In Harmony (1994, Polydor # 523 824-2)

James Last & Richard Clayderman - In Harmony
EAC+LOG+CUE | FLAC: 344 MB | Full Artwork: 22 MB | 5% Recovery Info
Label/Cat#: Polydor # 523 824-2 | Country/Year: Germany 1994
Genre: Pop, Ballad | Style: Easy Listening, Love Song

MD5 [X] CUE [X] LOG [X] INFO TEXT [X] ARTWORK [X]

my rip [X] not my rip [ ]

James Last & Richard Clayderman - In Harmony (1994, Polydor # 523 824-2)


Exact Audio Copy V1.0 beta 3 from 29. August 2011

EAC extraction logfile from 12. September 2013, 18:42

James Last & Richard Clayderman / In Harmony

Used drive : PIONEER BD-RW BDR-206 Adapter: 0 ID: 2

Read mode : Secure
Utilize accurate stream : Yes
Defeat audio cache : Yes
Make use of C2 pointers : No

Read offset correction : 667
Overread into Lead-In and Lead-Out : No
Fill up missing offset samples with silence : Yes
Delete leading and trailing silent blocks : No
Null samples used in CRC calculations : Yes
Used interface : Native Win32 interface for Win NT & 2000

Used output format : User Defined Encoder
Selected bitrate : 1024 kBit/s
Quality : High
Add ID3 tag : Yes
Command line compressor : C:\Program Files\FLAC\flac.exe
Additional command line options : -5 -T "Artist=%artist%" -T "Title=%title%" -T "Album=%albumtitle%" -T "Date=%year%" -T "Tracknumber=%tracknr%" -T "Genre=%genre%" %source% -o %dest%


TOC of the extracted CD

Track | Start | Length | Start sector | End sector
––––––––––––––––––––––––––––-
1 | 0:00.32 | 4:12.08 | 32 | 18939
2 | 4:12.40 | 3:51.35 | 18940 | 36299
3 | 8:04.00 | 3:33.57 | 36300 | 52331
4 | 11:37.57 | 2:42.43 | 52332 | 64524
5 | 14:20.25 | 2:57.72 | 64525 | 77871
6 | 17:18.22 | 3:28.00 | 77872 | 93471
7 | 20:46.22 | 3:56.10 | 93472 | 111181
8 | 24:42.32 | 3:16.15 | 111182 | 125896
9 | 27:58.47 | 3:57.38 | 125897 | 143709
10 | 31:56.10 | 3:56.67 | 143710 | 161476
11 | 35:53.02 | 2:55.53 | 161477 | 174654
12 | 38:48.55 | 3:29.07 | 174655 | 190336
13 | 42:17.62 | 3:44.33 | 190337 | 207169
14 | 46:02.20 | 4:35.00 | 207170 | 227794
15 | 50:37.20 | 4:43.32 | 227795 | 249051
16 | 55:20.52 | 4:41.18 | 249052 | 270144
17 | 60:01.70 | 4:09.60 | 270145 | 288879


Range status and errors

Selected range

Filename F:\=== VINYL RIPS ===\=== EAC===\X FRESH RIP\James Last & Richard Clayderman - In Harmony.wav

Peak level 97.7 %
Extraction speed 8.1 X
Range quality 100.0 %
Test CRC A7145A19
Copy CRC A7145A19
Copy OK

No errors occurred


AccurateRip summary

Track 1 accurately ripped (confidence 6) [9F77F41A] (AR v2)
Track 2 accurately ripped (confidence 6) [5F0EE4EC] (AR v2)
Track 3 accurately ripped (confidence 6) [B5DE7D24] (AR v2)
Track 4 accurately ripped (confidence 6) [6252CB22] (AR v2)
Track 5 accurately ripped (confidence 6) [D9BDBA5E] (AR v2)
Track 6 accurately ripped (confidence 6) [4383F924] (AR v2)
Track 7 accurately ripped (confidence 6) [3D952EAE] (AR v2)
Track 8 accurately ripped (confidence 6) [C7F2216D] (AR v2)
Track 9 accurately ripped (confidence 6) [685CBC3E] (AR v2)
Track 10 accurately ripped (confidence 6) [19CD0C47] (AR v2)
Track 11 accurately ripped (confidence 6) [C620DCFB] (AR v2)
Track 12 accurately ripped (confidence 6) [447F48F5] (AR v2)
Track 13 accurately ripped (confidence 6) [419F8D72] (AR v2)
Track 14 accurately ripped (confidence 6) [07695DE1] (AR v2)
Track 15 accurately ripped (confidence 6) [B016776A] (AR v2)
Track 16 accurately ripped (confidence 6) [26849693] (AR v2)
Track 17 accurately ripped (confidence 6) [404CFA27] (AR v2)

All tracks accurately ripped

End of status report

–– CUETools DB Plugin V2.1.3

[CTDB TOCID: aHVhRBvSgfBa3XRrNb8RiNlSBHc-] disk not present in database, Submit result: discs with pregaps not supported in this protocol version


==== Log checksum BFBC9FD1D82798CA40121771B58276317EB79608D14B01E2A0B8B0436C99B154 ====

foobar2000 1.1.14a / Dynamic Range Meter 1.1.1
log date: 2013-09-16 09:04:41

––––––––––––––––––––––––––––––––––––––––
Analyzed: James Last & Richard Clayderman / In Harmony
––––––––––––––––––––––––––––––––––––––––

DR Peak RMS Duration Track
––––––––––––––––––––––––––––––––––––––––
DR14 -0.20 dB -18.89 dB 4:12 01-I Will Always Love You
DR13 -0.56 dB -16.32 dB 3:51 02-Streets Of Philadelphia
DR14 -0.64 dB -19.63 dB 3:34 03-Pastorale From Symphony No. 6 In F Major Op. 68
DR14 -0.31 dB -19.18 dB 2:43 04-Save The Best For Last
DR14 -0.20 dB -16.69 dB 2:58 05-Capriccio Romantico (Theme From The South Bank Show)
DR14 -0.20 dB -16.42 dB 3:28 06-Have I Told You Lately
DR14 -0.36 dB -17.30 dB 3:56 07-Everytime You Go Away
DR14 -0.37 dB -16.55 dB 3:16 08-Strangers In Paradise
DR14 -0.20 dB -17.09 dB 3:58 09-Goodnight Girl
DR14 -0.20 dB -18.31 dB 3:57 10-A Legend Of Greensleeves
DR12 -0.20 dB -14.78 dB 2:56 11-When A Man Loves A Woman
DR15 -0.20 dB -17.78 dB 3:29 12-True Love
DR12 -0.25 dB -17.28 dB 3:44 13-Nocturno (And This Is My Beloved)
DR14 -0.21 dB -18.02 dB 4:35 14-Another Day In Paradise
DR15 -0.41 dB -20.73 dB 4:43 15-Andantino Semplice
DR14 -0.20 dB -17.47 dB 4:41 16-When You Tell Me That You Love Me
DR13 -0.20 dB -16.52 dB 4:10 17-Love Is All Around
––––––––––––––––––––––––––––––––––––––––

Number of tracks: 17
Official DR value: DR14

Samplerate: 44100 Hz
Channels: 2
Bits per sample: 16
Bitrate: 751 kbps
Codec: FLAC
================================================================================



CD Info:

James Last & Richard Clayderman - In Harmony

Label: Polydor
Catalog#: 523 824-2
Format: CD, Album
Country: Germany
Released: 1994
Genre: Pop, Ballad
Style: Easy Listening, Love Song

Tracklist:

1 I Will Always Love You 4:12
2 Streets Of Philadelphia 3:51
3 Pastorale From Symphony No. 6 In F Major Op. 68 3:34
4 Save The Best For Last 2:43
5 Capriccio Romantico (Theme From The South Bank Show) 2:58
6 Have I Told You Lately 3:28
7 Everytime You Go Away 3:56
8 Strangers In Paradise 3:16
9 Goodnight Girl 3:58
10 A Legend Of Greensleeves 3:57
11 When A Man Loves A Woman 2:56
12 True Love 3:29
13 Nocturno (And This Is My Beloved) 3:44
14 Another Day In Paradise 4:35
15 Andantino Semplice 4:43
16 When You Tell Me That You Love Me 4:41
17 Love Is All Around 4:10

Artist Biography by Stephen Thomas Erlewine

James Last is a German big band leader with a large fan base in Europe, although he has never had a comparable following in the United States. Last's trademark is arranging pop hits in a big-band style; his series of "party albums" is equally well-known. Over the course of his career, he has sold well over 50 million albums.

Last learned how to play piano as child, switching to bass as a teenager. He joined Hans-Gunther Oesterreich's Radio Bremen Dance Orchestra in 1946, when he was 17 years old. In 1948, he became the leader of the Becker-Last Ensemble, which performed for seven years. During that time, he was voted as the best bassist in the country by a German jazz poll for three consecutive years, from 1950-1952. After the disbandment of the Becker-Last Ensemble, he became the in-house arranger for Polydor Records, as well as for a number of European radio stations. For the next decade, he helped arrange hits for artists like Helmut Zacharias and Caterina Valente.

Last released his first album, Non-Stop Dancing, in 1965. The record of brief renditions of popular songs, all tied together by an insistent dance beat and joyous crowd noises. It was a hit and helped make him a major European star. Over the next two decades, Last released over 50 records, including several more volumes of Non-Stop Dancing. On these records, he varied his formula by adding different songs from different countries and genres, as well as guest performers like Richard Clayderman and Astrud Gilberto.

Though his concerts and albums were consistently successful – especially in England, where he had 52 hit albums between 1967-1986, which made him second to Elvis Presley in terms of number of charting records – he only had one hit single with "The Seduction," the theme from American Gigolo (1980). ~allmusicguide

Artist Biography by Craig Harris

With his lush and sophisticated instrumental approach to pop music, Richard Clayderman (born Philippe Pagès) is, according to The Guinness Book of World Records, "the most successful pianist in the world." Clayderman's albums routinely sell millions of copies and his concerts are quickly sold out. In a review of his 1985 Carnegie Hall concert, Variety wrote, "(Clayderman's) main appeal lies in his youth and boyish good looks…coupled with his gentlemanly charm and his thick French accent, they promise to rope in the romantically inclined middle-aged Yank ladies who cotton to this ilk of soothing entertainment." Nancy Reagan referred to Clayderman as "the prince of romance." Instructed in classical piano by his father, Clayderman enrolled in the Paris Conservatory of Music at the age of 12. Four years later, he placed first in a piano competition at the school. Despite his classical background, Clayderman opted for popular music when he launched his professional career. A tour as opening act for French rock musician Johnny Hallyday introduced him to an international following. Clayderman's debut album, Ballade Pour Adeline, recorded at the urging of producers and composers Oliver Toussaint and Paul De Senneville in 1977, sold more than 20 million copies and was distributed in 38 countries. Clayderman, who took his stage name from his Swedish grandmother, has continued to tour throughout the world to enthusiastic audiences. A live concert broadcast on Chinese television in 1987 attracted more than 800 million viewers.

His vast discography of well over 200 albums, released on and licensed to many different labels worldwide, has seen him record everything from light classics to Andrew Lloyd Webber love songs, Bollywood movie soundtracks, and the folk music of Germany, Turkey, and Japan. While this willingness to turn his hand to anything fueled his worldwide popularity, it is the unthreatening homogeneity of his output that won him a loyal, late-middle-aged fanbase similar to that of another European titan of light classical music, André Rieu. In the early 2010s, Clayderman enjoyed an upsurge in mainstream popularity, perhaps partly as a kitsch nostalgia act, but also on the part of canny marketing men who positioned him as part of that era’s classical crossover explosion. His 2013 album for Decca, Romantique – arguably his highest-profile release ever – featured a mélange of film music, pop and light classical standards, and a re-recording of his best-known tune, "Ballade pour Adeline". ~allmusicguide

________________

NITROFLARE

Music Pt. 1 | | Music Pt. 2

Artwork

________________