Subcategories

Jean-Michel Jarre - Original Album Classics (2017)

Posted By: delpotro
Jean-Michel Jarre - Original Album Classics (2017)

Jean-Michel Jarre - Original Album Classics (2017)
EAC Rip | FLAC (image+log+.cue) - 1,43 Gb | Scans - 307 Mb | 03:42:05
Electronic, Ambient, New Age | Label: Disques Dreyfus, Sony Music, Legacy Recordings

5 Classic albums in mini LP-style card sleeves; Magnetic Fields (1981), Zoolook (1984), Rendez-Vous (1986), Revolutions (1988) & Waiting for Cousteau (1990).

Jean-Michel André Jarre is a French composer, performer, and record producer. He is a pioneer in the electronic, ambient, and new-age genres, also known for organising outdoor spectacles featuring his music, vast laser displays and fireworks.

Jarre was raised in Lyon by his mother and grandparents, and trained on the piano. From an early age, he was introduced to a variety of art forms, including those of street performers, jazz musicians, and the artist Pierre Soulages. He played guitar in a band, but his musical style was perhaps most heavily influenced by Pierre Schaeffer, a pioneer of musique concrète at the Groupe de Recherches Musicales.

His first mainstream success was the 1976 album Oxygène. Recorded in a makeshift studio at his home, the album sold an estimated 12 million copies. Oxygène was followed in 1978 by Équinoxe, and in 1979, Jarre performed to a record-breaking audience of more than a million people at the Place de la Concorde, a record he has since broken three times. More albums were to follow, but his 1979 concert served as a blueprint for his future performances around the world. Several of his albums have been released to coincide with large-scale outdoor events, and he is now perhaps as well known as a performer as he is as a musician.

Jean-Michel Jarre - Magnetic Fields (1981)

Jean-Michel Jarre - Original Album Classics (2017)

Jean-Michel Jarre - Magnetic Fields (1981)
EAC Rip | FLAC (image+log+.cue) - 245 Mb | Scans - 37 Mb | 00:36:04
Electronic, Ambient, New Age | Label: Disques Dreyfus, Sony Music, Legacy Recordings

Les Chants Magnétiques (English title: Magnetic Fields) is the fifth studio album by French electronic musician and composer Jean-Michel Jarre, released on Disques Dreyfus on 22 May 1981. The album was one of the first records to use sampling as a musical element and represents a departure from the sound of Jarre's previous efforts.

The long first track consists of three distinct movements, the slower second movement being heavily laden with sample work. It was also used as the interval signal of a numbers station of the same name.

The album reached #6 in the UK charts and #98 in the U.S. charts.

The album has official titles in both French and English. The French title, Les Chants Magnétiques is a play on words. Literally translated into English this means "Magnetic Songs" or "Magnetic Singing". Spoken aloud however, it sounds as "Les Champs Magnétiques" (literally: "Magnetic Fields"), due to the French words chants (songs or singing) and champs (fields) being homophones. As this is not the case in English, the more straightforward title "Magnetic Fields" was used in English. In the caption for picture 5 on the album's inner sleeve, the word "champs" in "champs magnétiques" is crossed out and the word "chants" is written above it.
Tracklist:
01 Magnetic Fields, Pt. 1
02 Magnetic Fields, Pt. 2
03 Magnetic Fields, Pt. 3
04 Magnetic Fields, Pt. 4
05 Magnetic Fields, Pt. 5


Exact Audio Copy V1.3 from 2. September 2016

EAC extraction logfile from 21. September 2017, 14:59

Jean-Michel Jarre / Magnetic Fields

Used drive : PLEXTOR BD-R PX-B950SA Adapter: 1 ID: 1

Read mode : Secure
Utilize accurate stream : Yes
Defeat audio cache : Yes
Make use of C2 pointers : No

Read offset correction : 6
Overread into Lead-In and Lead-Out : No
Fill up missing offset samples with silence : Yes
Delete leading and trailing silent blocks : No
Null samples used in CRC calculations : Yes
Used interface : Native Win32 interface for Win NT & 2000

Used output format : Internal WAV Routines
Sample format : 44.100 Hz; 16 Bit; Stereo


TOC of the extracted CD

Track | Start | Length | Start sector | End sector
––––––––––––––––––––––––––––-
1 | 0:00.00 | 17:58.62 | 0 | 80911
2 | 17:58.62 | 3:58.62 | 80912 | 98823
3 | 21:57.49 | 4:10.50 | 98824 | 117623
4 | 26:08.24 | 6:25.27 | 117624 | 146525
5 | 32:33.51 | 3:30.57 | 146526 | 162332


Range status and errors

Selected range

Filename C:\Users\Alex\Desktop\ALLexxess\Jean-Michel Jarre\2017 Original Album Classics (5CD Box Set Legacy Records)\1981 Magnetic Fields\Jean-Michel Jarre - Magnetic Fields.wav

Peak level 98.9 %
Extraction speed 6.4 X
Range quality 100.0 %
Test CRC DBB029E4
Copy CRC DBB029E4
Copy OK

No errors occurred


AccurateRip summary

Track 1 accurately ripped (confidence 56) [84502849] (AR v2)
Track 2 accurately ripped (confidence 56) [248D6EC9] (AR v2)
Track 3 accurately ripped (confidence 56) [F7518AB9] (AR v2)
Track 4 accurately ripped (confidence 55) [951E0F72] (AR v2)
Track 5 accurately ripped (confidence 56) [E1A7ACC2] (AR v2)

All tracks accurately ripped

End of status report

–– CUETools DB Plugin V2.1.6

[CTDB TOCID: J176CAihp3M_Qrl8WO5JkYbtxV0-] found
Submit result: J176CAihp3M_Qrl8WO5JkYbtxV0- has been confirmed
Track | CTDB Status
1 | (235/236) Accurately ripped
2 | (235/236) Accurately ripped
3 | (235/236) Accurately ripped
4 | (234/236) Accurately ripped
5 | (235/236) Accurately ripped


==== Log checksum B9B28E4D545F2276C1F68BC9FCD8DDB93F860AA109E340378AF0E394A7F2B5B4 ====


Jean-Michel Jarre - Original Album Classics (2017)

________________________________________________________________________________________________

Jean-Michel Jarre - Zoolock (1984)

Jean-Michel Jarre - Original Album Classics (2017)

Jean-Michel Jarre - Zoolock (1984)
EAC Rip | FLAC (image+log+.cue) - 258 Mb | Scans - 38 Mb | 00:37:56
Electronic, Ambent, New Age | Label: Disques Dreyfus, Sony Music, Legacy Recordings

Zoolook is the seventh studio album by French electronic musician and composer Jean Michel Jarre, released on the Disques Dreyfus label in 1984. It makes extensive use of digital recording techniques and sampling. Much of the music is built up from singing and speech in 25 different languages, along with synthesizers (such as the Fairlight CMI), as well as more traditional instruments.

Parts of the album, like the tracks "Blah Blah Café" and the second half of the track "Diva", were reworkings of material that had already appeared as sections of the album Music for Supermarkets, released the previous year. The track "Moon Machine" was recorded for inclusion on Zoolook but did not appear on the final release; it later appeared, first on a flexidisc included with Keyboard Magazine (March 1986 issue), the 12-inch single of the Special Remix of "Fourth Rendez-Vous" (1986), and the much later Images compilation album (1991).

The voices heard on this album were based on recordings of speech and singing in numerous languages: Aboriginal, Afghan, Arabic, Balinese, Buhndi, Chinese, Dutch (Ethnicolor II - 3:15), English, Eskimo, French, German, Hungarian, Indian, Japanese, Malagasy, Malayan, Pygmy, Polish, Quechua, Russian, Sioux, Spanish, Swedish, Tibetan and Turkish.

The album spawned two singles: the title track and "Zoolookologie". Both were released in remixed forms as both 7" and 12" singles, the latter format including extended remixes by François Kevorkian. A further extended remix version of "Zoolook", produced by Razormaid!, has also been released.

After the initial album release, subsequent ones for Polydor and Dreyfus in 1985 included these remixed 7" versions as the canonical album tracks (see track listings below). However, when Jarre's catalogue was remastered and re-released by Sony's Epic label in the mid-1990s, the original versions were once again reinstated. The track "Diva" is also slightly shorter on the second release.

At the time of its release NME said, "Strangely simplistic, this LP is like a union between Scary Monsters (And Super Creeps) and Kraftwerk on speed". In a retrospective review, Allmusic described the album as "interesting throughout".
Tracklist:
01 Ethnicolor 1
02 Diva
03 Zoolook
04 Wooloomooloo
05 Zoolookologie
06 Blah Blah Cafe
07 Ethnicolor 2


Exact Audio Copy V1.3 from 2. September 2016

EAC extraction logfile from 21. September 2017, 14:34

Jean-Michel Jarre / Zoolook

Used drive : PLEXTOR BD-R PX-B950SA Adapter: 1 ID: 1

Read mode : Secure
Utilize accurate stream : Yes
Defeat audio cache : Yes
Make use of C2 pointers : No

Read offset correction : 6
Overread into Lead-In and Lead-Out : No
Fill up missing offset samples with silence : Yes
Delete leading and trailing silent blocks : No
Null samples used in CRC calculations : Yes
Used interface : Native Win32 interface for Win NT & 2000

Used output format : Internal WAV Routines
Sample format : 44.100 Hz; 16 Bit; Stereo


TOC of the extracted CD

Track | Start | Length | Start sector | End sector
––––––––––––––––––––––––––––-
1 | 0:00.00 | 11:48.16 | 0 | 53115
2 | 11:48.16 | 7:22.08 | 53116 | 86273
3 | 19:10.24 | 3:52.46 | 86274 | 103719
4 | 23:02.70 | 3:18.48 | 103720 | 118617
5 | 26:21.43 | 4:21.14 | 118618 | 138206
6 | 30:42.57 | 3:21.08 | 138207 | 153289
7 | 34:03.65 | 3:52.62 | 153290 | 170751


Range status and errors

Selected range

Filename C:\Users\Alex\Desktop\ALLexxess\Jean-Michel Jarre\2017 Original Album Classics (5CD Box Set Legacy Records)\1984 Zoolook\Jean-Michel Jarre - Zoolook.wav

Peak level 99.3 %
Extraction speed 6.5 X
Range quality 100.0 %
Test CRC 0D9BC652
Copy CRC 0D9BC652
Copy OK

No errors occurred


AccurateRip summary

Track 1 accurately ripped (confidence 62) [2B90E979] (AR v2)
Track 2 accurately ripped (confidence 62) [6708FF2F] (AR v2)
Track 3 accurately ripped (confidence 62) [E97D11F9] (AR v2)
Track 4 accurately ripped (confidence 62) [C874C8E5] (AR v2)
Track 5 accurately ripped (confidence 62) [2B1AC69E] (AR v2)
Track 6 accurately ripped (confidence 62) [79A3CEF0] (AR v2)
Track 7 accurately ripped (confidence 61) [1B0F624C] (AR v2)

All tracks accurately ripped

End of status report

–– CUETools DB Plugin V2.1.6

[CTDB TOCID: WGxtViLVbUXskcHavXDmmYJOVRg-] found
Submit result: WGxtViLVbUXskcHavXDmmYJOVRg- has been confirmed
Track | CTDB Status
1 | (208/209) Accurately ripped
2 | (207/209) Accurately ripped
3 | (208/209) Accurately ripped
4 | (208/209) Accurately ripped
5 | (204/209) Accurately ripped
6 | (208/209) Accurately ripped
7 | (207/209) Accurately ripped


==== Log checksum 798894F33818722B884A1920FF90512BE1ACA30715F2CBC1DF2355EC0CDC1B54 ====


Jean-Michel Jarre - Original Album Classics (2017)


________________________________________________________________________________________________

Jean-Michel Jarre - Rendez-Vous (1986)

Jean-Michel Jarre - Original Album Classics (2017)

Jean-Michel Jarre - Rendez-Vous (1986)
EAC Rip | FLAC (image+log+.cue) - 231 Mb | Scans - 61 Mb | 00:35:05
Electronic, Ambient, New Age | Label: Disques Dreyfus, Sony Music, Legacy Recordings

Rendez-vous is the eighth studio album by electronic musician and composer Jean-Michel Jarre released on Disques Dreyfus, licensed to Polydor, in April 1986. It sold some three million copies worldwide and remains Jarre's longest-running chart album in both the U.S. and UK, with a 20-week run in the U.S. and an impressive 38-week run in the UK. The album art of the album was created by long-time collaborator Michel Granger.

The last track on the album was originally scheduled to include a saxophone part recorded by astronaut Ron McNair on the Space Shuttle Challenger, making it the first piece of music to be recorded in space, but on 28 January 1986, 73 seconds after lift-off, the shuttle disintegrated and the entire Challenger crew were killed. The track was dedicated to McNair and the other astronauts on board Challenger. On the album the saxophone part is played by saxophonist Pierre Gossez.

The album reached #9 in the UK charts and #52 in the U.S. charts.

The album was nominated for Grammy Award for Best New Age Album in 1987, although it didn't win the award.

In April 1986, Jarre performed the large-scale outdoor concert Rendez-vous Houston in Houston, Texas, celebrating the 150th anniversary of the founding of Texas. The show attracted a then-world-record live audience of 1.3 million people. The concert was originally to have included a video projection of Ron McNair's performance, recorded in space.

Jean-Michel returned to the stage in October for another concert, the Rendez-Vous Lyon, marking the Pope John Paul II visit to Jarre's hometown (Lyon).
Tracklist:
01 Rendez-Vous 1
02 Rendez-Vous 2
03 Rendez-Vous 3
04 Rendez-Vous 4
05 Rendez-Vous 5
06 Last Rendez-Vous (Ron's Piese)


Exact Audio Copy V1.3 from 2. September 2016

EAC extraction logfile from 21. September 2017, 10:37

Jean-Michel Jarre / Rendez-Vous

Used drive : PLEXTOR BD-R PX-B950SA Adapter: 1 ID: 1

Read mode : Secure
Utilize accurate stream : Yes
Defeat audio cache : Yes
Make use of C2 pointers : No

Read offset correction : 6
Overread into Lead-In and Lead-Out : No
Fill up missing offset samples with silence : Yes
Delete leading and trailing silent blocks : No
Null samples used in CRC calculations : Yes
Used interface : Native Win32 interface for Win NT & 2000

Used output format : Internal WAV Routines
Sample format : 44.100 Hz; 16 Bit; Stereo


TOC of the extracted CD

Track | Start | Length | Start sector | End sector
––––––––––––––––––––––––––––-
1 | 0:00.00 | 2:54.69 | 0 | 13118
2 | 2:54.69 | 10:54.43 | 13119 | 62211
3 | 13:49.37 | 3:33.47 | 62212 | 78233
4 | 17:23.09 | 3:58.17 | 78234 | 96100
5 | 21:21.26 | 7:41.24 | 96101 | 130699
6 | 29:02.50 | 6:02.40 | 130700 | 157889


Range status and errors

Selected range

Filename C:\Users\Alex\Desktop\ALLexxess\Jean-Michel Jarre\2017 Original Album Classics (5CD Box Set Legacy Records)\1986 Rendez-Vous\Jean-Michel Jarre - Rendez-Vous.wav

Peak level 97.8 %
Extraction speed 6.2 X
Range quality 99.9 %
Test CRC CEC96950
Copy CRC CEC96950
Copy OK

No errors occurred


AccurateRip summary

Track 1 accurately ripped (confidence 35) [B329AFC2] (AR v2)
Track 2 accurately ripped (confidence 35) [C647827F] (AR v2)
Track 3 accurately ripped (confidence 35) [8E8AC560] (AR v2)
Track 4 accurately ripped (confidence 35) [EDEE34B5] (AR v2)
Track 5 accurately ripped (confidence 35) [78D20582] (AR v2)
Track 6 accurately ripped (confidence 35) [4A1B80AB] (AR v2)

All tracks accurately ripped

End of status report

–– CUETools DB Plugin V2.1.6

[CTDB TOCID: y_tnkf3XoqHGjq6By5IRK6rHp7I-] found
Submit result: y_tnkf3XoqHGjq6By5IRK6rHp7I- has been confirmed
Track | CTDB Status
1 | (102/102) Accurately ripped
2 | (102/102) Accurately ripped
3 | (102/102) Accurately ripped
4 | (102/102) Accurately ripped
5 | (102/102) Accurately ripped
6 | (102/102) Accurately ripped


==== Log checksum FAD6B797D0F53ACD563491AF42691BCE78B9F810D1A4A95732186D1174239DDB ====


Jean-Michel Jarre - Original Album Classics (2017)


________________________________________________________________________________________________

Jean-Michel Jarre - Revolutions (1988)

Jean-Michel Jarre - Original Album Classics (2017)

Jean-Michel Jarre - Revolutions (1988)
EAC Rip | FLAC (image+log+.cue) - 297 Mb | Scans - 62 Mb | 00:44:16
Electronic, Ambient, New Age | Label: Disques Dreyfus, Sony Music, Legacy Recordings

Revolutions is the ninth studio album by electronic musician and composer Jean-Michel Jarre, first released in August 1988. The album spans several genres, including symphonic industrial, Arabian inspired, light guitar pop and ethnic electro jazz. The album reached number #2 in the UK charts, Jarre's best chart position since Oxygène. The Destination Docklands concert in London coincided with the release of the album.

There are two versions of the album, each containing a different version of the track "Revolutions". On the original release, the introduction to the tune is played on a Turkish flute, whereas the later reissue of the album uses an Arabian string orchestra for the introduction. This version also has a different vocal accompaniment, as sung by an Arabian vocalist.[citation needed] "Revolutions" contains reworked samples of an unpublished composition by Turk Kudsi Erguner, which Jarre had acquired from ethnologist Xavier Bellenger. Erguner took his case to court and won a modest indemnity. Jarre removed the Ney part from new releases of the record and from live performances.

The song "London Kid" was a collaboration with Hank Marvin. Hank was living in Perth, Australia at the time and he and Jean-Michel composed the song with each other over the phone.

As noted in the liner notes, the track "September" is named after and dedicated to South African ANC activist Dulcie September, who was assassinated in Paris on 29 March 1988.

The majority of the album was played with a Roland D-50 synthesizer, with the majority of sound programming gathered from custom sound banks, compiled into a single bank and later released for French Keyboards magazine.
Tracklist:
01 Industrial Revolution: Overture
02 Industrial Revolution, Pt. 1
03 Industrial Revolution, Pt. 2
04 Industrial Revolution, Pt. 3
05 London Kid
06 Revolution, Revolutions
07 Tokyo Kid
08 Computer Weekend
09 September
10 L'Emigrant


Exact Audio Copy V1.3 from 2. September 2016

EAC extraction logfile from 21. September 2017, 10:08

Jean-Michel Jarre / Revolutions

Used drive : PLEXTOR BD-R PX-B950SA Adapter: 1 ID: 1

Read mode : Secure
Utilize accurate stream : Yes
Defeat audio cache : Yes
Make use of C2 pointers : No

Read offset correction : 6
Overread into Lead-In and Lead-Out : No
Fill up missing offset samples with silence : Yes
Delete leading and trailing silent blocks : No
Null samples used in CRC calculations : Yes
Used interface : Native Win32 interface for Win NT & 2000

Used output format : Internal WAV Routines
Sample format : 44.100 Hz; 16 Bit; Stereo


TOC of the extracted CD

Track | Start | Length | Start sector | End sector
––––––––––––––––––––––––––––-
1 | 0:00.00 | 5:10.07 | 0 | 23256
2 | 5:10.07 | 5:09.09 | 23257 | 46440
3 | 10:19.16 | 2:17.13 | 46441 | 56728
4 | 12:36.29 | 4:12.16 | 56729 | 75644
5 | 16:48.45 | 4:26.40 | 75645 | 95634
6 | 21:15.10 | 4:56.53 | 95635 | 117887
7 | 26:11.63 | 5:21.44 | 117888 | 142006
8 | 31:33.32 | 4:41.47 | 142007 | 163128
9 | 36:15.04 | 4:04.71 | 163129 | 181499
10 | 40:20.00 | 3:56.22 | 181500 | 199221


Range status and errors

Selected range

Filename C:\Users\Alex\Desktop\ALLexxess\Jean-Michel Jarre\2017 Original Album Classics (5CD Box Set Legacy Records)\1988 Revolutions\Jean-Michel Jarre - Revolutions.wav

Peak level 99.3 %
Extraction speed 6.7 X
Range quality 100.0 %
Test CRC 20A48DE3
Copy CRC 20A48DE3
Copy OK

No errors occurred


AccurateRip summary

Track 1 accurately ripped (confidence 41) [DD3555F5] (AR v2)
Track 2 accurately ripped (confidence 41) [98F82735] (AR v2)
Track 3 accurately ripped (confidence 41) [5D9C9532] (AR v2)
Track 4 accurately ripped (confidence 41) [237A845B] (AR v2)
Track 5 accurately ripped (confidence 41) [DBAA8C02] (AR v2)
Track 6 accurately ripped (confidence 41) [BFB380A4] (AR v2)
Track 7 accurately ripped (confidence 41) [113C859F] (AR v2)
Track 8 accurately ripped (confidence 41) [CC37868E] (AR v2)
Track 9 accurately ripped (confidence 41) [1A2EC939] (AR v2)
Track 10 accurately ripped (confidence 41) [281D02FD] (AR v2)

All tracks accurately ripped

End of status report

–– CUETools DB Plugin V2.1.6

[CTDB TOCID: Wvaa0iuGXl31Z8By48ar7QEzuWc-] found
Submit result: Wvaa0iuGXl31Z8By48ar7QEzuWc- has been confirmed
Track | CTDB Status
1 | (110/111) Accurately ripped
2 | (111/111) Accurately ripped
3 | (111/111) Accurately ripped
4 | (111/111) Accurately ripped
5 | (111/111) Accurately ripped
6 | (111/111) Accurately ripped
7 | (111/111) Accurately ripped
8 | (111/111) Accurately ripped
9 | (110/111) Accurately ripped
10 | (108/111) Accurately ripped


==== Log checksum 3D0D1E4567776836C142EF7B426778E557C355CAB132836816CF5CDE6A6CBBE3 ====


Jean-Michel Jarre - Original Album Classics (2017)


________________________________________________________________________________________________

Jean-Michel Jarre - Waiting for Cousteau (1990)

Jean-Michel Jarre - Original Album Classics (2017)

Jean-Michel Jarre - Waiting for Cousteau (1990)
EAC Rip | FLAC (image+log+.cue) - 438 Mb | Scans - 59 Mb | 01:08:43
Electronic, Ambient, New Age | Label: Disques Dreyfus, Sony Music, Legacy Recordings

En attendant Cousteau (English title: Waiting for Cousteau) is the tenth studio album by French electronic musician and composer Jean-Michel Jarre, released on Disques Dreyfus, licensed to Polydor, in 11 June 1990. The album was dedicated to Jacques-Yves Cousteau and was released on his 80th birthday 11 June 1990. Allmusic described the album as "groundbreaking stuff", due to its extreme stylistic differences from his other albums. The album reached Number 14 in the UK charts.

The title track is a composition in the ambient style and an edited version of the music he produced for Concert d'Images (English: Concert of Images), an exhibition which contained photographs and selected objects from Jarre's concerts. The original plan was to release the album edit of the track as a promo CD single, but those plans were abandoned. On vinyl and cassette tape the title track was edited to only 22 minutes due to the lack of space on the formats.

Jarre utilised the unedited version as an ambient audience "warm-up" in the hours prior to the Paris la Defense concert in 1990 (and also in many concerts after this "first"), played on the specially installed public address sound system scattered throughout Paris for this event.

Early promos for the album had the title track named "Cousteau on the Beach", but was renamed later, because Jacques-Yves Cousteau thought beaches are an environmental disaster.

Calypso Part 1 contains samples previously heard in The tracks Zoolookologie and Moon Machine, the former appearing on his 1984 album Zoolook, and the latter as the B-side to the single Fourth Rendez-Vous and later appearing on the compilation album Images.

The last track En Attendant Cousteau was also used in the soundtrack to a documentary entitled "Palawan: Le Dernier Refuge" by oceanographer Jacques-Yves Cousteau.
Tracklist:
01 Calypso
02 Calypso, Pt. 2
03 Calypso, Pt. 3
04 En Attendant Cousteau


Exact Audio Copy V1.3 from 2. September 2016

EAC extraction logfile from 21. September 2017, 9:37

Jean-Michel Jarre / Waiting For Cousteau

Used drive : PLEXTOR BD-R PX-B950SA Adapter: 1 ID: 1

Read mode : Secure
Utilize accurate stream : Yes
Defeat audio cache : Yes
Make use of C2 pointers : No

Read offset correction : 6
Overread into Lead-In and Lead-Out : No
Fill up missing offset samples with silence : Yes
Delete leading and trailing silent blocks : No
Null samples used in CRC calculations : Yes
Used interface : Native Win32 interface for Win NT & 2000

Used output format : Internal WAV Routines
Sample format : 44.100 Hz; 16 Bit; Stereo


TOC of the extracted CD

Track | Start | Length | Start sector | End sector
––––––––––––––––––––––––––––-
1 | 0:00.00 | 8:22.40 | 0 | 37689
2 | 8:22.40 | 7:11.31 | 37690 | 70045
3 | 15:33.71 | 6:22.69 | 70046 | 98764
4 | 21:56.65 | 46:46.30 | 98765 | 309244


Range status and errors

Selected range

Filename C:\Users\Alex\Desktop\ALLexxess\Jean-Michel Jarre\2017 Original Album Classics (5CD Box Set Legacy Records)\1990 Waiting For Cousteau\Jean-Michel Jarre - Waiting For Cousteau.wav

Peak level 99.3 %
Extraction speed 3.9 X
Range quality 100.0 %
Test CRC 42C03631
Copy CRC 42C03631
Copy OK

No errors occurred


AccurateRip summary

Track 1 accurately ripped (confidence 48) [664904AC] (AR v2)
Track 2 accurately ripped (confidence 48) [CC3D3322] (AR v2)
Track 3 accurately ripped (confidence 48) [A5907E71] (AR v2)
Track 4 accurately ripped (confidence 45) [05EE834A] (AR v2)

All tracks accurately ripped

End of status report

–– CUETools DB Plugin V2.1.6

[CTDB TOCID: ld9zmxSTyY5ulBWVkN9Iie7S748-] found
Submit result: ld9zmxSTyY5ulBWVkN9Iie7S748- has been confirmed
Track | CTDB Status
1 | (110/110) Accurately ripped
2 | (110/110) Accurately ripped
3 | (110/110) Accurately ripped
4 | (108/110) Accurately ripped


==== Log checksum 2B0AC4D3173CDCC7035EC686211554039A63550A865E1ECC186F6A203D077527 ====


Jean-Michel Jarre - Original Album Classics (2017)


________________________________________________________________________________________________

Jean-Michel Jarre - Original Album Classics (2017)


Thanks to the Original ripper ALLexxess !