Subcategories

Jefferson Airplane - Live At The Fillmore Auditorium 10.16.66 - Early & Late Shows - Grace's Debut (2010) {Sony Music 6005}

Posted By: ruskaval
Jefferson Airplane - Live At The Fillmore Auditorium 10.16.66 - Early & Late Shows - Grace's Debut (2010) {Sony Music 6005}

Jefferson Airplane - Live At The Fillmore Auditorium 10.16.66 - Early & Late Shows - Grace's Debut (2010) {Sony Music 6005}
EAC rip (secure mode) | FLAC (tracks)+CUE+LOG -> 468 Mb | MP3 @320 -> 169 Mb
Full Artwork @ 300 dpi (jpg) -> 23 Mb | 5% repair rar
© 1966, 2010 Collectors' Choice / Sony Music | 6005 / A775023
Rock / Psychedelic / Folk Rock

Arguably the turning point in the career of Jefferson Airplane was the weekend of October 14-16, 1966, when the band played the Fillmore Auditorium in San Francisco on a triple bill, preceded by the Paul Butterfield Blues Band and followed by headliner Big Mama Mae Thornton, two shows a night. This was the engagement during which the Airplane's original female singer, Signe Anderson, gave way to Grace Slick. Anderson performed on the first two nights (the late show of the second providing the archival album Live at the Fillmore Auditorium 10/15/66: Late Show – Signe's Farewell, released simultaneously with this album in 2010), and Slick took over on Sunday night; the 27-and-a-half-minute early show and the 43-minute late show are presented here.

Within six months, the photogenic Slick would go on to become the face of San Francisco rock, leading the Airplane into the Top Ten with the songs she brought with her from her previous group, the Great Society, "Somebody to Love" and "White Rabbit." Neither of them is heard here, and Slick's fashion-model looks cannot be appreciated on a CD, but she makes an impression, nevertheless. Given that she was stepping in with less than 24 hours' break after her predecessor's departure, it is not surprising that the first show (tracks one through six) has a tentative feel. But this is still a typical Airplane performance of the period, since Anderson was not really a major factor, largely consigned to singing along with Marty Balin and taking the occasional solo line. The major factors were Balin, whose tenor voice dominated the vocal aspect of the band, and the Jorma Kaukonen/Jack Casady/Spencer Dryden lead guitar/bass/drums rhythm section (with rhythm guitarist Paul Kantner also strumming along). Still, by the start of the second show with "Tobacco Road," Slick is starting to make herself noticed with her characteristic keening wails, even if the set largely belongs to Kaukonen, who performs a slow, bluesy version of Leiber & Stoller's "Kansas City" (a song not otherwise heard on an Airplane album) and leads his unit through the ten-minute instrumental "Thing." And when Slick takes a verse of "High Flyin' Bird," the Airplane starts to sound like the band that was about to make Surrealistic Pillow and go on to national success. The transition is caught on this valuable recording, appearing from the vaults after 44 years.
Jefferson Airplane - Live At The Fillmore Auditorium 10.16.66 - Early & Late Shows - Grace's Debut (2010) {Sony Music 6005}


tracklist:
01. The Other Side Of This Life (6:33)
02. Let's Get Together (4:20)
03. Let Me In (3:40)
04. Don't Let Me Down (4:59)
05. Run Around (4:04)
06. It's No Secret (3:57)
07. Tobacco Road (5:26)
08. Kansas City (7:23)
09. Bringing Me Down (3:29)
10. And I Like It (6:13)
11. High Flyin' Bird (4:10)
12. Thing (10:01)
13. 3/5 Of A Mile In 10 Seconds (6:17)

Exact Audio Copy V0.99 prebeta 5 from 4. May 2009

EAC extraction logfile from 29. December 2010, 20:11

Jefferson Airplane / Live at the Fillmore Auditorium 10/16/66

Used drive : DVDRW IDE 16X Adapter: 4 ID: 0

Read mode : Secure
Utilize accurate stream : Yes
Defeat audio cache : Yes
Make use of C2 pointers : No

Read offset correction : 12
Overread into Lead-In and Lead-Out : No
Fill up missing offset samples with silence : Yes
Delete leading and trailing silent blocks : No
Null samples used in CRC calculations : Yes
Used interface : Installed external ASPI interface
Gap handling : Appended to previous track

Used output format : User Defined Encoder
Selected bitrate : 128 kBit/s
Quality : High
Add ID3 tag : No
Command line compressor : C:\Program Files\Exact Audio Copy\Flac\flac.exe
Additional command line options : -8 -V -T "ARTIST=%a" -T "TITLE=%t" -T "ALBUM=%g" -T "DATE=%y" -T "TRACKNUMBER=%n" -T "TOTALTRACKS=%x" -T "GENRE=%m" -T "ALBUMARTIST=%v" -T "ALBUM ARTIST=%v" -T "COMMENT=EAC Secure Mode, Test & Copy, AccurateRip, FLAC -8" %s


TOC of the extracted CD

Track | Start | Length | Start sector | End sector
––––––––––––––––––––––––––––-
1 | 0:00.00 | 6:33.52 | 0 | 29526
2 | 6:33.52 | 4:20.50 | 29527 | 49076
3 | 10:54.27 | 3:40.42 | 49077 | 65618
4 | 14:34.69 | 4:59.08 | 65619 | 88051
5 | 19:34.02 | 4:04.27 | 88052 | 106378
6 | 23:38.29 | 3:57.25 | 106379 | 124178
7 | 27:35.54 | 5:26.08 | 124179 | 148636
8 | 33:01.62 | 7:23.30 | 148637 | 181891
9 | 40:25.17 | 3:29.03 | 181892 | 197569
10 | 43:54.20 | 6:12.68 | 197570 | 225537
11 | 50:07.13 | 4:10.32 | 225538 | 244319
12 | 54:17.45 | 10:01.27 | 244320 | 289421
13 | 64:18.72 | 6:17.56 | 289422 | 317752


Track 1

Filename F:\Flac Rips\5\Jefferson Airplane - Live at the Fillmore Auditorium 10-16-66 Grace's Debut (2010) [FLAC]\01 - The Other Side Of This Life.wav

Pre-gap length 0:00:02.00

Peak level 100.0 %
Track quality 100.0 %
Test CRC B65E1AB7
Copy CRC B65E1AB7
Track not present in AccurateRip database
Copy OK

Track 2

Filename F:\Flac Rips\5\Jefferson Airplane - Live at the Fillmore Auditorium 10-16-66 Grace's Debut (2010) [FLAC]\02 - Let's Get Together.wav

Peak level 100.0 %
Track quality 99.9 %
Test CRC DF459769
Copy CRC DF459769
Track not present in AccurateRip database
Copy OK

Track 3

Filename F:\Flac Rips\5\Jefferson Airplane - Live at the Fillmore Auditorium 10-16-66 Grace's Debut (2010) [FLAC]\03 - Let Me In.wav

Peak level 100.0 %
Track quality 100.0 %
Test CRC 4C7902F6
Copy CRC 4C7902F6
Track not present in AccurateRip database
Copy OK

Track 4

Filename F:\Flac Rips\5\Jefferson Airplane - Live at the Fillmore Auditorium 10-16-66 Grace's Debut (2010) [FLAC]\04 - Don't Let Me Down.wav

Peak level 100.0 %
Track quality 100.0 %
Test CRC 095B7F71
Copy CRC 095B7F71
Track not present in AccurateRip database
Copy OK

Track 5

Filename F:\Flac Rips\5\Jefferson Airplane - Live at the Fillmore Auditorium 10-16-66 Grace's Debut (2010) [FLAC]\05 - Run Around.wav

Peak level 100.0 %
Track quality 100.0 %
Test CRC 2AF56493
Copy CRC 2AF56493
Track not present in AccurateRip database
Copy OK

Track 6

Filename F:\Flac Rips\5\Jefferson Airplane - Live at the Fillmore Auditorium 10-16-66 Grace's Debut (2010) [FLAC]\06 - It's No Secret.wav

Peak level 100.0 %
Track quality 100.0 %
Test CRC 96BEE3D7
Copy CRC 96BEE3D7
Track not present in AccurateRip database
Copy OK

Track 7

Filename F:\Flac Rips\5\Jefferson Airplane - Live at the Fillmore Auditorium 10-16-66 Grace's Debut (2010) [FLAC]\07 - Tobacco Road.wav

Pre-gap length 0:00:03.33

Peak level 100.0 %
Track quality 99.9 %
Test CRC 6D2E583B
Copy CRC 6D2E583B
Track not present in AccurateRip database
Copy OK

Track 8

Filename F:\Flac Rips\5\Jefferson Airplane - Live at the Fillmore Auditorium 10-16-66 Grace's Debut (2010) [FLAC]\08 - Kansas City.wav

Peak level 100.0 %
Track quality 100.0 %
Test CRC 84F73F45
Copy CRC 84F73F45
Track not present in AccurateRip database
Copy OK

Track 9

Filename F:\Flac Rips\5\Jefferson Airplane - Live at the Fillmore Auditorium 10-16-66 Grace's Debut (2010) [FLAC]\09 - Bringing Me Down.wav

Peak level 100.0 %
Track quality 100.0 %
Test CRC 5E158195
Copy CRC 5E158195
Track not present in AccurateRip database
Copy OK

Track 10

Filename F:\Flac Rips\5\Jefferson Airplane - Live at the Fillmore Auditorium 10-16-66 Grace's Debut (2010) [FLAC]\10 - And I Like It.wav

Peak level 100.0 %
Track quality 99.9 %
Test CRC FB3506FA
Copy CRC FB3506FA
Track not present in AccurateRip database
Copy OK

Track 11

Filename F:\Flac Rips\5\Jefferson Airplane - Live at the Fillmore Auditorium 10-16-66 Grace's Debut (2010) [FLAC]\11 - High Flyin' Bird.wav

Peak level 100.0 %
Track quality 100.0 %
Test CRC 71C9FFFD
Copy CRC 71C9FFFD
Track not present in AccurateRip database
Copy OK

Track 12

Filename F:\Flac Rips\5\Jefferson Airplane - Live at the Fillmore Auditorium 10-16-66 Grace's Debut (2010) [FLAC]\12 - Thing.wav

Peak level 100.0 %
Track quality 99.9 %
Test CRC D3ABA8AF
Copy CRC D3ABA8AF
Track not present in AccurateRip database
Copy OK

Track 13

Filename F:\Flac Rips\5\Jefferson Airplane - Live at the Fillmore Auditorium 10-16-66 Grace's Debut (2010) [FLAC]\13 - 3,5 Of A Mile In 10 Seconds.wav

Peak level 100.0 %
Track quality 100.0 %
Test CRC D27FB788
Copy CRC D27FB788
Track not present in AccurateRip database
Copy OK


None of the tracks are present in the AccurateRip database

No errors occurred

End of status report


Jefferson Airplane - Live At The Fillmore Auditorium 10.16.66 - Early & Late Shows - Grace's Debut (2010) {Sony Music 6005}

Jefferson Airplane - Live At The Fillmore Auditorium 10.16.66 - Early & Late Shows - Grace's Debut (2010) {Sony Music 6005}



===