Subcategories

Jenn Grant - Love, Inevitable (2019)

Posted By: delpotro
Jenn Grant - Love, Inevitable (2019)

Jenn Grant - Love, Inevitable (2019)
XLD Rip | FLAC (tracks+log+.cue) - 278 Mb | MP3 CBR 320 kbps - 100 Mb | 00:43:16
Indie Pop, Folk, Female Vocal | Label: Leovela

Jenn Grant is a multi-award-winning Canadian artist. Consequence of Sound called out Grant’s “majestic vocals" on her latest release "Love, Inevitable." Stereogum noted she created “something that’s both a bit familiar and a little otherworldly.” Jenn has has numerous Juno Award nominations and is widely regarded as one of the finest songwriters to come out of Canada.
Tracklist:
1. Raven (03:38)
2. Our Love (04:11)
3. Keep a Light On (03:06)
4. Arizona (04:44)
5. Favourite Daughter (04:44)
6. Magic and Mistakes (04:33)
7. Sweet Grass (03:58)
8. Bird at Midnight (03:52)
9. Lost in Our Wishes (07:03)
10. Lay Me Down (03:24)

X Lossless Decoder version 20181019 (151.1)

XLD extraction logfile from 2020-01-13 22:53:41 -0500

Jenn Grant / Love, Inevitable

Used drive : HL-DT-ST DVDRAM GP65NS60 (revision PF00)
Media type : Pressed CD

Ripper mode : XLD Secure Ripper
Disable audio cache : OK for the drive with a cache less than 1375KiB
Make use of C2 pointers : NO
Read offset correction : 6
Max retry count : 100
Gap status : Analyzed, Appended (except HTOA)

TOC of the extracted CD
Track | Start | Length | Start sector | End sector
––––––––––––––––––––––––––––-
1 | 00:00:00 | 03:38:44 | 0 | 16393
2 | 03:38:44 | 04:11:06 | 16394 | 35224
3 | 07:49:50 | 03:06:12 | 35225 | 49186
4 | 10:55:62 | 04:44:03 | 49187 | 70489
5 | 15:39:65 | 04:44:64 | 70490 | 91853
6 | 20:24:54 | 04:33:22 | 91854 | 112350
7 | 24:58:01 | 03:58:16 | 112351 | 130216
8 | 28:56:17 | 03:52:42 | 130217 | 147658
9 | 32:48:59 | 07:03:14 | 147659 | 179397
10 | 39:51:73 | 03:24:04 | 179398 | 194701

AccurateRip Summary
Disc not found in AccurateRip DB.

All Tracks
Album gain : -8.57 dB
Peak : 0.999969
Statistics
Read error : 0
Jitter error (maybe fixed) : 0
Retry sector count : 0
Damaged sector count : 0

Track 01
Filename : /Users/mydrive/Music/Jenn Grant - Love, Inevitable (2019) [FLAC]/01 Raven.flac
Pre-gap length : 00:02:00

Track gain : -9.59 dB
Peak : 0.998199
CRC32 hash (test run) : 166114B2
CRC32 hash : 166114B2
CRC32 hash (skip zero) : C7310BEA
AccurateRip v1 signature : A0201657
AccurateRip v2 signature : E0BD8C57
->Track not present in AccurateRip database.
Statistics
Read error : 0
Jitter error (maybe fixed) : 0
Retry sector count : 0
Damaged sector count : 0

Track 02
Filename : /Users/mydrive/Music/Jenn Grant - Love, Inevitable (2019) [FLAC]/02 Our Love.flac

Track gain : -9.29 dB
Peak : 0.977692
CRC32 hash (test run) : 051E0640
CRC32 hash : 051E0640
CRC32 hash (skip zero) : A4253C55
AccurateRip v1 signature : 3F8EF0A0
AccurateRip v2 signature : 7F6E01FF
->Track not present in AccurateRip database.
Statistics
Read error : 0
Jitter error (maybe fixed) : 0
Retry sector count : 0
Damaged sector count : 0

Track 03
Filename : /Users/mydrive/Music/Jenn Grant - Love, Inevitable (2019) [FLAC]/03 Keep A Light On.flac

Track gain : -8.57 dB
Peak : 0.957947
CRC32 hash (test run) : 619973EC
CRC32 hash : 619973EC
CRC32 hash (skip zero) : BF94234A
AccurateRip v1 signature : 65CC1FA2
AccurateRip v2 signature : 4B336219
->Track not present in AccurateRip database.
Statistics
Read error : 0
Jitter error (maybe fixed) : 0
Retry sector count : 0
Damaged sector count : 0

Track 04
Filename : /Users/mydrive/Music/Jenn Grant - Love, Inevitable (2019) [FLAC]/04 Arizona.flac

Track gain : -9.07 dB
Peak : 0.999969
CRC32 hash (test run) : 01EC74D6
CRC32 hash : 01EC74D6
CRC32 hash (skip zero) : 2D1EA02A
AccurateRip v1 signature : 2CCD859F
AccurateRip v2 signature : CDFEAB48
->Track not present in AccurateRip database.
Statistics
Read error : 0
Jitter error (maybe fixed) : 0
Retry sector count : 0
Damaged sector count : 0

Track 05
Filename : /Users/mydrive/Music/Jenn Grant - Love, Inevitable (2019) [FLAC]/05 Favourite Daughter.flac

Track gain : -9.28 dB
Peak : 0.999969
CRC32 hash (test run) : 31BF338C
CRC32 hash : 31BF338C
CRC32 hash (skip zero) : EBF8BFE0
AccurateRip v1 signature : 57626ED5
AccurateRip v2 signature : 4A9307DE
->Track not present in AccurateRip database.
Statistics
Read error : 0
Jitter error (maybe fixed) : 0
Retry sector count : 0
Damaged sector count : 0

Track 06
Filename : /Users/mydrive/Music/Jenn Grant - Love, Inevitable (2019) [FLAC]/06 Magic And Mistakes.flac

Track gain : -7.33 dB
Peak : 0.999969
CRC32 hash (test run) : F5869556
CRC32 hash : F5869556
CRC32 hash (skip zero) : 35265926
AccurateRip v1 signature : 13743512
AccurateRip v2 signature : A5F4674D
->Track not present in AccurateRip database.
Statistics
Read error : 0
Jitter error (maybe fixed) : 0
Retry sector count : 0
Damaged sector count : 0

Track 07
Filename : /Users/mydrive/Music/Jenn Grant - Love, Inevitable (2019) [FLAC]/07 Sweet Grass.flac

Track gain : -9.59 dB
Peak : 0.986786
CRC32 hash (test run) : FDF409C9
CRC32 hash : FDF409C9
CRC32 hash (skip zero) : 04A8F954
AccurateRip v1 signature : 24CA6DA9
AccurateRip v2 signature : 0C60EDFA
->Track not present in AccurateRip database.
Statistics
Read error : 0
Jitter error (maybe fixed) : 0
Retry sector count : 0
Damaged sector count : 0

Track 08
Filename : /Users/mydrive/Music/Jenn Grant - Love, Inevitable (2019) [FLAC]/08 Bird At Midnight.flac

Track gain : -9.64 dB
Peak : 0.991486
CRC32 hash (test run) : 1EF6F512
CRC32 hash : 1EF6F512
CRC32 hash (skip zero) : 0BF7904B
AccurateRip v1 signature : 172F1F5E
AccurateRip v2 signature : 8B8E5D40
->Track not present in AccurateRip database.
Statistics
Read error : 0
Jitter error (maybe fixed) : 0
Retry sector count : 0
Damaged sector count : 0

Track 09
Filename : /Users/mydrive/Music/Jenn Grant - Love, Inevitable (2019) [FLAC]/09 Lost In Our Wishes.flac

Track gain : -5.27 dB
Peak : 0.992401
CRC32 hash (test run) : ABF93D12
CRC32 hash : ABF93D12
CRC32 hash (skip zero) : 371B04F7
AccurateRip v1 signature : 9BEE3974
AccurateRip v2 signature : 14E3EE95
->Track not present in AccurateRip database.
Statistics
Read error : 0
Jitter error (maybe fixed) : 0
Retry sector count : 0
Damaged sector count : 0

Track 10
Filename : /Users/mydrive/Music/Jenn Grant - Love, Inevitable (2019) [FLAC]/10 Lay Me Down.flac

Track gain : -5.49 dB
Peak : 0.948944
CRC32 hash (test run) : 5987CB91
CRC32 hash : 5987CB91
CRC32 hash (skip zero) : E318ED26
AccurateRip v1 signature : A0BEAE10
AccurateRip v2 signature : 96046061
->Track not present in AccurateRip database.
Statistics
Read error : 0
Jitter error (maybe fixed) : 0
Retry sector count : 0
Damaged sector count : 0

No errors occurred

End of status report

––-BEGIN XLD SIGNATURE––-
b0cpQFBm8IZtfLbzmx3k35SiSAubc_UwDwhdBZQukxk6c4hLcDJoqNanbTuBNr8jMKRt0dzJ.YtE1X77NXZGlk27dgoTdldobHCT.k8
––-END XLD SIGNATURE––-

Thanks to the Original ripper !