Subcategories

Jerry Gonzalez - Rumba Para Monk (2001) {Sunnyside SSC 1036D rec 1988-89}

Posted By: ruskaval
Jerry Gonzalez - Rumba Para Monk (2001) {Sunnyside SSC 1036D rec 1988-89}

Jerry Gonzalez - Rumba Para Monk (2001) {Sunnyside SSC 1036D rec 1988-89}
EAC rip (secure mode) | FLAC (tracks)+CUE+LOG -> 431 Mb | MP3 @320 -> 171 Mb
Full Artwork @ 300 dpi (jpg) -> 18 Mb | 5% repair rar
© 1988-89, 2001 Sunnyside Communications | SSC 1036D
Jazz / Afro-Cuban Jazz / Latin Jazz / Post Bop / Trumpet

Jerry Gonzalez has referred to himself as being "bilingual" in that he is equally skilled on trumpet and congas, in bebop and in Latin music. Gonzalez succeeds in his goal of combining the two idioms without watering down either style on this essential Sunnyside CD. The first Afro-Cuban Thelonious Monk tribute has plenty of spots for the percussion of Steve Berrios and Gonzalez, but also contains many strong solos from the leader's often-muted Miles-influenced trumpet, Carter Jefferson's tenor, and Larry Willis' very un-Monk-like piano. With the exception of "Ugly Beauty," the Latin percussion is an integral part of each performance, giving this set of Monk tunes a very different perspective that is also quite flexible. A highly enjoyable set with the highlights including "Bye-Ya," "Nutty," "Little Rootie Tootie," and "Jackie-ing."

Musicians
Bells, Chekere, Congas, Flugelhorn, Trumpet Jerry Gonzalez
Bata, Bells, Chekere, Claves, Drums, Timbales Steve Berrios
Bass Andy Gonzalez
Saxophone Carter Jefferson
Piano Larry Willis

tracklist:
01 Monk's Mood 11:18
02 Bye Ya 06:49
03 Nutty 05:42
04 Little Rootie Tootie 09:51
05 Misteriso 10:09
06 Ugly Beauty 07:29
07 Reflections 09:34
08 Jackieing 11:29

Exact Audio Copy V1.1 from 23. June 2015

EAC extraction logfile from 19. December 2016, 10:01

Jerry Gonzalez / Rumba Para Monk

Used drive : MATSHITADVD+-RW SW830 Adapter: 1 ID: 0

Read mode : Secure
Utilize accurate stream : Yes
Defeat audio cache : Yes
Make use of C2 pointers : No

Read offset correction : 6
Overread into Lead-In and Lead-Out : No
Fill up missing offset samples with silence : Yes
Delete leading and trailing silent blocks : No
Null samples used in CRC calculations : Yes
Used interface : Native Win32 interface for Win NT & 2000
Gap handling : Appended to previous track

Used output format : User Defined Encoder
Selected bitrate : 896 kBit/s
Quality : High
Add ID3 tag : No
Command line compressor : C:\Program Files (x86)\Exact Audio Copy\Flac\flac.exe
Additional command line options : -8 -V -T "ARTIST=%artist%" -T "TITLE=%title%" -T "ALBUM=%albumtitle%" -T "DATE=%year%" -T "TRACKNUMBER=%tracknr%" -T "TOTALTRACKS=%numtracks%" -T "GENRE=%genre%" -T "ALBUMARTIST=%albumartist%" -T "ALBUM ARTIST=%albumartist%" -T "COMMENT=EAC Secure Mode, Test & Copy, AccurateRip, FLAC -8" %source%


TOC of the extracted CD

Track | Start | Length | Start sector | End sector
––––––––––––––––––––––––––––-
1 | 0:00.33 | 11:17.57 | 33 | 50864
2 | 11:18.15 | 6:48.50 | 50865 | 81514
3 | 18:06.65 | 5:41.45 | 81515 | 107134
4 | 23:48.35 | 9:51.13 | 107135 | 151472
5 | 33:39.48 | 10:08.45 | 151473 | 197117
6 | 43:48.18 | 7:29.30 | 197118 | 230822
7 | 51:17.48 | 9:34.02 | 230823 | 273874
8 | 60:51.50 | 11:30.03 | 273875 | 325627


Track 1

Filename G:\New Rips\Jerry Gonzalez - Rumba Para Monk (2001) [FLAC]\01 - Monk's Mood.wav

Pre-gap length 0:00:02.33

Peak level 87.7 %
Extraction speed 5.7 X
Track quality 100.0 %
Test CRC 1F4CF83E
Copy CRC 1F4CF83E
Cannot be verified as accurate (confidence 6) [BE0AC1BA], AccurateRip returned [872438AC] (AR v2)
Copy OK

Track 2

Filename G:\New Rips\Jerry Gonzalez - Rumba Para Monk (2001) [FLAC]\02 - Bye Ya.wav

Pre-gap length 0:00:04.17

Peak level 82.6 %
Extraction speed 5.7 X
Track quality 99.9 %
Test CRC 57BDE514
Copy CRC 57BDE514
Cannot be verified as accurate (confidence 4) [398B8FAC], AccurateRip returned [22444975] (AR v2)
Copy OK

Track 3

Filename G:\New Rips\Jerry Gonzalez - Rumba Para Monk (2001) [FLAC]\03 - Nutty.wav

Pre-gap length 0:00:05.32

Peak level 80.1 %
Extraction speed 5.9 X
Track quality 99.9 %
Test CRC 6AAD0C72
Copy CRC 6AAD0C72
Cannot be verified as accurate (confidence 6) [929C3750], AccurateRip returned [3DD115A7] (AR v2)
Copy OK

Track 4

Filename G:\New Rips\Jerry Gonzalez - Rumba Para Monk (2001) [FLAC]\04 - Little Rootie Tootie.wav

Pre-gap length 0:00:04.12

Peak level 93.5 %
Extraction speed 7.9 X
Track quality 100.0 %
Test CRC 78933406
Copy CRC 78933406
Cannot be verified as accurate (confidence 5) [81BF6718], AccurateRip returned [44DC5117] (AR v2)
Copy OK

Track 5

Filename G:\New Rips\Jerry Gonzalez - Rumba Para Monk (2001) [FLAC]\05 - Misterioso.wav

Pre-gap length 0:00:05.60

Peak level 90.3 %
Extraction speed 8.7 X
Track quality 100.0 %
Test CRC 951392B3
Copy CRC 951392B3
Cannot be verified as accurate (confidence 5) [5D61B13D], AccurateRip returned [06E03659] (AR v2)
Copy OK

Track 6

Filename G:\New Rips\Jerry Gonzalez - Rumba Para Monk (2001) [FLAC]\06 - Ugly Beauty.wav

Pre-gap length 0:00:04.45

Peak level 53.8 %
Extraction speed 9.0 X
Track quality 100.0 %
Test CRC 453B5BC3
Copy CRC 453B5BC3
Cannot be verified as accurate (confidence 4) [23E0B375], AccurateRip returned [202A205A] (AR v2)
Copy OK

Track 7

Filename G:\New Rips\Jerry Gonzalez - Rumba Para Monk (2001) [FLAC]\07 - Reflections.wav

Pre-gap length 0:00:03.40

Peak level 67.8 %
Extraction speed 8.7 X
Track quality 99.9 %
Test CRC 167F6284
Copy CRC 167F6284
Cannot be verified as accurate (confidence 4) [5DFB1735], AccurateRip returned [6C3BD903] (AR v2)
Copy OK

Track 8

Filename G:\New Rips\Jerry Gonzalez - Rumba Para Monk (2001) [FLAC]\08 - Jackieing.wav

Pre-gap length 0:00:04.00

Peak level 100.0 %
Extraction speed 10.6 X
Track quality 100.0 %
Test CRC 462F500C
Copy CRC 462F500C
Cannot be verified as accurate (confidence 3) [C5D438BF], AccurateRip returned [C0CEC966] (AR v2)
Copy OK


No tracks could be verified as accurate
You may have a different pressing from the one(s) in the database

No errors occurred

End of status report

–– CUETools DB Plugin V2.1.6

[CTDB TOCID: mPyzFSxaRzeuT4AXRJdwkIqZhEQ-] found
Submit result: mPyzFSxaRzeuT4AXRJdwkIqZhEQ- has been confirmed
Track | CTDB Status
1 | (1/1) Accurately ripped
2 | (1/1) Accurately ripped
3 | (1/1) Accurately ripped
4 | (1/1) Accurately ripped
5 | (1/1) Accurately ripped
6 | (1/1) Accurately ripped
7 | (1/1) Accurately ripped
8 | (1/1) Accurately ripped


==== Log checksum 8F05F67FC24445C76FF0D0CDF9EF92A44C7BAE694C8B6388E13C5ED670407B17 ====


Jerry Gonzalez - Rumba Para Monk (2001) {Sunnyside SSC 1036D rec 1988-89}

Jerry Gonzalez - Rumba Para Monk (2001) {Sunnyside SSC 1036D rec 1988-89}



===