Subcategories

Jerry Lee Lewis - Country Songs For City Folks (1965) & Memphis Beat (1966) {2on1 BGO Records BGOCD658 rel 2005)

Posted By: ruskaval
Jerry Lee Lewis - Country Songs For City Folks (1965) & Memphis Beat (1966) {2on1 BGO Records BGOCD658 rel 2005)

Jerry Lee Lewis - Country Songs For City Folks (1965) & Memphis Beat (1966) {2on1 BGO Records BGOCD658 rel 2005)
EAC rip (secure mode) | FLAC+CUE+LOG -> 421 Mb | MP3 @320 -> 144 Mb
Full Artwork @ 300 dpi (jpg) -> 20 Mb | 5% repair rar
© 1965-66, 2005 Philips Records / BGO Records | BGOCD658
Country / Rock & Roll / Country Rock / Traditional Country / Country Pop

A really cool pairing of two relatively obscure and always overlooked early- to mid-'60s LPs by Jerry Lee Lewis that, respectively, capture him as a country crooner (and quite a good one) and a high-energy country-rocker with a bluesy edge. The original albums never sold any significant numbers to speak of, with the result that the material will essentially be new to all but the most hardcore fans. None of it is bad and a large portion of it is not only good but impressive, showing some sides to Lewis' talent that weren't always obvious amid the rippling ivories of the Sun Records hits.

What's more, the harder stuff on this CD slots right in as direct evolutionary successors to those Sun sides (as well as repeating and improving upon one or two of the latter), so even the most conservative of Lewis' fans will find quite a bit to love about this CD. The annotation is also extremely thorough, and between that and the fact that the 2005-vintage digital transfer runs circles around the old vinyl copies (the pressings of which were mostly pretty poor), there are about 27 compelling reasons (counting the 24 songs) for owning this CD.
Jerry Lee Lewis - Country Songs For City Folks (1965) & Memphis Beat (1966) {2on1 BGO Records BGOCD658 rel 2005)


Track Listing

Country Songs for City Folk

1. Green Green Grass of Home
2. Wolverton Mountain
3. Funny How Time Slips Away
4. North to Alaska
5. Wild Side of Life
6. Walk Right In
7. City Lights
8. Ring of Fire
9. Detroit City
10. Crazy Arms
11. King of the Road
12. Seasons of My Heart

Memphis Beat
13. Memphis Beat
14. Mathilda
15. Drinkin' Wine, Spo-Dee-O-Dee
16. Hallelujah, I Love Her So
17. She Thinks I Still Care
18. Just Because
19. Sticks and Stones
20. Whenever You're Ready
21. Lincoln Limousine
22. Big Boss Man
23. Too Young
24. The Urge

EAC extraction logfile from 2. May 2008, 15:50 for CD
Jerry Lee Lewis / Country Songs For City Folks/Memphis Beat

Used drive : BENQ DVD DC DW1670 Adapter: 1 ID: 0
Read mode : Secure with NO C2, accurate stream, disable cache
Read offset correction : 102
Overread into Lead-In and Lead-Out : No

Used output format : C:\Program\FLAC\flac.exe (User Defined Encoder)
256 kBit/s
Additional command line options : -8 -V -T "ARTIST=%a" -T "TITLE=%t" -T "ALBUM=%g" -T "DATE=%y" -T "TRACKNUMBER=%n" -T "GENRE=%m" -T "COMMENT=EAC Flac 1.1.4 -8" %s

Other options :
Fill up missing offset samples with silence : Yes
Delete leading and trailing silent blocks : No
Installed external ASPI interface


Track 1
Filename C:\Jerry Lee Lewis - Country Songs For City Folks (1965) & Memphis Beat (1966) [FLAC] (2on1 2005)\01 - Green Green Grass Of Home.wav

Pre-gap length 0:00:02.00

Peak level 100.0 %
Track quality 100.0 %
Test CRC 0B0B3687
Copy CRC 0B0B3687
Copy OK

Track 2
Filename C:\Jerry Lee Lewis - Country Songs For City Folks (1965) & Memphis Beat (1966) [FLAC] (2on1 2005)\02 - Wolverton Mountain.wav

Pre-gap length 0:00:03.52

Peak level 89.1 %
Track quality 100.0 %
Test CRC 089C5337
Copy CRC 089C5337
Copy OK

Track 3
Filename C:\Jerry Lee Lewis - Country Songs For City Folks (1965) & Memphis Beat (1966) [FLAC] (2on1 2005)\03 - Funny How Time Slips Away.wav

Pre-gap length 0:00:01.93

Peak level 100.0 %
Track quality 100.0 %
Test CRC 5DC4DC40
Copy CRC 5DC4DC40
Copy OK

Track 4
Filename C:\Jerry Lee Lewis - Country Songs For City Folks (1965) & Memphis Beat (1966) [FLAC] (2on1 2005)\04 - North To Alaska.wav

Pre-gap length 0:00:02.92

Peak level 98.4 %
Track quality 100.0 %
Test CRC CEC56121
Copy CRC CEC56121
Copy OK

Track 5
Filename C:\Jerry Lee Lewis - Country Songs For City Folks (1965) & Memphis Beat (1966) [FLAC] (2on1 2005)\05 - The Wild Side Of Life.wav

Pre-gap length 0:00:02.54

Peak level 100.0 %
Track quality 100.0 %
Test CRC B699B4D7
Copy CRC B699B4D7
Copy OK

Track 6
Filename C:\Jerry Lee Lewis - Country Songs For City Folks (1965) & Memphis Beat (1966) [FLAC] (2on1 2005)\06 - Walk Right In.wav

Pre-gap length 0:00:02.57

Peak level 99.8 %
Track quality 100.0 %
Test CRC A393F681
Copy CRC A393F681
Copy OK

Track 7
Filename C:\Jerry Lee Lewis - Country Songs For City Folks (1965) & Memphis Beat (1966) [FLAC] (2on1 2005)\07 - City Lights.wav

Pre-gap length 0:00:02.32

Peak level 99.8 %
Track quality 100.0 %
Test CRC F38A96ED
Copy CRC F38A96ED
Copy OK

Track 8
Filename C:\Jerry Lee Lewis - Country Songs For City Folks (1965) & Memphis Beat (1966) [FLAC] (2on1 2005)\08 - Ring Of Fire.wav

Pre-gap length 0:00:02.49

Peak level 99.3 %
Track quality 100.0 %
Test CRC 02E86788
Copy CRC 02E86788
Copy OK

Track 9
Filename C:\Jerry Lee Lewis - Country Songs For City Folks (1965) & Memphis Beat (1966) [FLAC] (2on1 2005)\09 - Detroit City.wav

Pre-gap length 0:00:02.98

Peak level 99.8 %
Track quality 99.9 %
Test CRC F7418012
Copy CRC F7418012
Copy OK

Track 10
Filename C:\Jerry Lee Lewis - Country Songs For City Folks (1965) & Memphis Beat (1966) [FLAC] (2on1 2005)\10 - Crazy Arms.wav

Pre-gap length 0:00:02.53

Peak level 99.8 %
Track quality 100.0 %
Test CRC E225E901
Copy CRC E225E901
Copy OK

Track 11
Filename C:\Jerry Lee Lewis - Country Songs For City Folks (1965) & Memphis Beat (1966) [FLAC] (2on1 2005)\11 - King Of The Road.wav

Pre-gap length 0:00:02.80

Peak level 99.8 %
Track quality 100.0 %
Test CRC E6F423E5
Copy CRC E6F423E5
Copy OK

Track 12
Filename C:\Jerry Lee Lewis - Country Songs For City Folks (1965) & Memphis Beat (1966) [FLAC] (2on1 2005)\12 - Seasons Of My Heart.wav

Pre-gap length 0:00:02.80

Peak level 100.0 %
Track quality 100.0 %
Test CRC ED0AAE45
Copy CRC ED0AAE45
Copy OK

Track 13
Filename C:\Jerry Lee Lewis - Country Songs For City Folks (1965) & Memphis Beat (1966) [FLAC] (2on1 2005)\13 - Memphis Beat.wav

Pre-gap length 0:00:02.69

Peak level 89.1 %
Track quality 100.0 %
Test CRC 7717573F
Copy CRC 7717573F
Copy OK

Track 14
Filename C:\Jerry Lee Lewis - Country Songs For City Folks (1965) & Memphis Beat (1966) [FLAC] (2on1 2005)\14 - Mathilda.wav

Pre-gap length 0:00:02.57

Peak level 89.1 %
Track quality 99.9 %
Test CRC F55B2AE3
Copy CRC F55B2AE3
Copy OK

Track 15
Filename C:\Jerry Lee Lewis - Country Songs For City Folks (1965) & Memphis Beat (1966) [FLAC] (2on1 2005)\15 - Drinkin' Wine Spo-dee-o-dee.wav

Pre-gap length 0:00:02.77

Peak level 89.1 %
Track quality 99.9 %
Test CRC 6193EED3
Copy CRC 6193EED3
Copy OK

Track 16
Filename C:\Jerry Lee Lewis - Country Songs For City Folks (1965) & Memphis Beat (1966) [FLAC] (2on1 2005)\16 - Hallelujah I Love Her So.wav

Pre-gap length 0:00:02.56

Peak level 89.1 %
Track quality 100.0 %
Test CRC 031A80CB
Copy CRC 031A80CB
Copy OK

Track 17
Filename C:\Jerry Lee Lewis - Country Songs For City Folks (1965) & Memphis Beat (1966) [FLAC] (2on1 2005)\17 - She Thinks I Still Care.wav

Pre-gap length 0:00:02.81

Peak level 100.0 %
Track quality 100.0 %
Test CRC 19FE8E56
Copy CRC 19FE8E56
Copy OK

Track 18
Filename C:\Jerry Lee Lewis - Country Songs For City Folks (1965) & Memphis Beat (1966) [FLAC] (2on1 2005)\18 - Just Because.wav

Pre-gap length 0:00:02.61

Peak level 89.1 %
Track quality 99.9 %
Test CRC 172EE31E
Copy CRC 172EE31E
Copy OK

Track 19
Filename C:\Jerry Lee Lewis - Country Songs For City Folks (1965) & Memphis Beat (1966) [FLAC] (2on1 2005)\19 - Sticks And Stones.wav

Pre-gap length 0:00:02.57

Peak level 100.0 %
Track quality 100.0 %
Test CRC E3ED68A4
Copy CRC E3ED68A4
Copy OK

Track 20
Filename C:\Jerry Lee Lewis - Country Songs For City Folks (1965) & Memphis Beat (1966) [FLAC] (2on1 2005)\20 - Whenever You're Ready.wav

Pre-gap length 0:00:02.16

Peak level 100.0 %
Track quality 100.0 %
Test CRC D2AEE290
Copy CRC D2AEE290
Copy OK

Track 21
Filename C:\Jerry Lee Lewis - Country Songs For City Folks (1965) & Memphis Beat (1966) [FLAC] (2on1 2005)\21 - Lincoln Limousine.wav

Pre-gap length 0:00:02.48

Peak level 100.0 %
Track quality 100.0 %
Test CRC 9D6B46B1
Copy CRC 9D6B46B1
Copy OK

Track 22
Filename C:\Jerry Lee Lewis - Country Songs For City Folks (1965) & Memphis Beat (1966) [FLAC] (2on1 2005)\22 - Big Boss Man.wav

Pre-gap length 0:00:02.33

Peak level 100.0 %
Track quality 100.0 %
Test CRC 46120D60
Copy CRC 46120D60
Copy OK

Track 23
Filename C:\Jerry Lee Lewis - Country Songs For City Folks (1965) & Memphis Beat (1966) [FLAC] (2on1 2005)\23 - Too Young.wav

Pre-gap length 0:00:02.14

Peak level 100.0 %
Track quality 100.0 %
Test CRC C8A9990C
Copy CRC C8A9990C
Copy OK

Track 24
Filename C:\Jerry Lee Lewis - Country Songs For City Folks (1965) & Memphis Beat (1966) [FLAC] (2on1 2005)\24 - The Urge.wav

Pre-gap length 0:00:02.70

Peak level 100.0 %
Track quality 100.0 %
Test CRC EA0E480B
Copy CRC EA0E480B
Copy OK

No errors occured


End of status report


Jerry Lee Lewis - Country Songs For City Folks (1965) & Memphis Beat (1966) {2on1 BGO Records BGOCD658 rel 2005)

Jerry Lee Lewis - Country Songs For City Folks (1965) & Memphis Beat (1966) {2on1 BGO Records BGOCD658 rel 2005)


see more Jerry Lee Lewis…

NEXT -> more Jerry Lee Lewis on the way…


===