Subcategories

Jerry Lee Lewis - Rock & Roll Time (2014)

Posted By: Justin
Jerry Lee Lewis - Rock & Roll Time (2014)

Jerry Lee Lewis - Rock & Roll Time (2014)
EAC | FLAC(tracks)+CUE+LOG - 272 MB | Complete Artwork included | MP3 CBR 320 Kbps - 133 MB
Country/ Rock & Roll | 32:00 mins | Label: Shangri-La LLC / Vanguard Records # 78334-2

There's a different feel to 2014's Rock & Roll Time, the third album Jerry Lee Lewis has made with benefactor and producer Steve Bing. Once again, superstar drummer Jim Keltner co-produces (he sat out 2010's Mean Old Man), and the pair bring the Killer back where he belongs – right at Sun Studios. In case anybody missed the point, Jerry Lee is placed directly in front of the old Sun building itself on the cover of Rock & Roll Time, underscoring a point the music makes perfectly plain: Jerry Lee is once again singing some of that old-time rock & roll. It's a back-to-basics move, and to that end, Bing and Keltner made the canny decision to dial back the superstar cameos that threatened to overwhelm Lewis on Last Man Standing and Mean Old Man. Some familiar names join Jerry Lee in the studio – Keith Richards and Ron Wood, Neil Young, Robbie Robertson, Nils Lofgren, Doyle Bramhall II, Derek Trucks, and Jon Brion all are here – but only Shelby Lynne shares the microphone with him, which means the album belongs to nobody but the Killer. He sounds his age, as he should at 79, but he still sounds vibrant, whether he's once again singing Chuck Berry songs he's played countless times before, or laying into Kris Kristofferson's "Rock & Roll Time," Bob Dylan's obscure "Stepchild," or Mack Vickery's "Keep Me in Mind." The emphasis is on greasy groove, an appropriate move considering the Killer's advanced age, but by placing feel first and foremost, it's possible to pay attention to how Lewis' vocal phrasing remains sly and supple. Nobody else can sing like Jerry Lee and it remains a pleasure to hear him sink his teeth into nearly any song, especially when he's supported by a team as sympathetic as he is here.

Tracklist:

01. Rock & Roll Time
02. Little Queenie
03. Stepchild
04. Sick And Tired
05. Bright Lights, Big City
06. Folsom Prison Blues
07. Keep Me In Mind
08. Mississippi Kid
09. Blues Like Midnight
10. Here Comes That Rainbow Again
11. Promised Land

Exact Audio Copy V1.0 beta 3 from 29. August 2011

EAC extraction logfile from 19. December 2014, 20:45

Jerry Lee Lewis / Rock & Roll Time

Used drive : Optiarc DVD RW AD-7241S Adapter: 5 ID: 1

Read mode : Secure
Utilize accurate stream : Yes
Defeat audio cache : Yes
Make use of C2 pointers : No

Read offset correction : 48
Overread into Lead-In and Lead-Out : No
Fill up missing offset samples with silence : Yes
Delete leading and trailing silent blocks : No
Null samples used in CRC calculations : Yes
Used interface : Native Win32 interface for Win NT & 2000
Gap handling : Appended to previous track

Used output format : User Defined Encoder
Selected bitrate : 1024 kBit/s
Quality : High
Add ID3 tag : No
Command line compressor : C:\Program Files\EAC1.3\Flac\flac.exe
Additional command line options : -8 -V -T "ARTIST=%artist%" -T "TITLE=%title%" -T "ALBUM=%albumtitle%" -T "DATE=%year%" -T "TRACKNUMBER=%tracknr%" -T "TOTALTRACKS=%numtracks%" -T "GENRE=%genre%" -T "ALBUMARTIST=%albumartist%" -T "ALBUM ARTIST=%albumartist%" -T "COMMENT=EAC Secure Mode, Test & Copy, AccurateRip, FLAC -8" %source%


TOC of the extracted CD

Track | Start | Length | Start sector | End sector
––––––––––––––––––––––––––––-
1 | 0:00.00 | 3:02.52 | 0 | 13701
2 | 3:02.52 | 2:47.52 | 13702 | 26278
3 | 5:50.29 | 3:24.12 | 26279 | 41590
4 | 9:14.41 | 1:53.74 | 41591 | 50139
5 | 11:08.40 | 2:47.61 | 50140 | 62725
6 | 13:56.26 | 3:53.14 | 62726 | 80214
7 | 17:49.40 | 3:03.15 | 80215 | 93954
8 | 20:52.55 | 3:16.64 | 93955 | 108718
9 | 24:09.44 | 2:48.70 | 108719 | 121388
10 | 26:58.39 | 2:06.39 | 121389 | 130877
11 | 29:05.03 | 2:55.02 | 130878 | 144004


Track 1

Filename C:\EACcd\01 - Rock & Roll Time.wav

Pre-gap length 0:00:02.00

Peak level 100.0 %
Extraction speed 2.1 X
Track quality 100.0 %
Test CRC CC6535FD
Copy CRC CC6535FD
Track not present in AccurateRip database
Copy OK

Track 2

Filename C:\EACcd\02 - Little Queenie.wav

Pre-gap length 0:00:00.29

Peak level 99.2 %
Extraction speed 2.3 X
Track quality 100.0 %
Test CRC 1FC6BE0D
Copy CRC 1FC6BE0D
Track not present in AccurateRip database
Copy OK

Track 3

Filename C:\EACcd\03 - Stepchild.wav

Pre-gap length 0:00:02.15

Peak level 99.7 %
Extraction speed 2.2 X
Track quality 99.9 %
Test CRC 17FA641C
Copy CRC 17FA641C
Track not present in AccurateRip database
Copy OK

Track 4

Filename C:\EACcd\04 - Sick And Tired.wav

Pre-gap length 0:00:00.71

Peak level 100.0 %
Extraction speed 2.4 X
Track quality 100.0 %
Test CRC 7A0DA876
Copy CRC 7A0DA876
Track not present in AccurateRip database
Copy OK

Track 5

Filename C:\EACcd\05 - Bright Lights, Big City.wav

Pre-gap length 0:00:00.74

Peak level 100.0 %
Extraction speed 2.7 X
Track quality 100.0 %
Test CRC 79FE9A83
Copy CRC 79FE9A83
Track not present in AccurateRip database
Copy OK

Track 6

Filename C:\EACcd\06 - Folsom Prison Blues.wav

Pre-gap length 0:00:01.59

Peak level 100.0 %
Extraction speed 3.1 X
Track quality 100.0 %
Test CRC 917896F8
Copy CRC 917896F8
Track not present in AccurateRip database
Copy OK

Track 7

Filename C:\EACcd\07 - Keep Me In Mind.wav

Pre-gap length 0:00:00.43

Peak level 99.3 %
Extraction speed 3.1 X
Track quality 100.0 %
Test CRC CAD1097A
Copy CRC CAD1097A
Track not present in AccurateRip database
Copy OK

Track 8

Filename C:\EACcd\08 - Mississippi Kid.wav

Pre-gap length 0:00:00.02

Peak level 99.8 %
Extraction speed 2.8 X
Track quality 99.9 %
Test CRC 0FA64DAC
Copy CRC 0FA64DAC
Track not present in AccurateRip database
Copy OK

Track 9

Filename C:\EACcd\09 - Blues Like Midnight.wav

Pre-gap length 0:00:01.17

Peak level 99.8 %
Extraction speed 3.3 X
Track quality 100.0 %
Test CRC 7EC35EED
Copy CRC 7EC35EED
Track not present in AccurateRip database
Copy OK

Track 10

Filename C:\EACcd\10 - Here Comes That Rainbow Again.wav

Pre-gap length 0:00:00.62

Peak level 98.9 %
Extraction speed 2.6 X
Track quality 99.9 %
Test CRC 21417796
Copy CRC 21417796
Track not present in AccurateRip database
Copy OK

Track 11

Filename C:\EACcd\11 - Promised Land.wav

Pre-gap length 0:00:01.04

Peak level 100.0 %
Extraction speed 3.5 X
Track quality 100.0 %
Test CRC 70D07F2C
Copy CRC 70D07F2C
Track not present in AccurateRip database
Copy OK


None of the tracks are present in the AccurateRip database

No errors occurred

End of status report

–– CUETools DB Plugin V2.1.3

[CTDB TOCID: kU3nRwpyhk5c3Eap3qJqO4I5Aa0-] found, Submit result: kU3nRwpyhk5c3Eap3qJqO4I5Aa0- has been confirmed
[c90593ec] (6/6) Accurately ripped


==== Log checksum 2A89110FED9DD6CF6BD9014C0C417C9CA568B83015D7BECC56EA84D4C1ED61FA ====



All Thanks goes to ecwashere!
Lossless
MP3 CBR 320