Subcategories

Jesu & Sun Kil Moon - 30 Seconds to The Decline of Planet Earth (2017)

Posted By: delpotro
Jesu & Sun Kil Moon - 30 Seconds to The Decline of Planet Earth (2017)

Jesu & Sun Kil Moon - 30 Seconds to The Decline of Planet Earth (2017)
EAC Rip | FLAC (tracks+log+.cue) | 01:17:11 | 406 Mb
Indie Folk, Experimental, Singer-Songwriter | Label: Caldo Verde Records

Sun Kil Moon (aka Mark Kozelek) has very quietly announced his sophomore collaboration album with Shoegaze pioneer Jesu. It will follow their first full-length collaboration "Jesu / Sun Kil Moon", which was released in 2016. This is a very productive period for the band as they will release this new collaboration album two months after their eighth full length album "Common As Light and Love Are Red Valleys of Blood" which will be released this February. An anti-Michael Jackson song called "He's Bad" was released as the album's first single. "Needles Disney" was the second single released. "The Greatest Coversation Ever In The History Of The Universe” is the third single and it was included as apart of the 30 Days 30 Songs project promoting artists for a Trump Free America. This collaboration album was recorded both in the UK and in the US through November 2017. The album will be released on May 5th via Caldo Verde Records.
Tracklist:
1. You Are Me And I Am You
2. Wheat Bread
3. Needles Disney
4. The Greatest Conversation Ever In The History Of The Universe
5. He's Bad
6. Bombs
7. Twenty Something
8. Hello Chicago
9. A Dream of Winter

Exact Audio Copy V1.3 from 2. September 2016

EAC extraction logfile from 2. May 2017, 19:41

Jesu & Sun Kil Moon / 30 Seconds to The Decline of Planet Earth

Used drive : HL-DT-STDVDRAM GHB0N Adapter: 1 ID: 0

Read mode : Secure
Utilize accurate stream : Yes
Defeat audio cache : Yes
Make use of C2 pointers : No

Read offset correction : 6
Overread into Lead-In and Lead-Out : No
Fill up missing offset samples with silence : Yes
Delete leading and trailing silent blocks : No
Null samples used in CRC calculations : Yes
Used interface : Native Win32 interface for Win NT & 2000
Gap handling : Appended to previous track

Used output format : User Defined Encoder
Selected bitrate : 1024 kBit/s
Quality : High
Add ID3 tag : No
Command line compressor : C:\Program Files (x86)\Exact Audio Copy\FLAC\FLAC.EXE
Additional command line options : -8 -e -V -T "ARTIST=%artist%" -T "TITLE=%title%" -T "ALBUM=%albumtitle%" -T "DATE=%year%" -T "TRACKNUMBER=%tracknr%" -T "GENRE=%genre%" -T "PERFORMER=%albuminterpret%" -T "COMPOSER=%composer%" %haslyrics%–tag-from-file=LYRICS="%lyricsfile%"%haslyrics% -T "ALBUMARTIST=%albumartist%" -T "DISCNUMBER=%cdnumber%" -T "DISCTOTAL=%totalcds%" -T "TRACKTOTAL=%numtracks%" -T "COMMENT=%comment%" %source% -o %dest%


TOC of the extracted CD

Track | Start | Length | Start sector | End sector
––––––––––––––––––––––––––––-
1 | 0:00.00 | 5:00.10 | 0 | 22509
2 | 5:00.10 | 17:01.19 | 22510 | 99103
3 | 22:01.29 | 6:31.33 | 99104 | 128461
4 | 28:32.62 | 9:44.08 | 128462 | 172269
5 | 38:16.70 | 6:38.50 | 172270 | 202169
6 | 44:55.45 | 12:57.28 | 202170 | 260472
7 | 57:52.73 | 6:32.53 | 260473 | 289925
8 | 64:25.51 | 8:07.44 | 289926 | 326494
9 | 72:33.20 | 4:38.45 | 326495 | 347389


Track 1

Filename C:\Users\ryank_000\Music\cdrips\jesu & sun kil moon\30 seconds to the decline of planet earth\01 - You Are Me and I am You.wav

Pre-gap length 0:00:02.00

Peak level 99.4 %
Extraction speed 1.0 X
Track quality 99.9 %
Test CRC 4DE512CC
Copy CRC 4DE512CC
Track not present in AccurateRip database
Copy OK

Track 2

Filename C:\Users\ryank_000\Music\cdrips\jesu & sun kil moon\30 seconds to the decline of planet earth\02 - Wheat Bread.wav

Pre-gap length 0:00:01.04

Peak level 100.0 %
Extraction speed 1.5 X
Track quality 99.9 %
Test CRC A1FE3F42
Copy CRC A1FE3F42
Track not present in AccurateRip database
Copy OK

Track 3

Filename C:\Users\ryank_000\Music\cdrips\jesu & sun kil moon\30 seconds to the decline of planet earth\03 - Needles Disney.wav

Pre-gap length 0:00:01.00

Peak level 99.1 %
Extraction speed 1.6 X
Track quality 99.9 %
Test CRC 23CAF84E
Copy CRC 23CAF84E
Track not present in AccurateRip database
Copy OK

Track 4

Filename C:\Users\ryank_000\Music\cdrips\jesu & sun kil moon\30 seconds to the decline of planet earth\04 - The Greatest Conversation Ever in The History of The Universe.wav

Pre-gap length 0:00:00.72

Peak level 87.0 %
Extraction speed 2.0 X
Track quality 100.0 %
Test CRC E148F33E
Copy CRC E148F33E
Track not present in AccurateRip database
Copy OK

Track 5

Filename C:\Users\ryank_000\Music\cdrips\jesu & sun kil moon\30 seconds to the decline of planet earth\05 - He's Bad.wav

Peak level 98.8 %
Extraction speed 2.0 X
Track quality 100.0 %
Test CRC 6F612C4C
Copy CRC 6F612C4C
Track not present in AccurateRip database
Copy OK

Track 6

Filename C:\Users\ryank_000\Music\cdrips\jesu & sun kil moon\30 seconds to the decline of planet earth\06 - Bombs.wav

Peak level 100.0 %
Extraction speed 2.3 X
Track quality 100.0 %
Test CRC AE4387D3
Copy CRC AE4387D3
Track not present in AccurateRip database
Copy OK

Track 7

Filename C:\Users\ryank_000\Music\cdrips\jesu & sun kil moon\30 seconds to the decline of planet earth\07 - Twenty Something.wav

Pre-gap length 0:00:01.00

Peak level 100.0 %
Extraction speed 2.1 X
Track quality 99.9 %
Test CRC 40CA7FFF
Copy CRC 40CA7FFF
Track not present in AccurateRip database
Copy OK

Track 8

Filename C:\Users\ryank_000\Music\cdrips\jesu & sun kil moon\30 seconds to the decline of planet earth\08 - Hello Chicago.wav

Peak level 97.3 %
Extraction speed 2.5 X
Track quality 100.0 %
Test CRC 879BC278
Copy CRC 879BC278
Track not present in AccurateRip database
Copy OK

Track 9

Filename C:\Users\ryank_000\Music\cdrips\jesu & sun kil moon\30 seconds to the decline of planet earth\09 - A Dream of Winter.wav

Pre-gap length 0:00:00.45

Peak level 99.9 %
Extraction speed 2.4 X
Track quality 100.0 %
Test CRC 5C38E739
Copy CRC 5C38E739
Track not present in AccurateRip database
Copy OK


None of the tracks are present in the AccurateRip database

No errors occurred

End of status report

–– CUETools DB Plugin V2.1.6

[CTDB TOCID: OjcEsPtv9QespMxoHmaXFJ3AFF8-] disk not present in database
Submit result: OjcEsPtv9QespMxoHmaXFJ3AFF8- has been uploaded


==== Log checksum 41DD0202369ED87D520718125956F256F9F43538EB41359F5BAC482966070807 ====

Thanks to the Original ripper (Unknown)