Subcategories
Tags
Language
Tags

Jesu - Terminus (2020)

Posted By: delpotro
Jesu - Terminus (2020)

Jesu - Terminus (2020)
EAC Rip | FLAC (tracks+log+.cue) - 266 Mb | MP3 CBR 320 kbps - 118 Mb | 00:51:26
Experimental Rock, Art Rock, Ambient, Shoegaze | Label: Avalanche Recording

Justin K Broadrick returns as Jesu with Terminus, the first full length stand alone album from Jesu since 2013's Every Day I Get Closer To The Light From Which I Came, and follows the experimental Jesu EP Never. Terminus thematically was inspired by the concepts of rejection, dependency, nostalgia, and ultimate loneliness. Musically exploring the entire gamut of the Jesu oeuvre since it's initial inception; dream pop, shoegaze, electronica and non aligned/non genre specific heaviness.
Tracklist:
1. When I Was Small (06:11)
2. Alone (04:19)
3. Terminus (09:30)
4. Sleeping In (08:39)
5. Consciousness (05:10)
6. Disintegrating Wings (05:43)
7. Don't Wake Me Up (06:02)
8. Give Up (05:53)

Exact Audio Copy V1.3 from 2. September 2016

EAC extraction logfile from 13. November 2020, 20:36

Jesu / Terminus

Used drive : HL-DT-STDVDRAM GP57EB40 Adapter: 1 ID: 1

Read mode : Secure
Utilize accurate stream : Yes
Defeat audio cache : Yes
Make use of C2 pointers : No

Read offset correction : 6
Overread into Lead-In and Lead-Out : No
Fill up missing offset samples with silence : Yes
Delete leading and trailing silent blocks : No
Null samples used in CRC calculations : Yes
Used interface : Native Win32 interface for Win NT & 2000
Gap handling : Appended to previous track

Used output format : User Defined Encoder
Selected bitrate : 1024 kBit/s
Quality : High
Add ID3 tag : No
Command line compressor : C:\Program Files (x86)\Exact Audio Copy\Flac\flac.exe
Additional command line options : -8 -V -T "ARTIST=%artist%" -T "TITLE=%title%" -T "ALBUM=%albumtitle%" -T "DATE=%year%" -T "TRACKNUMBER=%tracknr%" -T "GENRE=%genre%" -T "PERFORMER=%albuminterpret%" -T "COMPOSER=%composer%" %haslyrics%–tag-from-file=LYRICS="%lyricsfile%"%haslyrics% -T "ALBUMARTIST=%albumartist%" -T "DISCNUMBER=%cdnumber%" -T "TOTALDISCS=%totalcds%" -T "TOTALTRACKS=%numtracks%" -T "COMMENT=%comment%" %source% -o %dest%


TOC of the extracted CD

Track | Start | Length | Start sector | End sector
––––––––––––––––––––––––––––-
1 | 0:00.00 | 6:12.25 | 0 | 27924
2 | 6:12.25 | 4:19.07 | 27925 | 47356
3 | 10:31.32 | 9:30.21 | 47357 | 90127
4 | 20:01.53 | 8:39.21 | 90128 | 129073
5 | 28:40.74 | 5:09.43 | 129074 | 152291
6 | 33:50.42 | 5:42.43 | 152292 | 177984
7 | 39:33.10 | 6:02.52 | 177985 | 205186
8 | 45:35.62 | 5:51.00 | 205187 | 231511


Track 1

Filename Z:\Jesu - Terminus (2020) [FLAC] {AREC049}\01 When I Was Small.wav

Pre-gap length 0:00:02.00

Peak level 98.8 %
Extraction speed 1.2 X
Track quality 100.0 %
Test CRC 8F452E10
Copy CRC 8F452E10
Track not present in AccurateRip database
Copy OK

Track 2

Filename Z:\Jesu - Terminus (2020) [FLAC] {AREC049}\02 Alone.wav

Pre-gap length 0:00:01.42

Peak level 98.8 %
Extraction speed 1.3 X
Track quality 100.0 %
Test CRC 4FEE2E80
Copy CRC 4FEE2E80
Track not present in AccurateRip database
Copy OK

Track 3

Filename Z:\Jesu - Terminus (2020) [FLAC] {AREC049}\03 Terminus.wav

Pre-gap length 0:00:00.89

Peak level 98.8 %
Extraction speed 1.6 X
Track quality 100.0 %
Test CRC D5320952
Copy CRC D5320952
Track not present in AccurateRip database
Copy OK

Track 4

Filename Z:\Jesu - Terminus (2020) [FLAC] {AREC049}\04 Sleeping In.wav

Pre-gap length 0:00:00.88

Peak level 98.8 %
Extraction speed 1.8 X
Track quality 100.0 %
Test CRC 69DD0D0F
Copy CRC 69DD0D0F
Track not present in AccurateRip database
Copy OK

Track 5

Filename Z:\Jesu - Terminus (2020) [FLAC] {AREC049}\05 Consciousness.wav

Pre-gap length 0:00:00.81

Peak level 98.8 %
Extraction speed 1.9 X
Track quality 100.0 %
Test CRC 71D8510D
Copy CRC 71D8510D
Track not present in AccurateRip database
Copy OK

Track 6

Filename Z:\Jesu - Terminus (2020) [FLAC] {AREC049}\06 Disintegrating Wings.wav

Pre-gap length 0:00:02.13

Peak level 98.8 %
Extraction speed 2.1 X
Track quality 100.0 %
Test CRC 7D838E37
Copy CRC 7D838E37
Track not present in AccurateRip database
Copy OK

Track 7

Filename Z:\Jesu - Terminus (2020) [FLAC] {AREC049}\07 Don't Wake Me Up.wav

Pre-gap length 0:00:00.73

Peak level 98.8 %
Extraction speed 2.2 X
Track quality 100.0 %
Test CRC 981E0A08
Copy CRC 981E0A08
Track not present in AccurateRip database
Copy OK

Track 8

Filename Z:\Jesu - Terminus (2020) [FLAC] {AREC049}\08 Give Up.wav

Pre-gap length 0:00:01.72

Peak level 98.8 %
Extraction speed 2.3 X
Track quality 100.0 %
Test CRC C3F00251
Copy CRC C3F00251
Track not present in AccurateRip database
Copy OK


None of the tracks are present in the AccurateRip database

No errors occurred

End of status report

–– CUETools DB Plugin V2.1.6

[CTDB TOCID: puQAAUjLKFCSQHy_w8ele1thm6A-] disk not present in database
Submit result: puQAAUjLKFCSQHy_w8ele1thm6A- has been uploaded


==== Log checksum E7191CEB00151EE960B76EBE1B001DA765E295034BB3108C590C4B75FF73F3C6 ====

Thanks to the Original ripper !