Subcategories

Jethro Tull - Too Old To Rock 'N' Roll, Too Young To Die (1976) {2015 The TV Special Deluxe Edition 2 CD + 2 DVD}

Posted By: ruskaval
Jethro Tull - Too Old To Rock 'N' Roll, Too Young To Die (1976) {2015 The TV Special Deluxe Edition 2 CD + 2 DVD}

Jethro Tull - Too Old To Rock 'N' Roll, Too Young To Die (1976) {2015 The TV Special Deluxe Edition 2 CD + 2 DVD}
EAC rip (secure mode) | FLAC (tracks)+CUE+LOG -> 804 Mb | MP3 @320 -> 335 Mb
DVD9+DVD5 -> 8.67 Gb | All Regions | NTSC 16:9 | Dolby AC3, 6 ch/LPCM, 2 ch/DTS, 6 ch / Audio: 96/24 | ~ 100m | ISO Images
Full Artwork @ 300 dpi (png) -> 638 Mb | 5% repair rar
© 1976, 2015 Chrysalis Records / Warner | 0825646035519
Rock / Art Rock / Blues-Rock / Hard Rock / Prog-Rock

Too Old To Rock 'n' Roll, Too Young To Die! - The TV Special Edition Deluxe features a previously unreleased re-recorded version of the album for a 1976 UK TV special.

It additionally contains original LP tracks and rare associated recordings, plus 2015 5.1 and stereo mixes by Steven Wilson.

Jethro Tull - Too Old To Rock 'N' Roll, Too Young To Die (1976) {2015 The TV Special Deluxe Edition 2 CD + 2 DVD}


Also included:

* flat transfers of the original album as well as a host of rare associated recordings including previously unreleased material.

* the previously commercially unavailable original TV footage with DTS, Dolby Digital Surround Sound and Dolby Digital Stereo sound.

* the TV audio in 96/24 stereo PCM, alongside a host of other associated recordings in surround and 96/24.

* an extensive 80 page booklet including an essay by Martin Webb on the preparation and recording of the album in Brussels and Monte Carlo, the aborted stage musical, the London Weekend TV special and the 1976 tours. The booklet also contains a track by track annotation by Ian Anderson, lyrics, a feature on Ian Anderson and his motorbikes, Dave Gibbons on drawing the LP's cartoon inner spread and 'From Carmen to Tullman' - The Musical Life of John Glascock, unseen photos and lots more.

Deluxe 2CD/2DVD (NTSC, Region 0) casebound book with 80-page booklet.
Jethro Tull - Too Old To Rock 'N' Roll, Too Young To Die (1976) {2015 The TV Special Deluxe Edition 2 CD + 2 DVD}

Jethro Tull - Too Old To Rock 'N' Roll, Too Young To Die (1976) {2015 The TV Special Deluxe Edition 2 CD + 2 DVD}

This special edition of the 1976 album will contain new Steven Wilson stereo remixes on CD 1, although this is of the version of the album re-recorded for a TV Special. Only five multi-track master tapes for the actual album could be located and new stereo remixes of those tracks are also appended on the first disc.

The second CD consists of a complete flat transfer of the original stereo mix, and eight bonus tracks (seven of which are 2015 remixes). This bonus material includes two unheard songs: Salamander’s Ragtime (not related to album track Salamander), and Commercial Traveller. A third outtake Advertising Man was planned to be included but was not sufficiently complete to merit inclusion.

The first DVD features the TV special broadcast in full, (its commercial debut) and with the remixed soundtrack in high res stereo and 5.1 surround sound. The five album tracks included on CD 1 are here in 5.1 surround sound and high resolution stereo. The second DVD features the bonus tracks in high res audio, four also in 5.1 surround sound, and flat transfers of the original stereo and quadraphonic mixes.

As with previous Jethro Tull deluxe editions, this is presented in a case-bound DVD bookset that includes an 80-page booklet with an extensive history of the album, track-by-track annotations by Ian Anderson, plus rare and unseen photographs.
Jethro Tull - Too Old To Rock 'N' Roll, Too Young To Die (1976) {2015 The TV Special Deluxe Edition 2 CD + 2 DVD}

Jethro Tull - Too Old To Rock 'N' Roll, Too Young To Die (1976) {2015 The TV Special Deluxe Edition 2 CD + 2 DVD}


jethrotull.com INFO

Tracks:

CD1 (Re-recorded album for TV Special):


1. Prelude*
2. Quiz Kid*
3. Crazed Institution*
4. Salamander*
5. Taxi Grab*
6. From A Dead Beat To An Old Greaser*
7. Bad Eyed And Loveless*
8. Big Dipper*
9. Too Old To Rock 'n' Roll, Too Young To Die!*
10. Pied Piper*
11. The Chequered Flag (Dead Or Alive)*

Five Original LP Tracks:

12. From A Dead Beat To An Old Greaser
13. Bad Eyed And Loveless
14. Big Dipper
15. Too Old To Rock 'n' Roll, Too Young To Die!
16. The Chequered Flag (Dead Or Alive)

Monte Carlo Out-take:

17. Quiz Kid (Version 1)*

Jethro Tull - Too Old To Rock 'N' Roll, Too Young To Die (1976) {2015 The TV Special Deluxe Edition 2 CD + 2 DVD}


CD2 (Associated Recordings):

1. Salamander's Rag Time *
2. Commercial Traveller *
3. Salamander (Instrumental) *
4. A Small Cigar (Acoustic Version)
5. Strip Cartoon
6. One Brown Mouse (Early Version) *
7. A Small Cigar (Orchestrated Version) *
8. Too Old To Rock 'n' Roll, Too Young To Die! (Demo) *

Original Album Flat Transfer:

9. Prelude
10. Quiz Kid
11. Crazed Institution
12. Salamander
13. Taxi Grab
14. From A Dead Beat To An Old Greaser
15. Bad Eyed And Loveless
16. Big Dipper
17. Too Old To Rock 'n' Roll, Too Young To Die!
18. Pied Piper
19. The Chequered Flag (Dead Or Alive)

* Previously Unreleased

Jethro Tull - Too Old To Rock 'N' Roll, Too Young To Die (1976) {2015 The TV Special Deluxe Edition 2 CD + 2 DVD}


DVD 1 (Audio & Video):

Too Old To Rock 'n' Roll, Too Young To Die!
TV film with DTS and Dolby Digital 5.1 surround sound and Dolby Digital Stereo
Too Old To Rock 'n' Roll, Too Young To Die!
TV audio in 96/24 stereo PCM
Five Original LP Tracks with DTS and Dolby Digital 5.1 surround sound and 96/24 stereo PCM.

Jethro Tull - Too Old To Rock 'N' Roll, Too Young To Die (1976) {2015 The TV Special Deluxe Edition 2 CD + 2 DVD}


DVD 2 (Audio):

Associated recordings - with DTS and Dolby Digital 5.1 surround sound and 96/24 stereo PCM:
Salamander's Rag Time, Commercial Traveller, A Small Cigar (Acoustic Version), Strip Cartoon.

Associated recordings - in 96/24 stereo PCM:
Quiz Kid (version 1), One Brown Mouse (early version) Original Master Mix, Salamander (Instrumental), Strip Cartoon Original Master Mix, A Small Cigar (orchestrated version) Original Rough Mix, Too Old To Rock 'n' Roll, Too Young To Die! Demo.

A flat transfer of the original 1976 Quad LP Production Master with DTS 4.0 and Dolby Digital AC3 4.0 surround sound.

A flat transfer of the original 1976 LP master at 96/24 stereo PCM.

Jethro Tull - Too Old To Rock 'N' Roll, Too Young To Die (1976) {2015 The TV Special Deluxe Edition 2 CD + 2 DVD}


Exact Audio Copy V1.0 beta 3 from 29. August 2011

EAC extraction logfile from 24. January 2016, 22:11

Jethro Tull / Too Old To Rock 'N' Roll Too Young To Die

Used drive : ATAPI iHBS212 2 Adapter: 3 ID: 0

Read mode : Secure
Utilize accurate stream : Yes
Defeat audio cache : Yes
Make use of C2 pointers : No

Read offset correction : 6
Overread into Lead-In and Lead-Out : No
Fill up missing offset samples with silence : Yes
Delete leading and trailing silent blocks : No
Null samples used in CRC calculations : Yes
Used interface : Native Win32 interface for Win NT & 2000
Gap handling : Appended to previous track

Used output format : User Defined Encoder
Selected bitrate : 128 kBit/s
Quality : High
Add ID3 tag : No
Command line compressor : C:\Program Files (x86)\Exact Audio Copy\Flac\flac.exe
Additional command line options : -8 -V -T "ARTIST=%artist%" -T "TITLE=%title%" -T "ALBUM=%albumtitle%" -T "DATE=%year%" -T "TRACKNUMBER=%tracknr%" -T "TOTALTRACKS=%numtracks%" -T "GENRE=%genre%" -T "ALBUMARTIST=%albumartist%" -T "ALBUM ARTIST=%albumartist%" -T "COMMENT=EAC Secure Mode, Test & Copy, AccurateRip, FLAC -8" %source%


TOC of the extracted CD

Track | Start | Length | Start sector | End sector
––––––––––––––––––––––––––––-
1 | 0:00.00 | 0:53.32 | 0 | 4006
2 | 0:53.32 | 4:03.40 | 4007 | 22271
3 | 4:56.72 | 4:35.73 | 22272 | 42969
4 | 9:32.70 | 2:52.56 | 42970 | 55925
5 | 12:25.51 | 3:50.65 | 55926 | 73240
6 | 16:16.41 | 4:11.51 | 73241 | 92116
7 | 20:28.17 | 2:10.60 | 92117 | 101926
8 | 22:39.02 | 3:33.11 | 101927 | 117912
9 | 26:12.13 | 5:34.02 | 117913 | 142964
10 | 31:46.15 | 4:36.56 | 142965 | 163720
11 | 36:22.71 | 5:23.24 | 163721 | 187969
12 | 41:46.20 | 4:09.61 | 187970 | 206705
13 | 45:56.06 | 2:12.18 | 206706 | 216623
14 | 48:08.24 | 3:36.22 | 216624 | 232845
15 | 51:44.46 | 5:43.26 | 232846 | 258596
16 | 57:27.72 | 5:23.64 | 258597 | 282885
17 | 62:51.61 | 4:39.07 | 282886 | 303817


Track 1

Filename C:\Users\Rob\Desktop\Uploads\Jethro Tull - Too Old To Rock 'N' Roll, Too Young To Die (1976) [FLAC] (2015 The TV Special Edition 2 CD + 2 DVD)\CD 1\01 - Prelude.wav

Pre-gap length 0:00:02.00

Peak level 75.5 %
Extraction speed 2.4 X
Track quality 99.8 %
Test CRC 4ED87310
Copy CRC 4ED87310
Accurately ripped (confidence 6) [B030C0B9] (AR v2)
Copy OK

Track 2

Filename C:\Users\Rob\Desktop\Uploads\Jethro Tull - Too Old To Rock 'N' Roll, Too Young To Die (1976) [FLAC] (2015 The TV Special Edition 2 CD + 2 DVD)\CD 1\02 - Quiz Kid.wav

Peak level 99.9 %
Extraction speed 6.0 X
Track quality 100.0 %
Test CRC 383F2472
Copy CRC 383F2472
Accurately ripped (confidence 6) [4F7A1250] (AR v2)
Copy OK

Track 3

Filename C:\Users\Rob\Desktop\Uploads\Jethro Tull - Too Old To Rock 'N' Roll, Too Young To Die (1976) [FLAC] (2015 The TV Special Edition 2 CD + 2 DVD)\CD 1\03 - Crazed Institution.wav

Peak level 99.2 %
Extraction speed 6.7 X
Track quality 100.0 %
Test CRC 2A455C10
Copy CRC 2A455C10
Accurately ripped (confidence 6) [FB924DA4] (AR v2)
Copy OK

Track 4

Filename C:\Users\Rob\Desktop\Uploads\Jethro Tull - Too Old To Rock 'N' Roll, Too Young To Die (1976) [FLAC] (2015 The TV Special Edition 2 CD + 2 DVD)\CD 1\04 - Salamander.wav

Peak level 65.9 %
Extraction speed 6.7 X
Track quality 100.0 %
Test CRC 5484AEFE
Copy CRC 5484AEFE
Accurately ripped (confidence 6) [6B205E0C] (AR v2)
Copy OK

Track 5

Filename C:\Users\Rob\Desktop\Uploads\Jethro Tull - Too Old To Rock 'N' Roll, Too Young To Die (1976) [FLAC] (2015 The TV Special Edition 2 CD + 2 DVD)\CD 1\05 - Taxi Grab.wav

Peak level 99.1 %
Extraction speed 7.4 X
Track quality 100.0 %
Test CRC 2B851C73
Copy CRC 2B851C73
Accurately ripped (confidence 6) [4A5D9DFB] (AR v2)
Copy OK

Track 6

Filename C:\Users\Rob\Desktop\Uploads\Jethro Tull - Too Old To Rock 'N' Roll, Too Young To Die (1976) [FLAC] (2015 The TV Special Edition 2 CD + 2 DVD)\CD 1\06 - From A Dead Beat To An Old Greaser.wav

Peak level 95.9 %
Extraction speed 6.6 X
Track quality 99.9 %
Test CRC D534D23C
Copy CRC D534D23C
Accurately ripped (confidence 6) [AAE440F8] (AR v2)
Copy OK

Track 7

Filename C:\Users\Rob\Desktop\Uploads\Jethro Tull - Too Old To Rock 'N' Roll, Too Young To Die (1976) [FLAC] (2015 The TV Special Edition 2 CD + 2 DVD)\CD 1\07 - Bad Eyed And Loveless.wav

Peak level 59.4 %
Extraction speed 5.5 X
Track quality 99.9 %
Test CRC 8768FFBE
Copy CRC 8768FFBE
Accurately ripped (confidence 6) [E0C34869] (AR v2)
Copy OK

Track 8

Filename C:\Users\Rob\Desktop\Uploads\Jethro Tull - Too Old To Rock 'N' Roll, Too Young To Die (1976) [FLAC] (2015 The TV Special Edition 2 CD + 2 DVD)\CD 1\08 - Big Dipper.wav

Peak level 99.3 %
Extraction speed 6.7 X
Track quality 99.9 %
Test CRC CA70D11A
Copy CRC CA70D11A
Accurately ripped (confidence 6) [F4124DDF] (AR v2)
Copy OK

Track 9

Filename C:\Users\Rob\Desktop\Uploads\Jethro Tull - Too Old To Rock 'N' Roll, Too Young To Die (1976) [FLAC] (2015 The TV Special Edition 2 CD + 2 DVD)\CD 1\09 - Too Old To Rock 'N' Roll, Too Young To Die.wav

Peak level 99.5 %
Extraction speed 9.2 X
Track quality 100.0 %
Test CRC 3773F550
Copy CRC 3773F550
Accurately ripped (confidence 6) [11FC7CF1] (AR v2)
Copy OK

Track 10

Filename C:\Users\Rob\Desktop\Uploads\Jethro Tull - Too Old To Rock 'N' Roll, Too Young To Die (1976) [FLAC] (2015 The TV Special Edition 2 CD + 2 DVD)\CD 1\10 - Pied Piper.wav

Peak level 98.8 %
Extraction speed 9.5 X
Track quality 100.0 %
Test CRC 49DD91B5
Copy CRC 49DD91B5
Accurately ripped (confidence 6) [794E6312] (AR v2)
Copy OK

Track 11

Filename C:\Users\Rob\Desktop\Uploads\Jethro Tull - Too Old To Rock 'N' Roll, Too Young To Die (1976) [FLAC] (2015 The TV Special Edition 2 CD + 2 DVD)\CD 1\11 - The Chequered Flag (Dead Or Alive).wav

Peak level 99.2 %
Extraction speed 10.1 X
Track quality 100.0 %
Test CRC 9E8FE837
Copy CRC 9E8FE837
Accurately ripped (confidence 6) [F65138B9] (AR v2)
Copy OK

Track 12

Filename C:\Users\Rob\Desktop\Uploads\Jethro Tull - Too Old To Rock 'N' Roll, Too Young To Die (1976) [FLAC] (2015 The TV Special Edition 2 CD + 2 DVD)\CD 1\12 - From A Dead Beat To An Old Greaser.wav

Peak level 94.7 %
Extraction speed 10.1 X
Track quality 100.0 %
Test CRC 8E8F8C6D
Copy CRC 8E8F8C6D
Accurately ripped (confidence 6) [C51DD669] (AR v2)
Copy OK

Track 13

Filename C:\Users\Rob\Desktop\Uploads\Jethro Tull - Too Old To Rock 'N' Roll, Too Young To Die (1976) [FLAC] (2015 The TV Special Edition 2 CD + 2 DVD)\CD 1\13 - Bad Eyed And Loveless.wav

Peak level 59.2 %
Extraction speed 9.3 X
Track quality 100.0 %
Test CRC 665CC22F
Copy CRC 665CC22F
Accurately ripped (confidence 6) [2789CBE1] (AR v2)
Copy OK

Track 14

Filename C:\Users\Rob\Desktop\Uploads\Jethro Tull - Too Old To Rock 'N' Roll, Too Young To Die (1976) [FLAC] (2015 The TV Special Edition 2 CD + 2 DVD)\CD 1\14 - Big Dipper.wav

Peak level 100.0 %
Extraction speed 10.4 X
Track quality 100.0 %
Test CRC 36C9C37B
Copy CRC 36C9C37B
Accurately ripped (confidence 6) [E6633A0E] (AR v2)
Copy OK

Track 15

Filename C:\Users\Rob\Desktop\Uploads\Jethro Tull - Too Old To Rock 'N' Roll, Too Young To Die (1976) [FLAC] (2015 The TV Special Edition 2 CD + 2 DVD)\CD 1\15 - Too Old To Rock 'N' Roll- Too Young To Die.wav

Peak level 99.3 %
Extraction speed 11.4 X
Track quality 100.0 %
Test CRC D908EEA9
Copy CRC D908EEA9
Accurately ripped (confidence 6) [5B71852E] (AR v2)
Copy OK

Track 16

Filename C:\Users\Rob\Desktop\Uploads\Jethro Tull - Too Old To Rock 'N' Roll, Too Young To Die (1976) [FLAC] (2015 The TV Special Edition 2 CD + 2 DVD)\CD 1\16 - The Chequered Flag (Dead Or Alive).wav

Peak level 98.9 %
Extraction speed 11.8 X
Track quality 100.0 %
Test CRC A72636E9
Copy CRC A72636E9
Accurately ripped (confidence 6) [6AEA667D] (AR v2)
Copy OK

Track 17

Filename C:\Users\Rob\Desktop\Uploads\Jethro Tull - Too Old To Rock 'N' Roll, Too Young To Die (1976) [FLAC] (2015 The TV Special Edition 2 CD + 2 DVD)\CD 1\17 - Quiz Kid (Early Version).wav

Peak level 99.1 %
Extraction speed 11.9 X
Track quality 100.0 %
Test CRC 00758155
Copy CRC 00758155
Accurately ripped (confidence 6) [4CDA39D2] (AR v2)
Copy OK


All tracks accurately ripped

No errors occurred

End of status report

==== Log checksum 36EB7E785A0D7BC7F025750829BB17931AEC0C97BF3E305DBBEBBFDC6395EBFC ====

––-

Exact Audio Copy V1.0 beta 3 from 29. August 2011

EAC extraction logfile from 25. January 2016, 9:00

Jethro Tull / Too Old To Rock 'N' Roll Too Young To Die

Used drive : ATAPI iHBS212 2 Adapter: 3 ID: 0

Read mode : Secure
Utilize accurate stream : Yes
Defeat audio cache : Yes
Make use of C2 pointers : No

Read offset correction : 6
Overread into Lead-In and Lead-Out : No
Fill up missing offset samples with silence : Yes
Delete leading and trailing silent blocks : No
Null samples used in CRC calculations : Yes
Used interface : Native Win32 interface for Win NT & 2000
Gap handling : Appended to previous track

Used output format : User Defined Encoder
Selected bitrate : 128 kBit/s
Quality : High
Add ID3 tag : No
Command line compressor : C:\Program Files (x86)\Exact Audio Copy\Flac\flac.exe
Additional command line options : -8 -V -T "ARTIST=%artist%" -T "TITLE=%title%" -T "ALBUM=%albumtitle%" -T "DATE=%year%" -T "TRACKNUMBER=%tracknr%" -T "TOTALTRACKS=%numtracks%" -T "GENRE=%genre%" -T "ALBUMARTIST=%albumartist%" -T "ALBUM ARTIST=%albumartist%" -T "COMMENT=EAC Secure Mode, Test & Copy, AccurateRip, FLAC -8" %source%


TOC of the extracted CD

Track | Start | Length | Start sector | End sector
––––––––––––––––––––––––––––-
1 | 0:00.00 | 3:22.66 | 0 | 15215
2 | 3:22.66 | 3:30.69 | 15216 | 31034
3 | 6:53.60 | 3:21.36 | 31035 | 46145
4 | 10:15.21 | 3:38.38 | 46146 | 62533
5 | 13:53.59 | 3:17.46 | 62534 | 77354
6 | 17:11.30 | 3:32.05 | 77355 | 93259
7 | 20:43.35 | 4:32.27 | 93260 | 113686
8 | 25:15.62 | 6:04.58 | 113687 | 141044
9 | 31:20.45 | 0:55.05 | 141045 | 145174
10 | 32:15.50 | 4:14.10 | 145175 | 164234
11 | 36:29.60 | 4:48.46 | 164235 | 185880
12 | 41:18.31 | 2:51.39 | 185881 | 198744
13 | 44:09.70 | 3:54.24 | 198745 | 216318
14 | 48:04.19 | 4:09.52 | 216319 | 235045
15 | 52:13.71 | 2:12.17 | 235046 | 244962
16 | 54:26.13 | 3:36.28 | 244963 | 261190
17 | 58:02.41 | 5:44.61 | 261191 | 287051
18 | 63:47.27 | 4:33.06 | 287052 | 307532
19 | 68:20.33 | 5:27.19 | 307533 | 332076


Track 1

Filename C:\Users\Rob\Desktop\Uploads\Jethro Tull - Too Old To Rock 'N' Roll, Too Young To Die (1976) [FLAC] (2015 The TV Special Edition 2 CD + 2 DVD)\CD 2\01 - Salamander's Rag Time.wav

Pre-gap length 0:00:02.00

Peak level 99.1 %
Extraction speed 5.7 X
Track quality 100.0 %
Test CRC 335F211A
Copy CRC 335F211A
Accurately ripped (confidence 3) [6E31BD40] (AR v2)
Copy OK

Track 2

Filename C:\Users\Rob\Desktop\Uploads\Jethro Tull - Too Old To Rock 'N' Roll, Too Young To Die (1976) [FLAC] (2015 The TV Special Edition 2 CD + 2 DVD)\CD 2\02 - Commercial Traveller.wav

Peak level 99.3 %
Extraction speed 6.2 X
Track quality 100.0 %
Test CRC 4B172F00
Copy CRC 4B172F00
Accurately ripped (confidence 3) [FE4E9152] (AR v2)
Copy OK

Track 3

Filename C:\Users\Rob\Desktop\Uploads\Jethro Tull - Too Old To Rock 'N' Roll, Too Young To Die (1976) [FLAC] (2015 The TV Special Edition 2 CD + 2 DVD)\CD 2\03 - Salamander (Instrumental).wav

Pre-gap length 0:00:00.01

Peak level 32.4 %
Extraction speed 5.3 X
Track quality 99.9 %
Test CRC 17C41E87
Copy CRC 17C41E87
Accurately ripped (confidence 3) [9A96F4DD] (AR v2)
Copy OK

Track 4

Filename C:\Users\Rob\Desktop\Uploads\Jethro Tull - Too Old To Rock 'N' Roll, Too Young To Die (1976) [FLAC] (2015 The TV Special Edition 2 CD + 2 DVD)\CD 2\04 - A Small Cigar (Acoustic Version).wav

Peak level 46.1 %
Extraction speed 7.1 X
Track quality 100.0 %
Test CRC FEF572D7
Copy CRC FEF572D7
Accurately ripped (confidence 3) [E9909051] (AR v2)
Copy OK

Track 5

Filename C:\Users\Rob\Desktop\Uploads\Jethro Tull - Too Old To Rock 'N' Roll, Too Young To Die (1976) [FLAC] (2015 The TV Special Edition 2 CD + 2 DVD)\CD 2\05 - Strip Cartoon.wav

Peak level 99.5 %
Extraction speed 7.3 X
Track quality 100.0 %
Test CRC 492B42A3
Copy CRC 492B42A3
Accurately ripped (confidence 3) [BA7D183B] (AR v2)
Copy OK

Track 6

Filename C:\Users\Rob\Desktop\Uploads\Jethro Tull - Too Old To Rock 'N' Roll, Too Young To Die (1976) [FLAC] (2015 The TV Special Edition 2 CD + 2 DVD)\CD 2\06 - One Brown Mouse (Early Version).wav

Peak level 78.8 %
Extraction speed 7.8 X
Track quality 100.0 %
Test CRC 271B4030
Copy CRC 271B4030
Accurately ripped (confidence 3) [74035E12] (AR v2)
Copy OK

Track 7

Filename C:\Users\Rob\Desktop\Uploads\Jethro Tull - Too Old To Rock 'N' Roll, Too Young To Die (1976) [FLAC] (2015 The TV Special Edition 2 CD + 2 DVD)\CD 2\07 - A Small Cigar (Orchestral Version).wav

Peak level 66.6 %
Extraction speed 8.4 X
Track quality 100.0 %
Test CRC 54F86E42
Copy CRC 54F86E42
Accurately ripped (confidence 3) [959AF13B] (AR v2)
Copy OK

Track 8

Filename C:\Users\Rob\Desktop\Uploads\Jethro Tull - Too Old To Rock 'N' Roll, Too Young To Die (1976) [FLAC] (2015 The TV Special Edition 2 CD + 2 DVD)\CD 2\08 - Too Old To Rock 'N' Roll, Too Young To Die (Demo).wav

Peak level 92.6 %
Extraction speed 9.3 X
Track quality 100.0 %
Test CRC AC807849
Copy CRC AC807849
Accurately ripped (confidence 3) [D92BA7E3] (AR v2)
Copy OK

Track 9

Filename C:\Users\Rob\Desktop\Uploads\Jethro Tull - Too Old To Rock 'N' Roll, Too Young To Die (1976) [FLAC] (2015 The TV Special Edition 2 CD + 2 DVD)\CD 2\09 - Prelude.wav

Peak level 60.6 %
Extraction speed 3.8 X
Track quality 99.8 %
Test CRC F15366C0
Copy CRC F15366C0
Accurately ripped (confidence 3) [DA9A76B6] (AR v2)
Copy OK

Track 10

Filename C:\Users\Rob\Desktop\Uploads\Jethro Tull - Too Old To Rock 'N' Roll, Too Young To Die (1976) [FLAC] (2015 The TV Special Edition 2 CD + 2 DVD)\CD 2\10 - Quiz Kid.wav

Peak level 100.0 %
Extraction speed 9.3 X
Track quality 100.0 %
Test CRC 0AE09818
Copy CRC 0AE09818
Accurately ripped (confidence 3) [11A6A07C] (AR v2)
Copy OK

Track 11

Filename C:\Users\Rob\Desktop\Uploads\Jethro Tull - Too Old To Rock 'N' Roll, Too Young To Die (1976) [FLAC] (2015 The TV Special Edition 2 CD + 2 DVD)\CD 2\11 - Crazed Institution.wav

Peak level 100.0 %
Extraction speed 10.0 X
Track quality 100.0 %
Test CRC ED284CFB
Copy CRC ED284CFB
Accurately ripped (confidence 3) [486D81CE] (AR v2)
Copy OK

Track 12

Filename C:\Users\Rob\Desktop\Uploads\Jethro Tull - Too Old To Rock 'N' Roll, Too Young To Die (1976) [FLAC] (2015 The TV Special Edition 2 CD + 2 DVD)\CD 2\12 - Salamander.wav

Peak level 97.8 %
Extraction speed 9.5 X
Track quality 100.0 %
Test CRC 25CDD6BA
Copy CRC 25CDD6BA
Accurately ripped (confidence 3) [EEEABB7A] (AR v2)
Copy OK

Track 13

Filename C:\Users\Rob\Desktop\Uploads\Jethro Tull - Too Old To Rock 'N' Roll, Too Young To Die (1976) [FLAC] (2015 The TV Special Edition 2 CD + 2 DVD)\CD 2\13 - Taxi Grab.wav

Peak level 100.0 %
Extraction speed 10.2 X
Track quality 100.0 %
Test CRC 9186F8A0
Copy CRC 9186F8A0
Accurately ripped (confidence 3) [0EF7F5BF] (AR v2)
Copy OK

Track 14

Filename C:\Users\Rob\Desktop\Uploads\Jethro Tull - Too Old To Rock 'N' Roll, Too Young To Die (1976) [FLAC] (2015 The TV Special Edition 2 CD + 2 DVD)\CD 2\14 - From A Dead Beat To An Old Greaser.wav

Peak level 58.9 %
Extraction speed 10.5 X
Track quality 100.0 %
Test CRC F5926040
Copy CRC F5926040
Accurately ripped (confidence 3) [0BA963A0] (AR v2)
Copy OK

Track 15

Filename C:\Users\Rob\Desktop\Uploads\Jethro Tull - Too Old To Rock 'N' Roll, Too Young To Die (1976) [FLAC] (2015 The TV Special Edition 2 CD + 2 DVD)\CD 2\15 - Bad Eyed And Loveless.wav

Peak level 64.2 %
Extraction speed 9.8 X
Track quality 100.0 %
Test CRC 12DD2336
Copy CRC 12DD2336
Accurately ripped (confidence 3) [F35DF01E] (AR v2)
Copy OK

Track 16

Filename C:\Users\Rob\Desktop\Uploads\Jethro Tull - Too Old To Rock 'N' Roll, Too Young To Die (1976) [FLAC] (2015 The TV Special Edition 2 CD + 2 DVD)\CD 2\16 - Big Dipper.wav

Peak level 100.0 %
Extraction speed 10.9 X
Track quality 100.0 %
Test CRC 66D11127
Copy CRC 66D11127
Accurately ripped (confidence 3) [20C2379C] (AR v2)
Copy OK

Track 17

Filename C:\Users\Rob\Desktop\Uploads\Jethro Tull - Too Old To Rock 'N' Roll, Too Young To Die (1976) [FLAC] (2015 The TV Special Edition 2 CD + 2 DVD)\CD 2\17 - Too Old To Rock 'N' Roll, Too Young To Die.wav

Peak level 100.0 %
Extraction speed 11.8 X
Track quality 100.0 %
Test CRC 7FE1BD63
Copy CRC 7FE1BD63
Accurately ripped (confidence 3) [BA7C0C30] (AR v2)
Copy OK

Track 18

Filename C:\Users\Rob\Desktop\Uploads\Jethro Tull - Too Old To Rock 'N' Roll, Too Young To Die (1976) [FLAC] (2015 The TV Special Edition 2 CD + 2 DVD)\CD 2\18 - Pied Piper.wav

Peak level 99.4 %
Extraction speed 11.9 X
Track quality 100.0 %
Test CRC 6C79ABA5
Copy CRC 6C79ABA5
Accurately ripped (confidence 3) [9C74D277] (AR v2)
Copy OK

Track 19

Filename C:\Users\Rob\Desktop\Uploads\Jethro Tull - Too Old To Rock 'N' Roll, Too Young To Die (1976) [FLAC] (2015 The TV Special Edition 2 CD + 2 DVD)\CD 2\19 - The Chequered Flag (Dead Or Alive).wav

Peak level 72.4 %
Extraction speed 12.4 X
Track quality 100.0 %
Test CRC 965E219E
Copy CRC 965E219E
Accurately ripped (confidence 3) [8F0A74B5] (AR v2)
Copy OK


All tracks accurately ripped

No errors occurred

End of status report

==== Log checksum 70C04AD9DF83F24A9944D2345DBB91C56EB34CDAF0656BCA631720D5CF8864A8 ====


Clone process started: 15:53:00
Clone process completed successfully: 16:02:24
Process completed successfully!: 16:02:29
==
Clone process started: 16:04:37
Clone process completed successfully: 16:12:32
Process completed successfully!: 16:12:37



Jethro Tull - Too Old To Rock 'N' Roll, Too Young To Die (1976) {2015 The TV Special Deluxe Edition 2 CD + 2 DVD}

Jethro Tull - Too Old To Rock 'N' Roll, Too Young To Die (1976) {2015 The TV Special Deluxe Edition 2 CD + 2 DVD}

Jethro Tull - Too Old To Rock 'N' Roll, Too Young To Die (1976) {2015 The TV Special Deluxe Edition 2 CD + 2 DVD}

Jethro Tull - Too Old To Rock 'N' Roll, Too Young To Die (1976) {2015 The TV Special Deluxe Edition 2 CD + 2 DVD}

Jethro Tull - Too Old To Rock 'N' Roll, Too Young To Die (1976) {2015 The TV Special Deluxe Edition 2 CD + 2 DVD}

Jethro Tull - Too Old To Rock 'N' Roll, Too Young To Die (1976) {2015 The TV Special Deluxe Edition 2 CD + 2 DVD}



===