Subcategories

Jimmy Heath Quintet - On The Trail (1964) {Riverside OJCCD-1854-2 rel 1994}

Posted By: ruskaval
Jimmy Heath Quintet - On The Trail (1964) {Riverside OJCCD-1854-2 rel 1994}

Jimmy Heath Quintet - On The Trail (1964) {Riverside OJCCD-1854-2 rel 1994}
EAC rip (secure mode) | FLAC (tracks)+CUE+LOG -> 232 Mb | MP3 @320 -> 89 Mb
Full Artwork @ 300 dpi (jpg) -> 9 Mb | 5% repair rar
© 1964, 1994 Riverside / OJC / Fantasy | OJCCD-1854-2
Jazz / Hard Bop / Saxophone

Unlike some of his other Riverside recordings, the accent on this Jimmy Heath CD reissue is very much on his tenor playing (rather than his arrangements). Heath is in excellent form with a quintet that also includes pianist Wynton Kelly, guitarist Kenny Burrell, bassist Paul Chambers, and drummer Albert "Tootie" Heath. The instantly recognizable hard bop saxophonist performs four standards and three of his own compositions, including the original versions of "Gingerbread Boy" and "Project S." It's a good example of his playing talents.

Personnel:
Jimmy Heath - tenor saxophone
Kenny Burrell - guitar
Wynton Kelly - piano
Paul Chambers - bass
Albert "Tootie"Heath - drums

tracklist:
01 - On the Trail
02 - Cloak and Dagger
03 - Vanity
04 - All the Things You Are
05 - Gingerbread Boy
06 - I Should Care
07 - Project S

Exact Audio Copy V0.99 prebeta 3 from 28. July 2007

EAC extraction logfile from 28. January 2008, 22:20

Jimmy Heath / On The Trail

Used drive : TSSTcorpDVD+-RW TS-H553A Adapter: 0 ID: 2

Read mode : Secure
Utilize accurate stream : Yes
Defeat audio cache : Yes
Make use of C2 pointers : No

Read offset correction : 6
Overread into Lead-In and Lead-Out : No
Fill up missing offset samples with silence : Yes
Delete leading and trailing silent blocks : No
Null samples used in CRC calculations : Yes
Used interface : Native Win32 interface for Win NT & 2000
Gap handling : Appended to previous track

Used output format : User Defined Encoder
Selected bitrate : 768 kBit/s
Quality : High
Add ID3 tag : No
Command line compressor : C:\Program Files\Exact Audio Copy\FLAC\FLAC.EXE
Additional command line options : -6 -V -T "ARTIST=%a" -T "TITLE=%t" -T "ALBUM=%g" -T "DATE=%y" -T "TRACKNUMBER=%n" -T "GENRE=%m" -T "COMMENT=%e" %s -o %d


TOC of the extracted CD

Track | Start | Length | Start sector | End sector
––––––––––––––––––––––––––––-
1 | 0:00.00 | 5:07.65 | 0 | 23089
2 | 5:07.65 | 4:20.70 | 23090 | 42659
3 | 9:28.60 | 4:40.42 | 42660 | 63701
4 | 14:09.27 | 5:22.00 | 63702 | 87851
5 | 19:31.27 | 5:32.48 | 87852 | 112799
6 | 25:04.00 | 5:16.40 | 112800 | 136539
7 | 30:20.40 | 8:02.50 | 136540 | 172739


Track 1

Filename K:\New Rips\Jimmy Heath - On The Trail (1964) [FLAC]\01 - On The Trail.wav

Pre-gap length 0:00:02.00

Peak level 99.7 %
Track quality 100.0 %
Test CRC CFDE52D2
Copy CRC CFDE52D2
Track not present in AccurateRip database
Copy OK

Track 2

Filename K:\New Rips\Jimmy Heath - On The Trail (1964) [FLAC]\02 - Cloak And Dagger.wav

Pre-gap length 0:00:02.50

Peak level 99.5 %
Track quality 100.0 %
Test CRC A2BF132C
Copy CRC A2BF132C
Track not present in AccurateRip database
Copy OK

Track 3

Filename K:\New Rips\Jimmy Heath - On The Trail (1964) [FLAC]\03 - Vanity.wav

Pre-gap length 0:00:02.70

Peak level 84.6 %
Track quality 99.9 %
Test CRC C5E5C79F
Copy CRC C5E5C79F
Track not present in AccurateRip database
Copy OK

Track 4

Filename K:\New Rips\Jimmy Heath - On The Trail (1964) [FLAC]\04 - All The Things You Are.wav

Pre-gap length 0:00:02.66

Peak level 92.6 %
Track quality 100.0 %
Test CRC 08AE6ACD
Copy CRC 08AE6ACD
Track not present in AccurateRip database
Copy OK

Track 5

Filename K:\New Rips\Jimmy Heath - On The Trail (1964) [FLAC]\05 - Gingerbread Box.wav

Pre-gap length 0:00:02.20

Peak level 100.0 %
Track quality 100.0 %
Test CRC 35B9BF36
Copy CRC 35B9BF36
Track not present in AccurateRip database
Copy OK

Track 6

Filename K:\New Rips\Jimmy Heath - On The Trail (1964) [FLAC]\06 - I Should Care.wav

Pre-gap length 0:00:03.66

Peak level 99.2 %
Track quality 100.0 %
Test CRC 61DB4F0A
Copy CRC 61DB4F0A
Track not present in AccurateRip database
Copy OK

Track 7

Filename K:\New Rips\Jimmy Heath - On The Trail (1964) [FLAC]\07 - Project S.wav

Pre-gap length 0:00:02.24

Peak level 93.4 %
Track quality 100.0 %
Test CRC DF0D7C3A
Copy CRC DF0D7C3A
Track not present in AccurateRip database
Copy OK


None of the tracks are present in the AccurateRip database

No errors occurred

End of status report


Jimmy Heath Quintet - On The Trail (1964) {Riverside OJCCD-1854-2 rel 1994}

Jimmy Heath Quintet - On The Trail (1964) {Riverside OJCCD-1854-2 rel 1994}



===