Subcategories

Jimmy Ponder - Mean Streets-No Bridges (1987) {Muse MCD5324}

Posted By: ruskaval
Jimmy Ponder - Mean Streets-No Bridges (1987) {Muse MCD5324}

Jimmy Ponder - Mean Streets-No Bridges (1987) {Muse MCD5324}
EAC rip (secure mode) | FLAC (tracks)+CUE+LOG -> 223 Mb | MP3 @320 -> 90 Mb
Full Artwork @ 300 dpi (jpg) -> 10 Mb | 5% repair rar
© 1987 Muse Records | MCD 5324
Jazz / Soul Jazz / Jazz Blues / Guitar

An '87 recording of prototype Ponder; soul jazz and blues played with energy and a slick, yet resourceful conviction. Ponder has never gotten the profile or the exposure he deserves; he doesn't use gimmicks or crank up the volume, but his tasty fills, clever riffs, and crisp, bluesy solos are always worthwhile.
Ponder’s first album for Muse, Mean Streets-No Bridges, includes a mix of standards, ballads, Latin-jazz, and funky instrumentals. As is characteristic of his following albums, Mean Streets opens with a riff-based shuffle blues (“Next Time You See Me”), which features riff-melodies and blues improvisations that formed the core of his “chitlin circuit” performances. Absent is any need to alter the song form and harmonic language or demonstrate the technical prowess of the bebop era. The musicians are unanimously focused on “just swinging” and creating the right feel. The second track of Mean Streets is a funky cover of the popular Burt Bacharach hit “They Long To Be Close To You,” hailing to the crossover days of interpreting chart-toppers. The choice vocal standard “Time After Time” features Ponder singing with the affect of a Gospel or R&B singer, adding an element of seduction to the album. Mean Streets provides a model for Ponder’s following albums in that it featured a variety of stylistic influences as well as song choices. This approach hails from the “chitlin circuit” where audiences expected a diverse yet blues-rooted selection of music.

Musicians
Guitar, Vocals Jimmy Ponder
Organ Big John Patton
Guitar Geary Moore
Flute, Saxophone Bill Saxton
Drums Greg Bandy

Track Listing
01 Next Time You See Me 04:15
02 They Long To Be Close To You 04:46
03 Time After Time 05:04
04 Mean Street - No Bridges 06:50
05 Solitude 07:15
06 I Only Have Eyes For You 04:35
07 After The Rain 05:06

Exact Audio Copy V1.0 beta 3 from 29. August 2011

EAC extraction logfile from 6. January 2015, 10:04

Jimmy Ponder / Mean Streets No Bridges

Used drive : SONY DVD RW DRU-810A Adapter: 1 ID: 0

Read mode : Secure
Utilize accurate stream : Yes
Defeat audio cache : Yes
Make use of C2 pointers : No

Read offset correction : 618
Overread into Lead-In and Lead-Out : No
Fill up missing offset samples with silence : Yes
Delete leading and trailing silent blocks : No
Null samples used in CRC calculations : Yes
Used interface : Native Win32 interface for Win NT & 2000
Gap handling : Appended to previous track

Used output format : User Defined Encoder
Selected bitrate : 128 kBit/s
Quality : High
Add ID3 tag : No
Command line compressor : C:\Program Files (x86)\Exact Audio Copy\Flac\flac.exe
Additional command line options : -8 -V -T "ARTIST=%artist%" -T "TITLE=%title%" -T "ALBUM=%albumtitle%" -T "DATE=%year%" -T "TRACKNUMBER=%tracknr%" -T "TOTALTRACKS=%numtracks%" -T "GENRE=%genre%" -T "ALBUMARTIST=%albumartist%" -T "ALBUM ARTIST=%albumartist%" -T "COMMENT=EAC Secure Mode, Test & Copy, AccurateRip, FLAC -8" %source%


TOC of the extracted CD

Track | Start | Length | Start sector | End sector
––––––––––––––––––––––––––––-
1 | 0:00.00 | 4:23.32 | 0 | 19756
2 | 4:23.32 | 4:52.45 | 19757 | 41701
3 | 9:16.02 | 5:10.08 | 41702 | 64959
4 | 14:26.10 | 7:02.60 | 64960 | 96669
5 | 21:28.70 | 7:27.17 | 96670 | 130211
6 | 28:56.12 | 4:38.73 | 130212 | 151134
7 | 33:35.10 | 5:08.40 | 151135 | 174274


Track 1

Filename F:\New Rips\Jimmy Ponder - Mean Streets No Bridges (1987) [FLAC]\01 - Next Time You See Me.wav

Pre-gap length 0:00:02.00

Peak level 100.0 %
Extraction speed 4.5 X
Track quality 100.0 %
Test CRC 7085B0CB
Copy CRC 7085B0CB
Track not present in AccurateRip database
Copy OK

Track 2

Filename F:\New Rips\Jimmy Ponder - Mean Streets No Bridges (1987) [FLAC]\02 - They Long To Be Close To You.wav

Pre-gap length 0:00:03.45

Peak level 100.0 %
Extraction speed 5.1 X
Track quality 100.0 %
Test CRC BE107BF6
Copy CRC BE107BF6
Track not present in AccurateRip database
Copy OK

Track 3

Filename F:\New Rips\Jimmy Ponder - Mean Streets No Bridges (1987) [FLAC]\03 - Time After Time.wav

Pre-gap length 0:00:03.67

Peak level 100.0 %
Extraction speed 5.0 X
Track quality 99.9 %
Test CRC 2CB03B07
Copy CRC 2CB03B07
Track not present in AccurateRip database
Copy OK

Track 4

Filename F:\New Rips\Jimmy Ponder - Mean Streets No Bridges (1987) [FLAC]\04 - Mean Streets No Bridges.wav

Pre-gap length 0:00:03.50

Peak level 99.3 %
Extraction speed 6.4 X
Track quality 100.0 %
Test CRC 3ABDD887
Copy CRC 3ABDD887
Track not present in AccurateRip database
Copy OK

Track 5

Filename F:\New Rips\Jimmy Ponder - Mean Streets No Bridges (1987) [FLAC]\05 - Solitude.wav

Pre-gap length 0:00:06.10

Peak level 99.9 %
Extraction speed 7.0 X
Track quality 100.0 %
Test CRC 1DD059DF
Copy CRC 1DD059DF
Track not present in AccurateRip database
Copy OK

Track 6

Filename F:\New Rips\Jimmy Ponder - Mean Streets No Bridges (1987) [FLAC]\06 - I Only Have Eyes For You.wav

Pre-gap length 0:00:03.00

Peak level 99.5 %
Extraction speed 7.2 X
Track quality 100.0 %
Test CRC 4C29CFEF
Copy CRC 4C29CFEF
Track not present in AccurateRip database
Copy OK

Track 7

Filename F:\New Rips\Jimmy Ponder - Mean Streets No Bridges (1987) [FLAC]\07 - After The Rain.wav

Pre-gap length 0:00:03.33

Peak level 92.1 %
Extraction speed 7.5 X
Track quality 100.0 %
Test CRC 6B0D409A
Copy CRC 6B0D409A
Track not present in AccurateRip database
Copy OK


None of the tracks are present in the AccurateRip database

No errors occurred

End of status report

–– CUETools DB Plugin V2.1.3

[CTDB TOCID: cpk.dBjdPiLnF8ram3_cR0czGJg-] disk not present in database, Submit result: cpk.dBjdPiLnF8ram3_cR0czGJg- has been uploaded


==== Log checksum A1DBAA5B3DBC03E388B39AF88F5BF1AF79EFFF8C5A5464985B1CD9945C8B6CEC ====


Jimmy Ponder - Mean Streets-No Bridges (1987) {Muse MCD5324}

Jimmy Ponder - Mean Streets-No Bridges (1987) {Muse MCD5324}



===