Subcategories

Joe Harriott & John Mayer Double Quintet - Indo-Jazz Fusions I & II (1967-1968/1998)

Posted By: Domestos
Joe Harriott & John Mayer Double Quintet - Indo-Jazz Fusions I & II (1967-1968/1998)

Joe Harriott & John Mayer Double Quintet - Indo-Jazz Fusions I & II (1967-1968/1998)
EAC Rip | FLAC (tracks+.cue, log) ~ 455.10 Mb + 29.11 Mb (Scans) | 76:56
World Fusion, Free Improvisation | Label: Redial/PolyGram - 538 048-2

Joe Harriott's music goes virtually unheard today, yet the alto saxophonist exerted a powerful influence on early free jazz in England. The Jamaican-born and raised Harriott played with his countrymen, trumpeter Dizzy Reece and tenor saxophonist Wilton "Bogey" Gaynair, before emigrating to England in 1951. In London, Harriott worked freelance and in the band of trumpeter Pete Pitterson. In 1954, he landed an important gig with drummer Tony Kinsey; the next year he played in saxophonist Ronnie Scott's big band.

His first album as a leader was 1959's Southern Horizon. Originally a bop-oriented player, Harriott gradually grew away from the conventions of that style. During a 1960 hospital stay, Harriott envisaged a new method of improvisation that, to an extent, paralleled the innovations of Ornette Coleman. Harriott was initially branded a mere imitator of Coleman, but close listening to both men reveals distinct differences in their respective styles. Harriott manifested a more explicit philosophical connection with bebop, for one thing, and his music was more concerned with ensemble interaction than was Coleman's early work. The 1960 album Free Form, which included trumpeter Shake Keane, pianist Pat Smythe, bassist Coleridge Goode, and drummer Phil Seaman, illustrated Harriott's new techniques. Beginning in 1965, he began fusing jazz with various types of world folk musics. He collaborated with Indian musician John Mayer on a record – 1967's Indo-Jazz Suite – that utilized modal and free jazz procedures. The album's traditional jazz quintet instrumentation was augmented by a violin, sitar, tambura, and tabla. Harriott's recorded output was scarce and virtually none of it remains in print. ~ Chris Kelsey

Track List:
Indo-Jazz Fusions I (1967)
01. Partita (Mayer) - 17:25
02. Multani (Mayer) - 11:27
03. Gana (Mayer) - 2:09
04. Acka Raga (Mayer-Harriott) - 2:44
05. Subject (Mayer) - 6:23
Indo-Jazz Fusions II (1968)
06. Raga Piloo (Mayer) - 8:33
07. "Song" Before "Sunrise" (Mayer) - 10:56
08. Purvi Variations (Mayer) - 8:47
09. Mishra Blues (Mayer-Smythe) - 8:32

Joe Harriott - alto saxophone (#1-3,5-9)
Shake Keane (#1-3, 5), Kenny Wheeler (#6-9) - trumpet, flugelhorn
Pat Smythe - piano
Coleridge Goode - bass
Alan Ganley (#1-5), Jackie Dougan (#6-9) - drums
John Mayer - violin, harpsichord (#1-5)
Diwan Motihar - sitar
Chandrahas Paigankar - tambura
Keshav Sathe - tabla
Chris Taylor - flute

Joe Harriott & John Mayer Double Quintet - Indo-Jazz Fusions I & II (1967-1968/1998)

Exact Audio Copy V1.3 from 2. September 2016

EAC extraction logfile from 14. April 2018, 13:51

Joe Harriott and John Mayer Double Quintet / Indo-Jazz Fusion 1&2

Used drive : MATSHITADVD-RAM UJ8C2 Adapter: 1 ID: 0

Read mode : Secure
Utilize accurate stream : Yes
Defeat audio cache : Yes
Make use of C2 pointers : No

Read offset correction : 103
Overread into Lead-In and Lead-Out : No
Fill up missing offset samples with silence : Yes
Delete leading and trailing silent blocks : No
Null samples used in CRC calculations : Yes
Used interface : Native Win32 interface for Win NT & 2000
Gap handling : Appended to previous track

Used output format : User Defined Encoder
Selected bitrate : 1024 kBit/s
Quality : High
Add ID3 tag : No
Command line compressor : C:\Program Files\Exact Audio Copy\FLAC\FLAC.EXE
Additional command line options : -8 -e -p -V -T "ARTIST=%artist%" -T "TITLE=%title%" -T "ALBUM=%albumtitle%" -T "DATE=%year%" -T "TRACKNUMBER=%tracknr%" -T "GENRE=%genre%" -T "PERFORMER=%albuminterpret%" -T "COMPOSER=%composer%" %haslyrics%–tag-from-file=LYRICS="%lyricsfile%"%haslyrics% -T "ALBUMARTIST=%albumartist%" -T "DISCNUMBER=%cdnumber%" -T "TOTALDISCS=%totalcds%" -T "TOTALTRACKS=%numtracks%" -T "COMMENT=%comment%" %source% -o %dest%

TOC of the extracted CD

Track | Start | Length | Start sector | End sector
––––––––––––––––––––––––––––-
1 | 0:00.00 | 17:24.66 | 0 | 78365
2 | 17:24.66 | 11:27.33 | 78366 | 129923
3 | 28:52.24 | 2:09.08 | 129924 | 139606
4 | 31:01.32 | 2:44.20 | 139607 | 151926
5 | 33:45.52 | 6:22.42 | 151927 | 180618
6 | 40:08.19 | 8:33.01 | 180619 | 219094
7 | 48:41.20 | 10:55.71 | 219095 | 268290
8 | 59:37.16 | 8:47.11 | 268291 | 307826
9 | 68:24.27 | 8:32.00 | 307827 | 346226

Track 1

Filename Z:\tmp\EAC\Joe Harriott & John Mayer Double Quintet - Indo-Jazz Fusions 1 & 2 (1968) [FLAC]\01 Partita.wav

Pre-gap length 0:00:02.00

Peak level 84.0 %
Extraction speed 3.3 X
Track quality 100.0 %
Test CRC 71F34F44
Copy CRC 71F34F44
Cannot be verified as accurate (confidence 8) [12959A02], AccurateRip returned [5D4349B7] (AR v2)
Copy OK

Track 2

Filename Z:\tmp\EAC\Joe Harriott & John Mayer Double Quintet - Indo-Jazz Fusions 1 & 2 (1968) [FLAC]\02 Multani.wav

Pre-gap length 0:00:02.32

Peak level 80.0 %
Extraction speed 4.0 X
Track quality 100.0 %
Test CRC B3333AE7
Copy CRC B3333AE7
Cannot be verified as accurate (confidence 8) [D8BDFC01], AccurateRip returned [C1E575B2] (AR v2)
Copy OK

Track 3

Filename Z:\tmp\EAC\Joe Harriott & John Mayer Double Quintet - Indo-Jazz Fusions 1 & 2 (1968) [FLAC]\03 Gana.wav

Pre-gap length 0:00:03.05

Peak level 62.5 %
Extraction speed 2.2 X
Track quality 99.9 %
Test CRC 891B85EF
Copy CRC 891B85EF
Cannot be verified as accurate (confidence 8) [5D2A481B], AccurateRip returned [222E48BB] (AR v2)
Copy OK

Track 4

Filename Z:\tmp\EAC\Joe Harriott & John Mayer Double Quintet - Indo-Jazz Fusions 1 & 2 (1968) [FLAC]\04 Acka Raga.wav

Pre-gap length 0:00:02.60

Peak level 73.4 %
Extraction speed 3.8 X
Track quality 100.0 %
Test CRC C08A87AB
Copy CRC C08A87AB
Cannot be verified as accurate (confidence 8) [A0067B55], AccurateRip returned [5EF8976B] (AR v2)
Copy OK

Track 5

Filename Z:\tmp\EAC\Joe Harriott & John Mayer Double Quintet - Indo-Jazz Fusions 1 & 2 (1968) [FLAC]\05 Subject.wav

Pre-gap length 0:00:03.00

Peak level 74.0 %
Extraction speed 4.5 X
Track quality 100.0 %
Test CRC 8A16A339
Copy CRC 8A16A339
Cannot be verified as accurate (confidence 8) [9DC5A217], AccurateRip returned [36AD6519] (AR v2)
Copy OK

Track 6

Filename Z:\tmp\EAC\Joe Harriott & John Mayer Double Quintet - Indo-Jazz Fusions 1 & 2 (1968) [FLAC]\06 Raga Piloo.wav

Pre-gap length 0:00:01.84

Peak level 77.2 %
Extraction speed 4.9 X
Track quality 100.0 %
Test CRC BC9B5582
Copy CRC BC9B5582
Cannot be verified as accurate (confidence 8) [7CA18E79], AccurateRip returned [D043550F] (AR v2)
Copy OK

Track 7

Filename Z:\tmp\EAC\Joe Harriott & John Mayer Double Quintet - Indo-Jazz Fusions 1 & 2 (1968) [FLAC]\07 Song Before Sunrise.wav

Pre-gap length 0:00:02.84

Peak level 75.8 %
Extraction speed 5.3 X
Track quality 100.0 %
Test CRC 800758C1
Copy CRC 800758C1
Cannot be verified as accurate (confidence 8) [990347BD], AccurateRip returned [2224AE31] (AR v2)
Copy OK

Track 8

Filename Z:\tmp\EAC\Joe Harriott & John Mayer Double Quintet - Indo-Jazz Fusions 1 & 2 (1968) [FLAC]\08 Purvi Variations.wav

Pre-gap length 0:00:02.33

Peak level 81.0 %
Extraction speed 5.5 X
Track quality 100.0 %
Test CRC 271662EE
Copy CRC 271662EE
Cannot be verified as accurate (confidence 8) [D055E598], AccurateRip returned [AB0CED5D] (AR v2)
Copy OK

Track 9

Filename Z:\tmp\EAC\Joe Harriott & John Mayer Double Quintet - Indo-Jazz Fusions 1 & 2 (1968) [FLAC]\09 Mishra Blues.wav

Pre-gap length 0:00:03.52

Peak level 79.2 %
Extraction speed 5.8 X
Track quality 100.0 %
Test CRC 08721F19
Copy CRC 08721F19
Cannot be verified as accurate (confidence 8) [5E140972], AccurateRip returned [86625C89] (AR v2)
Copy OK

No tracks could be verified as accurate
You may have a different pressing from the one(s) in the database

No errors occurred

End of status report

==== Log checksum 0046DD9003553B8553BEA90BD7E2A5CD7CB633B3A665835EB99C449C1B5CF73B ====

All thanks go to the wicing

More Music in My Blog
Follow My RSS Channel