Subcategories

Joe Henderson - Big Band (1996) {PROPER}

Posted By: Bezz
Joe Henderson - Big Band (1996) {PROPER}

Joe Henderson - Big Band (1996) {PROPER}
EAC rip | FLAC+CUE+LOG | Scans | 370 Mb (Incl. Recovery)
Genre ~ Hard Bop, Post-Bop, Saxophone Jazz | Label ~ Verve Music Group

On this 1996 recording, improbably the first to ever feature him leading a big band, the inimitable Joe Henderson assembled nine compositions (seven of which were self-penned) and a topnotch band for a very interesting record. Volumes have been written about Henderson as a soloist but, on Big Band, even the longest-term Henderson fan gets to hear his prodigious skills as a big band arranger for the first time. Influenced by Bill Holman and Bill Russo as much as by classical composers Igor Stravinsky and Bela Bartok, his charts are cool and sophisticated. Of course, Henderson's cause is helped by the absolutely unquestioned majesty of the core material, as well as a fine batch of co-soloists, including Chick Corea, Christian McBride, and Freddie Hubbard. The Slide Hampton-arranged "Isotope" is one of the finest moments on the record, with an almost amusingly dramatic introduction that evokes a film noir score before it accelerates into the famous theme. Corea's solo is absolutely masterful, a headlong rush into nothingness that somehow manages to land on its feet. When laid side by side, his solos often outstrip the leader's in their inventiveness and capability to draw the listener into the song. This is not, however, to downplay the contributions of the leader as a soloist; Henderson's tenor is as lovely as ever. Fantastic solos notwithstanding, it is the wonderful arrangements of these deservedly classic songs that make this album so valuable. Listen to the Robin Eubanks-led trombone section in "A Shade of Jade" for a quick taste of what it sounds like when everything about a big band comes together just so. There is not a lot to dislike about Joe Henderson's first recorded foray into big-band arranging. Recommended. ~ AllMusic
Tracklist

1. Without a Song (Eliscu, Rose, Youmans) 5:24
2. Isotope (Henderson) 5:21
3. Inner Urge (Henderson) 9:01
4. Black Narcissus (Henderson) 6:53
5. A Shade of Jade (Henderson) 8:22
6. Step Lightly (Henderson) 7:19
7. Serenity (Henderson) 5:52
8. Chelsea Bridge (Strayhorn) 4:29
9. Recorda Me (Henderson) 7:24

Exact Audio Copy V0.99 prebeta 3 from 28. July 2007

EAC extraction logfile from 22. September 2007, 17:32

Joe Henderson / Big Band (1996)

Used drive : SUPERA DSM-6S165P Adapter: 1 ID: 0

Read mode : Secure
Utilize accurate stream : Yes
Defeat audio cache : Yes
Make use of C2 pointers : Yes

Read offset correction : 6
Overread into Lead-In and Lead-Out : No
Fill up missing offset samples with silence : Yes
Delete leading and trailing silent blocks : No
Null samples used in CRC calculations : No
Used interface : Native Win32 interface for Win NT & 2000
Gap handling : Appended to previous track

Used output format : User Defined Encoder
Selected bitrate : 768 kBit/s
Quality : High
Add ID3 tag : No
Command line compressor : C:\Program Files\Exact Audio Copy\FLAC\FLAC.EXE
Additional command line options : -8 -V -T "ARTIST=%a" -T "TITLE=%t" -T "ALBUM=%g" -T "DATE=%y" -T "TRACKNUMBER=%n" -T "GENRE=%m" -T "COMMENT=%e" %s -o %d

TOC of the extracted CD

Track | Start | Length | Start sector | End sector
––––––––––––––––––––––––––––-
1 | 0:00.00 | 5:24.15 | 0 | 24314
2 | 5:24.15 | 5:20.67 | 24315 | 48381
3 | 10:45.07 | 9:01.13 | 48382 | 88969
4 | 19:46.20 | 6:53.17 | 88970 | 119961
5 | 26:39.37 | 8:22.38 | 119962 | 157649
6 | 35:02.00 | 7:19.40 | 157650 | 190614
7 | 42:21.40 | 5:52.22 | 190615 | 217036
8 | 48:13.62 | 4:30.18 | 217037 | 237304
9 | 52:44.05 | 7:25.10 | 237305 | 270689

Track 1

Filename D:\Ripped Audio\Joe Henderson\Big Band (1996)\01 - Joe Henderson - Without A song.wav

Pre-gap length 0:00:02.00

Peak level 98.8 %
Track quality 100.0 %
Copy CRC EFF17137
Accurately ripped (confidence 1) [9F52A0AF]
Copy OK

Track 2

Filename D:\Ripped Audio\Joe Henderson\Big Band (1996)\02 - Joe Henderson - Isotope.wav

Peak level 95.5 %
Track quality 100.0 %
Copy CRC F42AB801
Accurately ripped (confidence 1) [139DA24D]
Copy OK

Track 3

Filename D:\Ripped Audio\Joe Henderson\Big Band (1996)\03 - Joe Henderson - Inner Urge.wav

Peak level 96.1 %
Track quality 100.0 %
Copy CRC AEEE5CAA
Accurately ripped (confidence 1) [9FF681E2]
Copy OK

Track 4

Filename D:\Ripped Audio\Joe Henderson\Big Band (1996)\04 - Joe Henderson - Black Narcissus.wav

Peak level 98.6 %
Track quality 100.0 %
Copy CRC 47B5A25B
Accurately ripped (confidence 1) [E133F302]
Copy OK

Track 5

Filename D:\Ripped Audio\Joe Henderson\Big Band (1996)\05 - Joe Henderson - A Shade Of Jade.wav

Peak level 98.8 %
Track quality 100.0 %
Copy CRC EDDED91D
Accurately ripped (confidence 1) [AEE4B579]
Copy OK

Track 6

Filename D:\Ripped Audio\Joe Henderson\Big Band (1996)\06 - Joe Henderson - Step Lightly.wav

Peak level 98.8 %
Track quality 99.9 %
Copy CRC 14D385C8
Accurately ripped (confidence 1) [C6AAE0B4]
Copy OK

Track 7

Filename D:\Ripped Audio\Joe Henderson\Big Band (1996)\07 - Joe Henderson - Serenity.wav

Peak level 97.3 %
Track quality 100.0 %
Copy CRC 5EF03CC2
Accurately ripped (confidence 1) [E526F5D0]
Copy OK

Track 8

Filename D:\Ripped Audio\Joe Henderson\Big Band (1996)\08 - Joe Henderson - Chelsea Bridge.wav

Peak level 94.2 %
Track quality 100.0 %
Copy CRC 23E3163B
Accurately ripped (confidence 1) [27F7CD9E]
Copy OK

Track 9

Filename D:\Ripped Audio\Joe Henderson\Big Band (1996)\09 - Joe Henderson - Recordame (Recuerdame; aka No Me Esqueзa; aka No Me Esqueca).wav

Peak level 98.8 %
Track quality 100.0 %
Copy CRC A412C3D6
Accurately ripped (confidence 1) [813F9330]
Copy OK

All tracks accurately ripped

No errors occurred

End of status report

Joe Henderson - Big Band (1996) {PROPER}

Joe Henderson - Big Band (1996) {PROPER}

Special thanks to mironov_ad!

Welcome to my blog for more wonderful music

PLEASE DO NOT PROVIDE MIRROR LINKS!