Subcategories

John Zorn - The Garden Of Earthly Delights (2017)

Posted By: Domestos
John Zorn - The Garden Of Earthly Delights (2017)

John Zorn - The Garden Of Earthly Delights (2017)
EAC Rip | FLAC (image+.cue, log) ~ 261.84 Mb + 32.39 Mb (Scans) | 40:34
Jazz, Avant-Garde, Jazz Rock | Country: USA | Label: TZADIK - TZ8351

The sixth CD by Zorn’s heaviest 21st century ensemble Simulacrum celebrates the 500th anniversary of the passing of one of the greatest painters the world has ever known Hieronymus Bosch. A visionary of unparalleled power whose imagination and fantastical creations re-main uniquely his own, Bosch is one of the most enigmatic figures in world art. Inspired by his surreal visions of Heaven and Hell, “The Garden of Earthly Delights” blends heavy metal, blues, funk, jazz and modern classical music together into one of the strangest amalgams you’ve ever heard. Tighter than ever and joined by bassist Trevor Dunn, Medeski, Hollenberg and Grohowski are at their manic best in this jaw-dropping visit to a wild musical world where absolutely anything is possible.

John zorn - composer, arranger, producer, conductor
Matt Hollenberg - guitar
John Medeski - keyboards
Trevor Dunn - bass
Kenny Grohowski - drums
Sara Serpa - voice [10]

Track List:
01. Angels and Devils
02. The Infernal Machine
03. The Dragon Tree
04. Paean to the Prince of Hell
05. Music of the Flesh
06. Eve and Adam
07. Mirror Image
08. The Garden of Earthly Delights
09. The Circuit
10. Out of the Eternal Sphere

John Zorn - The Garden Of Earthly Delights (2017)

Exact Audio Copy V1.1 from 23. June 2015

Отчёт EAC об извлечении, выполненном 21. ноября 2017, 17:45

John Zorn / The Garden of Earthly Delights

Дисковод: PIONEER DVD-RW DVR-XT11 Adapter: 1 ID: 0

Режим чтения : Достоверность
Использование точного потока : Да
Отключение кэша аудио : Да
Использование указателей C2 : Нет

Коррекция смещения при чтении : 6
Способность читать области Lead-in и Lead-out : Нет
Заполнение пропущенных сэмплов тишиной : Да
Удаление блоков с тишиной в начале и конце : Нет
При вычислениях CRC использовались нулевые сэмплы : Да
Интерфейс : Встроенный Win32-интерфейс для Win NT/2000

Выходной формат : Пользовательский кодировщик
Выбранный битрейт : 128 kBit/s
Качество : Высокий
Добавление ID3-тега : Нет
Утилита сжатия : C:\Program Files (x86)\FLAC Frontend\tools\flac.exe
Дополнительные параметры : -V -8 -T "Date=%year%" -T "Genre=%genre%" %source%

TOC извлечённого CD

Трек | Старт | Длительность | Начальный сектор | Конечный сектор
––––––––––––––––––––––––––––––––––-
1 | 0:00.00 | 3:10.04 | 0 | 14253
2 | 3:10.04 | 4:18.29 | 14254 | 33632
3 | 7:28.33 | 5:16.35 | 33633 | 57367
4 | 12:44.68 | 5:11.19 | 57368 | 80711
5 | 17:56.12 | 6:58.25 | 80712 | 112086
6 | 24:54.37 | 4:25.72 | 112087 | 132033
7 | 29:20.34 | 4:04.48 | 132034 | 150381
8 | 33:25.07 | 5:31.45 | 150382 | 175251
9 | 38:56.52 | 1:37.27 | 175252 | 182553
10 | 40:34.04 | 5:00.15 | 182554 | 205068

Характеристики диапазона извлечения и сообщения об ошибках

Выбранный диапазон

Имя файла E:\Music\John Zorn\2017 - The Garden of Earthly Delights\John Zorn - The Garden of Earthly Delights.wav

Пиковый уровень 94.4 %
Скорость извлечения 4.2 X
Качество диапазона 100.0 %
CRC теста BA0CE1F5
CRC копии BA0CE1F5
Копирование… OK

Ошибок не произошло

AccurateRip: сводка

Трек 1 : извлечено точно (доверие 1) [C22A3135] (AR v2)
Трек 2 : извлечено точно (доверие 1) [2877E05C] (AR v2)
Трек 3 : извлечено точно (доверие 1) [77904DCB] (AR v2)
Трек 4 : извлечено точно (доверие 1) [E5A2DD7A] (AR v2)
Трек 5 : извлечено точно (доверие 1) [899AA335] (AR v2)
Трек 6 : извлечено точно (доверие 1) [F8025FF4] (AR v2)
Трек 7 : извлечено точно (доверие 1) [EB686E9B] (AR v2)
Трек 8 : извлечено точно (доверие 1) [128E79AD] (AR v2)
Трек 9 : извлечено точно (доверие 1) [291E2A8E] (AR v2)
Трек 10 : извлечено точно (доверие 1) [DD7FF7F5] (AR v2)

Все треки извлечены точно

Конец отчёта

–– CUETools DB Plugin V2.1.6

[CTDB TOCID: P3mPM2Q46yGDT_KxghqfaQ4tBOs-] found
Submit result: P3mPM2Q46yGDT_KxghqfaQ4tBOs- has been confirmed
Track | CTDB Status
1 | (13/13) Accurately ripped
2 | (12/13) Accurately ripped
3 | (13/13) Accurately ripped
4 | (13/13) Accurately ripped
5 | (13/13) Accurately ripped
6 | (13/13) Accurately ripped
7 | (13/13) Accurately ripped
8 | (13/13) Accurately ripped
9 | (13/13) Accurately ripped
10 | (13/13) Accurately ripped

==== Контрольная сумма отчёта 62110298A43A8E2FEBB4B1B0B3F93D74BABD604AFFDDFD415AA685AF88FC4F5F ====

All thanks go to the arbeit macht frei

More Music in My Blog
Follow My RSS Channel