Subcategories

John Cage - Complete Piano Music, Vols. 1-10 - Steffen Schleiermacher (2004) {18CD Set MDG 613 1731-2 rec 1997-2002}

Posted By: ruskaval
John Cage - Complete Piano Music, Vols. 1-10 - Steffen Schleiermacher (2004) {18CD Set MDG 613 1731-2 rec 1997-2002}

John Cage - Complete Piano Music, Vols. 1-10 - Steffen Schleiermacher (2004) {18CD Set MDG 613 1731-2 rec 1997-2002}
EAC rip (secure mode) | FLAC (tracks)+CUE+LOG -> 2.95 Gb | MP3 @320 -> 2.73 Gb
Full Artwork @ 600 dpi (jpg) -> 64 Mb | 5% repair rar
© 1997-2002, 2004 Musikproduktion Dabringhaus Und Grimm | MDG 613 1731-2
Classical / Contemporary Classical / Piano

Steffen Schleiermacher's monumental traversal of the complete piano music of John Cage will be essential for the collection of any fan of the composer's, unless he or she has already purchased the previously released ten volumes (a total of 18 discs) that are boxed together here and reissued in recognition of the composer's 100th anniversary in 2012. The 20-hour compilation is a testimony to Cage's hugely prolific output, and certainly constitutes one of the most significant collections of keyboard music of the 20th century. There could hardly be a more sympathetic and skillful interpreter of Cage's oeuvre than German pianist/composer Steffen Schleiermacher. Much of the music was derived from chance and other pre-compositional procedures, and in an indifferent performance can sound random and meandering, but Schleiermacher consistently brings an acute sensitivity, intelligence, and sense of direction to the scores. Cage often allows extraordinary freedom to the performer; in some cases, as in Music for Piano 21-52, he offers only written instructions outlining certain procedures and parameters that require the performer to write the music him/herself. The marvel of Schleiermacher's performances is the consistency with which he takes advantage of the composer's assumption that the pianist will use the sometimes-skeletal notation to personally discover and convey meaning and beauty in the music's execution.

John Cage - Complete Piano Music, Vols. 1-10 - Steffen Schleiermacher (2004) {18CD Set MDG 613 1731-2 rec 1997-2002}


A few of Cage's piano works, such as Music of Changes, Sonatas and Interludes for prepared piano, and Études australes, fall within, or at least on the fringe of, the standard repertoire of the avant-garde, but these pieces are unlikely to be familiar to any but the most ardent devotee. Volume 10, in fact, includes several works discovered by Schleiermacher that are recorded for the first time. The density of some of the music, to say nothing of the length of the set, makes it unlikely that the listener will want to listen straight through, but there is plenty of variety in the selections. Some discs are devoted to solo piano, but some use the opened-up aural spectrum of the prepared piano, and there are works for piano ensembles, the largest of which uses ten of the instruments. In some of the pieces, the performer is also called on to play other instruments, including radios, whistles, sticks, playing cards, and assorted percussion. Each of the ten volumes is logically arranged to cover a theme or chronological period. MDG's unprocessed sound is characteristically first-rate – clean and detailed, but warmly resonant – but the recordings were made over a period of years, between 1997 and 2002, so there is some variety in ambience.
John Cage - Complete Piano Music, Vols. 1-10 - Steffen Schleiermacher (2004) {18CD Set MDG 613 1731-2 rec 1997-2002}


Musicians
Steffen Schleiermacher - piano

Works on this recording
Vol. 1 (3 CDs)

The Prepared Piano 1940-1952
Sonatas and Interludes

Vol. 2 (2 CDs)
Music for Piano 1-85
Electronic Music for Piano

Vol. 3 (1 CD)
Music of Changes

Vol. 4 (2 CDs)
Pieces 1950-1960:
Winter Music (1957), For M.c. and D.T. (1952),
For P. Taylor (1957), TV Koeln (1958), Waiting (1952), Seven Haiku (1952),
Haiku (1952), Music Walk (1958), Solo for Piano (1958), 34’46.776” (1954)

Vol. 5 (2 CDs)
Two Pianos:
A Book of Music (1944), Experience 1 (1944),
Music for Two (1984/87), Two2 (1989), Three Dances (1944/45),
& Josef Christof, piano

Vol. 6 (2 CDs)
Pieces 1960-1992:
One2 (1989) fi rst version, One (1987), Etudes Boreales (1978),
The Beatles 1962-70 (1989), ASLSP (1985), One5 (1990) , One2 (1989) second version

Vol. 7 (1 CD)
Pieces 1933-1950:
Soliloquy (1945), Ophelia (1946), The Seasons (1947), Two Pieces for Piano (1935),
Jazz Study (1942), Metamorphosis (1938), Quest (1935), Three Easy Pieces (1933),
A Room (1943), Crete & Dad (1945), Two Pieces for Piano (1946), Ad Lib. (1943),
Tripel-paced - first version(1943)

Vol. 8 (1 CD)
Hommage à Satie: Perpetual Tango, In a Landscape,
Suite for Toy Piano, Cheap Imitation, Dream, Swinging

Vol. 9 (3 CDs)
Etudes Australes

Vol. 10 (1 CD)
Etcetera: Opening Dance, Furniture Music Etcetera,
Suite for Toy Piano, Music for the film „Works by Calder”, Four3

Exact Audio Copy V1.0 beta 3 from 29. August 2011

EAC extraction logfile from 24. April 2013, 13:25

John Cage / Complete Piano Music Vol.1 1940-1952 CD1

Used drive : PIONEER DVD-RW DVRTD09 Adapter: 0 ID: 1

Read mode : Secure
Utilize accurate stream : Yes
Defeat audio cache : Yes
Make use of C2 pointers : No

Read offset correction : 96
Overread into Lead-In and Lead-Out : No
Fill up missing offset samples with silence : Yes
Delete leading and trailing silent blocks : No
Null samples used in CRC calculations : Yes
Used interface : Native Win32 interface for Win NT & 2000
Gap handling : Appended to previous track

Used output format : User Defined Encoder
Selected bitrate : 128 kBit/s
Quality : High
Add ID3 tag : No
Command line compressor : C:\Program Files (x86)\Exact Audio Copy\FLAC\FLAC.EXE
Additional command line options : -8 -V -T "ARTIST=%artist%" -T "TITLE=%title%" -T "ALBUM=%albumtitle%" -T "DATE=%year%" -T "TRACKNUMBER=%tracknr%" -T "GENRE=%genre%" -T "PERFORMER=%albuminterpret%" -T "COMPOSER=%composer%" %haslyrics%–tag-from-file=LYRICS="%lyricsfile%"%haslyrics% -T "ALBUMARTIST=%albumartist%" -T "ALBUM ARTIST=%albumartist%" -T "DISCNUMBER=%cdnumber%" -T "TOTALDISCS=%totalcds%" -T "TOTALTRACKS=%numtracks%" -T "COMMENT=EAC V1.0 beta 2, Secure Mode, Test & Copy, AccurateRip, FLAC -8" %source% -o %dest%


TOC of the extracted CD

Track | Start | Length | Start sector | End sector
––––––––––––––––––––––––––––-
1 | 0:00.00 | 8:05.25 | 0 | 36399
2 | 8:05.25 | 2:19.45 | 36400 | 46869
3 | 10:24.70 | 3:31.42 | 46870 | 62736
4 | 13:56.37 | 4:12.23 | 62737 | 81659
5 | 18:08.60 | 4:19.22 | 81660 | 101106
6 | 22:28.07 | 2:12.48 | 101107 | 111054
7 | 24:40.55 | 4:49.72 | 111055 | 132801
8 | 29:30.52 | 2:42.58 | 132802 | 145009
9 | 32:13.35 | 2:50.45 | 145010 | 157804
10 | 35:04.05 | 2:28.37 | 157805 | 168941
11 | 37:32.42 | 0:52.13 | 168942 | 172854
12 | 38:24.55 | 4:17.32 | 172855 | 192161
13 | 42:42.12 | 1:19.00 | 192162 | 198086
14 | 44:01.12 | 0:40.73 | 198087 | 201159
15 | 44:42.10 | 4:05.47 | 201160 | 219581
16 | 48:47.57 | 5:01.13 | 219582 | 242169


Track 1

Filename D:\torrent\music FLAC\00 new rip\01 - Bacchanale (1940).wav

Pre-gap length 0:00:02.00

Peak level 52.2 %
Extraction speed 1.1 X
Track quality 99.9 %
Test CRC 1E72F831
Copy CRC 1E72F831
Cannot be verified as accurate (confidence 5) [C8BD75A6], AccurateRip returned [5BC532AD] (AR v2)
Copy OK

Track 2

Filename D:\torrent\music FLAC\00 new rip\02 - Totem Ancestor (1942).wav

Pre-gap length 0:00:10.68

Peak level 38.5 %
Extraction speed 1.1 X
Track quality 100.0 %
Test CRC 381484B6
Copy CRC 381484B6
Cannot be verified as accurate (confidence 5) [E2DD0119], AccurateRip returned [A87919DF] (AR v2)
Copy OK

Track 3

Filename D:\torrent\music FLAC\00 new rip\03 - And The Earth Shall Bear Again (1942).wav

Pre-gap length 0:00:12.73

Peak level 96.6 %
Extraction speed 1.3 X
Track quality 100.0 %
Test CRC A904FB5F
Copy CRC A904FB5F
Cannot be verified as accurate (confidence 5) [47F84BEA], AccurateRip returned [9365DEEB] (AR v2)
Copy OK

Track 4

Filename D:\torrent\music FLAC\00 new rip\04 - Primitive (1942).wav

Pre-gap length 0:00:15.12

Peak level 36.3 %
Extraction speed 1.3 X
Track quality 99.9 %
Test CRC 2FE9CD03
Copy CRC 2FE9CD03
Cannot be verified as accurate (confidence 5) [1A04762E], AccurateRip returned [BB3005C7] (AR v2)
Copy OK

Track 5

Filename D:\torrent\music FLAC\00 new rip\05 - In The Name Of The Holocaust (1942) - I.wav

Pre-gap length 0:00:08.63

Peak level 12.1 %
Extraction speed 1.4 X
Track quality 99.9 %
Test CRC 48F54C49
Copy CRC 48F54C49
Cannot be verified as accurate (confidence 5) [25F6957E], AccurateRip returned [DCA6BBFB] (AR v2)
Copy OK

Track 6

Filename D:\torrent\music FLAC\00 new rip\06 - In The Name Of The Holocaust (1942) - II.wav

Peak level 99.9 %
Extraction speed 1.4 X
Track quality 100.0 %
Test CRC 3798AA98
Copy CRC 3798AA98
Cannot be verified as accurate (confidence 5) [ADAEECF2], AccurateRip returned [906E5C71] (AR v2)
Copy OK

Track 7

Filename D:\torrent\music FLAC\00 new rip\07 - Our Spring Will Come(1943).wav

Pre-gap length 0:00:17.28

Peak level 81.0 %
Extraction speed 1.7 X
Track quality 100.0 %
Test CRC 3D53A235
Copy CRC 3D53A235
Cannot be verified as accurate (confidence 5) [CC7E5233], AccurateRip returned [818D76A6] (AR v2)
Copy OK

Track 8

Filename D:\torrent\music FLAC\00 new rip\08 - A Room(1943).wav

Pre-gap length 0:00:16.17

Peak level 5.0 %
Extraction speed 1.6 X
Track quality 100.0 %
Test CRC D497A546
Copy CRC D497A546
Cannot be verified as accurate (confidence 4) [01F5D220], AccurateRip returned [92BF8701] (AR v2)
Copy OK

Track 9

Filename D:\torrent\music FLAC\00 new rip\09 - Tossed As It Is Untroubled (1943).wav

Pre-gap length 0:00:16.13

Peak level 28.8 %
Extraction speed 1.6 X
Track quality 100.0 %
Test CRC BC3A3CB3
Copy CRC BC3A3CB3
Cannot be verified as accurate (confidence 5) [E591CA32], AccurateRip returned [BED467A8] (AR v2)
Copy OK

Track 10

Filename D:\torrent\music FLAC\00 new rip\10 - The Perilious Night (1943-44) - I.wav

Pre-gap length 0:00:14.48

Peak level 30.5 %
Extraction speed 1.6 X
Track quality 100.0 %
Test CRC 315C767D
Copy CRC 315C767D
Cannot be verified as accurate (confidence 5) [BFE3B350], AccurateRip returned [5BBF0800] (AR v2)
Copy OK

Track 11

Filename D:\torrent\music FLAC\00 new rip\11 - The Perilious Night (1943-44) - II.wav

Peak level 19.9 %
Extraction speed 1.2 X
Track quality 100.0 %
Test CRC D36157FA
Copy CRC D36157FA
Cannot be verified as accurate (confidence 5) [0728F751], AccurateRip returned [2D801025] (AR v2)
Copy OK

Track 12

Filename D:\torrent\music FLAC\00 new rip\12 - The Perilious Night (1943-44) - III.wav

Peak level 27.4 %
Extraction speed 1.9 X
Track quality 100.0 %
Test CRC FFF796D8
Copy CRC FFF796D8
Cannot be verified as accurate (confidence 5) [C074045F], AccurateRip returned [86781D25] (AR v2)
Copy OK

Track 13

Filename D:\torrent\music FLAC\00 new rip\13 - The Perilious Night (1943-44) - IV.wav

Peak level 7.2 %
Extraction speed 1.1 X
Track quality 99.8 %
Test CRC 3A81B6E6
Copy CRC 3A81B6E6
Cannot be verified as accurate (confidence 5) [848ED1A7], AccurateRip returned [7B1A7779] (AR v2)
Copy OK

Track 14

Filename D:\torrent\music FLAC\00 new rip\14 - The Perilious Night (1943-44) - V.wav

Peak level 33.7 %
Extraction speed 1.1 X
Track quality 100.0 %
Test CRC DA52DD31
Copy CRC DA52DD31
Cannot be verified as accurate (confidence 5) [0824B8F5], AccurateRip returned [9A16E0C2] (AR v2)
Copy OK

Track 15

Filename D:\torrent\music FLAC\00 new rip\15 - The Perilious Night (1943-44) - VI.wav

Peak level 25.9 %
Extraction speed 1.9 X
Track quality 100.0 %
Test CRC F1221A69
Copy CRC F1221A69
Cannot be verified as accurate (confidence 5) [EC66FA35], AccurateRip returned [5B3B79E1] (AR v2)
Copy OK

Track 16

Filename D:\torrent\music FLAC\00 new rip\16 - Root Of An Unfocus (1944).wav

Pre-gap length 0:00:20.40

Peak level 44.1 %
Extraction speed 2.1 X
Track quality 100.0 %
Test CRC A24EEDFD
Copy CRC A24EEDFD
Cannot be verified as accurate (confidence 4) [8B8163F9], AccurateRip returned [166B769F] (AR v2)
Copy OK


No tracks could be verified as accurate
You may have a different pressing from the one(s) in the database

No errors occurred

End of status report

==== Log checksum 86D914186C1CBDBEFA646C7CF9560CC20624471AF91E217316F2EF0D68E01D40 ====
Exact Audio Copy V1.0 beta 3 from 29. August 2011

EAC extraction logfile from 25. April 2013, 11:30

John Cage / Complete Piano Music CD2 - 1940-1952

Used drive : PIONEER DVD-RW DVRTD09 Adapter: 0 ID: 1

Read mode : Secure
Utilize accurate stream : Yes
Defeat audio cache : Yes
Make use of C2 pointers : No

Read offset correction : 96
Overread into Lead-In and Lead-Out : No
Fill up missing offset samples with silence : Yes
Delete leading and trailing silent blocks : No
Null samples used in CRC calculations : Yes
Used interface : Native Win32 interface for Win NT & 2000
Gap handling : Appended to previous track

Used output format : User Defined Encoder
Selected bitrate : 128 kBit/s
Quality : High
Add ID3 tag : No
Command line compressor : C:\Program Files (x86)\Exact Audio Copy\FLAC\FLAC.EXE
Additional command line options : -8 -V -T "ARTIST=%artist%" -T "TITLE=%title%" -T "ALBUM=%albumtitle%" -T "DATE=%year%" -T "TRACKNUMBER=%tracknr%" -T "GENRE=%genre%" -T "PERFORMER=%albuminterpret%" -T "COMPOSER=%composer%" %haslyrics%–tag-from-file=LYRICS="%lyricsfile%"%haslyrics% -T "ALBUMARTIST=%albumartist%" -T "ALBUM ARTIST=%albumartist%" -T "DISCNUMBER=%cdnumber%" -T "TOTALDISCS=%totalcds%" -T "TOTALTRACKS=%numtracks%" -T "COMMENT=EAC V1.0 beta 2, Secure Mode, Test & Copy, AccurateRip, FLAC -8" %source% -o %dest%


TOC of the extracted CD

Track | Start | Length | Start sector | End sector
––––––––––––––––––––––––––––-
1 | 0:00.00 | 2:21.72 | 0 | 10646
2 | 2:21.72 | 3:17.18 | 10647 | 25439
3 | 5:39.15 | 2:35.25 | 25440 | 37089
4 | 8:14.40 | 1:35.05 | 37090 | 44219
5 | 9:49.45 | 1:00.52 | 44220 | 48771
6 | 10:50.22 | 1:13.33 | 48772 | 54279
7 | 12:03.55 | 1:21.10 | 54280 | 60364
8 | 13:24.65 | 9:11.57 | 60365 | 101746
9 | 22:36.47 | 9:39.28 | 101747 | 145199
10 | 32:16.00 | 6:01.15 | 145200 | 172289
11 | 38:17.15 | 6:16.12 | 172290 | 200501
12 | 44:33.27 | 7:34.20 | 200502 | 234571


Track 1

Filename D:\torrent\music FLAC\00 new rip\01 - The Unavailable Memory of (1944).wav

Pre-gap length 0:00:02.00

Peak level 45.6 %
Extraction speed 0.9 X
Track quality 100.0 %
Test CRC C246A8F0
Copy CRC C246A8F0
Cannot be verified as accurate (confidence 4) [565BD6B1], AccurateRip returned [6AAAD1FE] (AR v2)
Copy OK

Track 2

Filename D:\torrent\music FLAC\00 new rip\02 - Spontaneous Earth (1944).wav

Pre-gap length 0:00:10.32

Peak level 26.7 %
Extraction speed 1.1 X
Track quality 100.0 %
Test CRC 52AD422D
Copy CRC 52AD422D
Cannot be verified as accurate (confidence 4) [C537B556], AccurateRip returned [0597C504] (AR v2)
Copy OK

Track 3

Filename D:\torrent\music FLAC\00 new rip\03 - Triple Paced (1944).wav

Pre-gap length 0:00:12.19

Peak level 55.0 %
Extraction speed 0.9 X
Track quality 99.9 %
Test CRC 875F6700
Copy CRC 875F6700
Cannot be verified as accurate (confidence 4) [D4CC219A], AccurateRip returned [FF3E635E] (AR v2)
Copy OK

Track 4

Filename D:\torrent\music FLAC\00 new rip\04 - A Valentine Out of Season I (1944).wav

Pre-gap length 0:00:09.25

Peak level 5.1 %
Extraction speed 1.0 X
Track quality 100.0 %
Test CRC 42469089
Copy CRC 42469089
Cannot be verified as accurate (confidence 4) [24D7FB82], AccurateRip returned [FE68D37D] (AR v2)
Copy OK

Track 5

Filename D:\torrent\music FLAC\00 new rip\05 - A Valentine Out of Season II (1944).wav

Peak level 13.2 %
Extraction speed 0.9 X
Track quality 100.0 %
Test CRC 59FC13B0
Copy CRC 59FC13B0
Cannot be verified as accurate (confidence 4) [A2E8D2E8], AccurateRip returned [D22B3AD0] (AR v2)
Copy OK

Track 6

Filename D:\torrent\music FLAC\00 new rip\06 - A Valentine Out of Season III (1944).wav

Peak level 17.5 %
Extraction speed 1.0 X
Track quality 100.0 %
Test CRC 4113E81E
Copy CRC 4113E81E
Cannot be verified as accurate (confidence 4) [25BD786F], AccurateRip returned [18CE6BF8] (AR v2)
Copy OK

Track 7

Filename D:\torrent\music FLAC\00 new rip\07 - Prelude for Meditation (1944).wav

Pre-gap length 0:00:12.00

Peak level 2.3 %
Extraction speed 1.0 X
Track quality 100.0 %
Test CRC 9A6396E3
Copy CRC 9A6396E3
Cannot be verified as accurate (confidence 4) [DF35BED8], AccurateRip returned [F4186D45] (AR v2)
Copy OK

Track 8

Filename D:\torrent\music FLAC\00 new rip\08 - Mysterious Adventure (1945).wav

Pre-gap length 0:00:10.52

Peak level 42.6 %
Extraction speed 1.5 X
Track quality 99.9 %
Test CRC 6BDC9DF3
Copy CRC 6BDC9DF3
Cannot be verified as accurate (confidence 4) [0A4FC1F1], AccurateRip returned [5B676BCC] (AR v2)
Copy OK

Track 9

Filename D:\torrent\music FLAC\00 new rip\09 - Daughters of the Lonesome Isle (1945).wav

Pre-gap length 0:00:14.25

Peak level 35.4 %
Extraction speed 1.8 X
Track quality 100.0 %
Test CRC 570ACFA1
Copy CRC 570ACFA1
Cannot be verified as accurate (confidence 4) [FDAB8554], AccurateRip returned [264EE3F6] (AR v2)
Copy OK

Track 10

Filename D:\torrent\music FLAC\00 new rip\10 - Music for Marcel Duchamp (1947).wav

Pre-gap length 0:00:15.15

Peak level 10.4 %
Extraction speed 1.7 X
Track quality 99.9 %
Test CRC 071EE3B1
Copy CRC 071EE3B1
Cannot be verified as accurate (confidence 4) [5E4560B1], AccurateRip returned [AF4C4D5D] (AR v2)
Copy OK

Track 11

Filename D:\torrent\music FLAC\00 new rip\11 - Two Pastorales I (1952).wav

Pre-gap length 0:00:16.14

Peak level 99.1 %
Extraction speed 1.8 X
Track quality 99.9 %
Test CRC DD19E09F
Copy CRC DD19E09F
Cannot be verified as accurate (confidence 4) [5CEFBC87], AccurateRip returned [FCABF56B] (AR v2)
Copy OK

Track 12

Filename D:\torrent\music FLAC\00 new rip\12 - Two Pastorales II (1952).wav

Pre-gap length 0:00:21.15

Peak level 67.5 %
Extraction speed 2.1 X
Track quality 100.0 %
Test CRC 50C51286
Copy CRC 50C51286
Cannot be verified as accurate (confidence 4) [C3D0B488], AccurateRip returned [E5EDB849] (AR v2)
Copy OK


No tracks could be verified as accurate
You may have a different pressing from the one(s) in the database

No errors occurred

End of status report

==== Log checksum EDE0FF1FE499DD3C88C97167B8DC97895001621141ACF04239C6649A4FAB5795 ====
Exact Audio Copy V1.0 beta 3 from 29. August 2011

EAC extraction logfile from 26. April 2013, 12:07

John Cage / Complete Piano Music Vol. 5 - Two Pianos cd1

Used drive : PIONEER DVD-RW DVRTD09 Adapter: 0 ID: 1

Read mode : Secure
Utilize accurate stream : Yes
Defeat audio cache : Yes
Make use of C2 pointers : No

Read offset correction : 96
Overread into Lead-In and Lead-Out : No
Fill up missing offset samples with silence : Yes
Delete leading and trailing silent blocks : No
Null samples used in CRC calculations : Yes
Used interface : Native Win32 interface for Win NT & 2000
Gap handling : Appended to previous track

Used output format : User Defined Encoder
Selected bitrate : 128 kBit/s
Quality : High
Add ID3 tag : No
Command line compressor : C:\Program Files (x86)\Exact Audio Copy\FLAC\FLAC.EXE
Additional command line options : -8 -V -T "ARTIST=%artist%" -T "TITLE=%title%" -T "ALBUM=%albumtitle%" -T "DATE=%year%" -T "TRACKNUMBER=%tracknr%" -T "GENRE=%genre%" -T "PERFORMER=%albuminterpret%" -T "COMPOSER=%composer%" %haslyrics%–tag-from-file=LYRICS="%lyricsfile%"%haslyrics% -T "ALBUMARTIST=%albumartist%" -T "ALBUM ARTIST=%albumartist%" -T "DISCNUMBER=%cdnumber%" -T "TOTALDISCS=%totalcds%" -T "TOTALTRACKS=%numtracks%" -T "COMMENT=EAC V1.0 beta 2, Secure Mode, Test & Copy, AccurateRip, FLAC -8" %source% -o %dest%


TOC of the extracted CD

Track | Start | Length | Start sector | End sector
––––––––––––––––––––––––––––-
1 | 0:00.00 | 13:52.07 | 0 | 62406
2 | 13:52.07 | 21:20.60 | 62407 | 158466
3 | 35:12.67 | 3:07.73 | 158467 | 172564
4 | 38:20.65 | 29:43.05 | 172565 | 306294


Track 1

Filename D:\torrent\music FLAC\00 new rip\01 - A Book Of Music (1944) Part 1.wav

Pre-gap length 0:00:02.00

Peak level 71.8 %
Extraction speed 1.4 X
Track quality 100.0 %
Test CRC FF5489CC
Copy CRC FF5489CC
Accurately ripped (confidence 2) [9DB791CB] (AR v2)
Copy OK

Track 2

Filename D:\torrent\music FLAC\00 new rip\02 - A Book Of Music (1944) Part 2.wav

Peak level 98.8 %
Extraction speed 1.8 X
Track quality 99.9 %
Test CRC FDE15A6B
Copy CRC FDE15A6B
Accurately ripped (confidence 2) [AB6B0322] (AR v2)
Copy OK

Track 3

Filename D:\torrent\music FLAC\00 new rip\03 - Experience 1 (1944).wav

Pre-gap length 0:00:18.20

Peak level 12.3 %
Extraction speed 1.8 X
Track quality 100.0 %
Test CRC DB6A4B98
Copy CRC DB6A4B98
Accurately ripped (confidence 2) [226C23D7] (AR v2)
Copy OK

Track 4

Filename D:\torrent\music FLAC\00 new rip\04 - Music For Two (1984-87).wav

Pre-gap length 0:00:07.48

Peak level 91.3 %
Extraction speed 2.4 X
Track quality 100.0 %
Test CRC A72C984B
Copy CRC A72C984B
Accurately ripped (confidence 2) [C2EE5732] (AR v2)
Copy OK


All tracks accurately ripped

No errors occurred

End of status report

==== Log checksum E83744FF95D8C80FE23891B13B31CBF49BEFC843FF0E75DD1E0ED9FFF960BC4F ====
Exact Audio Copy V1.0 beta 3 from 29. August 2011

EAC extraction logfile from 26. April 2013, 15:47

John Cage / Complete Piano Music Vol.5 - Two Pianos - disc 10

Used drive : PIONEER DVD-RW DVRTD09 Adapter: 0 ID: 1

Read mode : Secure
Utilize accurate stream : Yes
Defeat audio cache : Yes
Make use of C2 pointers : No

Read offset correction : 96
Overread into Lead-In and Lead-Out : No
Fill up missing offset samples with silence : Yes
Delete leading and trailing silent blocks : No
Null samples used in CRC calculations : Yes
Used interface : Native Win32 interface for Win NT & 2000
Gap handling : Appended to previous track

Used output format : User Defined Encoder
Selected bitrate : 128 kBit/s
Quality : High
Add ID3 tag : No
Command line compressor : C:\Program Files (x86)\Exact Audio Copy\FLAC\FLAC.EXE
Additional command line options : -8 -V -T "ARTIST=%artist%" -T "TITLE=%title%" -T "ALBUM=%albumtitle%" -T "DATE=%year%" -T "TRACKNUMBER=%tracknr%" -T "GENRE=%genre%" -T "PERFORMER=%albuminterpret%" -T "COMPOSER=%composer%" %haslyrics%–tag-from-file=LYRICS="%lyricsfile%"%haslyrics% -T "ALBUMARTIST=%albumartist%" -T "ALBUM ARTIST=%albumartist%" -T "DISCNUMBER=%cdnumber%" -T "TOTALDISCS=%totalcds%" -T "TOTALTRACKS=%numtracks%" -T "COMMENT=EAC V1.0 beta 2, Secure Mode, Test & Copy, AccurateRip, FLAC -8" %source% -o %dest%


TOC of the extracted CD

Track | Start | Length | Start sector | End sector
––––––––––––––––––––––––––––-
1 | 0:00.00 | 46:39.20 | 0 | 209944
2 | 46:39.20 | 6:22.17 | 209945 | 238611
3 | 53:01.37 | 7:10.73 | 238612 | 270934
4 | 60:12.35 | 10:56.52 | 270935 | 320186


Track 1

Filename D:\torrent\music FLAC\00 new rip\01 - Two Squared (1989).wav

Pre-gap length 0:00:02.00

Peak level 12.1 %
Extraction speed 1.8 X
Track quality 99.9 %
Test CRC B40666B6
Copy CRC B40666B6
Cannot be verified as accurate (confidence 2) [49035A93], AccurateRip returned [FF08349C] (AR v2)
Copy OK

Track 2

Filename D:\torrent\music FLAC\00 new rip\02 - Three Dances I (1944-45).wav

Pre-gap length 0:00:15.58

Peak level 94.9 %
Extraction speed 2.0 X
Track quality 99.9 %
Test CRC BC54DF6D
Copy CRC BC54DF6D
Cannot be verified as accurate (confidence 2) [682E4C80], AccurateRip returned [53F1420B] (AR v2)
Copy OK

Track 3

Filename D:\torrent\music FLAC\00 new rip\03 - Three Dances II (1944-45).wav

Peak level 77.2 %
Extraction speed 2.3 X
Track quality 100.0 %
Test CRC 516160B9
Copy CRC 516160B9
Accurately ripped (confidence 2) [F6EA3639] (AR v2)
Copy OK

Track 4

Filename D:\torrent\music FLAC\00 new rip\04 - Three Dances III (1944-45).wav

Peak level 98.8 %
Extraction speed 2.4 X
Track quality 99.9 %
Test CRC 07071B93
Copy CRC 07071B93
Accurately ripped (confidence 2) [B4A02875] (AR v2)
Copy OK


2 track(s) accurately ripped
2 track(s) could not be verified as accurate

Some tracks could not be verified as accurate

No errors occurred

End of status report

==== Log checksum 77FC5046BEBAE8B584CC5C9792BC509770ABB7B3DC9D90468E3D3FFE382490E9 ====
Exact Audio Copy V1.0 beta 3 from 29. August 2011

EAC extraction logfile from 27. April 2013, 23:06

John Cage / Complete Piano Music vol 9 Etudes Australes 3 cd17

Used drive : PIONEER DVD-RW DVRTD09 Adapter: 0 ID: 1

Read mode : Secure
Utilize accurate stream : Yes
Defeat audio cache : Yes
Make use of C2 pointers : No

Read offset correction : 96
Overread into Lead-In and Lead-Out : No
Fill up missing offset samples with silence : Yes
Delete leading and trailing silent blocks : No
Null samples used in CRC calculations : Yes
Used interface : Native Win32 interface for Win NT & 2000
Gap handling : Appended to previous track

Used output format : User Defined Encoder
Selected bitrate : 128 kBit/s
Quality : High
Add ID3 tag : No
Command line compressor : C:\Program Files (x86)\Exact Audio Copy\FLAC\FLAC.EXE
Additional command line options : -8 -V -T "ARTIST=%artist%" -T "TITLE=%title%" -T "ALBUM=%albumtitle%" -T "DATE=%year%" -T "TRACKNUMBER=%tracknr%" -T "GENRE=%genre%" -T "PERFORMER=%albuminterpret%" -T "COMPOSER=%composer%" %haslyrics%–tag-from-file=LYRICS="%lyricsfile%"%haslyrics% -T "ALBUMARTIST=%albumartist%" -T "ALBUM ARTIST=%albumartist%" -T "DISCNUMBER=%cdnumber%" -T "TOTALDISCS=%totalcds%" -T "TOTALTRACKS=%numtracks%" -T "COMMENT=EAC V1.0 beta 2, Secure Mode, Test & Copy, AccurateRip, FLAC -8" %source% -o %dest%


TOC of the extracted CD

Track | Start | Length | Start sector | End sector
––––––––––––––––––––––––––––-
1 | 0:00.00 | 8:45.12 | 0 | 39386
2 | 8:45.12 | 7:11.05 | 39387 | 71716
3 | 15:56.17 | 6:39.45 | 71717 | 101686
4 | 22:35.62 | 6:18.40 | 101687 | 130076
5 | 28:54.27 | 6:08.70 | 130077 | 157746
6 | 35:03.22 | 7:18.08 | 157747 | 190604
7 | 42:21.30 | 8:38.40 | 190605 | 229494
8 | 50:59.70 | 8:08.47 | 229495 | 266141
9 | 59:08.42 | 7:07.30 | 266142 | 298196
10 | 66:15.72 | 5:33.68 | 298197 | 323239


Track 1

Filename D:\torrent\music FLAC\00 new rip\01 - Etudes Australes, Book III - XXIII.wav

Pre-gap length 0:00:02.00

Peak level 28.2 %
Extraction speed 1.3 X
Track quality 100.0 %
Test CRC 73F95DAA
Copy CRC 73F95DAA
Cannot be verified as accurate (confidence 2) [3284BE81], AccurateRip returned [89FA973C] (AR v2)
Copy OK

Track 2

Filename D:\torrent\music FLAC\00 new rip\02 - Etudes Australes, Book III - XXIV.wav

Pre-gap length 0:00:13.07

Peak level 30.7 %
Extraction speed 1.5 X
Track quality 100.0 %
Test CRC C23BB006
Copy CRC C23BB006
Cannot be verified as accurate (confidence 2) [A09CFC57], AccurateRip returned [4B67F0D1] (AR v2)
Copy OK

Track 3

Filename D:\torrent\music FLAC\00 new rip\03 - Etudes Australes, Book IV - XXV.wav

Pre-gap length 0:00:19.15

Peak level 35.6 %
Extraction speed 1.7 X
Track quality 100.0 %
Test CRC B0BDD672
Copy CRC B0BDD672
Cannot be verified as accurate (confidence 2) [4F41D14D], AccurateRip returned [7099B455] (AR v2)
Copy OK

Track 4

Filename D:\torrent\music FLAC\00 new rip\04 - Etudes Australes, Book IV - XXVI.wav

Pre-gap length 0:00:13.30

Peak level 32.3 %
Extraction speed 1.8 X
Track quality 100.0 %
Test CRC 208D968D
Copy CRC 208D968D
Cannot be verified as accurate (confidence 2) [FDB37FFB], AccurateRip returned [EA3D89F4] (AR v2)
Copy OK

Track 5

Filename D:\torrent\music FLAC\00 new rip\05 - Etudes Australes, Book IV - XXVII.wav

Pre-gap length 0:00:13.40

Peak level 50.0 %
Extraction speed 1.9 X
Track quality 100.0 %
Test CRC A5D50E9D
Copy CRC A5D50E9D
Cannot be verified as accurate (confidence 2) [4332C0F9], AccurateRip returned [9DAF8435] (AR v2)
Copy OK

Track 6

Filename D:\torrent\music FLAC\00 new rip\06 - Etudes Australes, Book IV - XXVIII.wav

Pre-gap length 0:00:13.02

Peak level 42.9 %
Extraction speed 2.1 X
Track quality 100.0 %
Test CRC 0C867064
Copy CRC 0C867064
Cannot be verified as accurate (confidence 2) [981AA19A], AccurateRip returned [582BC5E1] (AR v2)
Copy OK

Track 7

Filename D:\torrent\music FLAC\00 new rip\07 - Etudes Australes, Book IV - XXIX.wav

Pre-gap length 0:00:07.40

Peak level 54.8 %
Extraction speed 2.1 X
Track quality 99.9 %
Test CRC 4E01F9A5
Copy CRC 4E01F9A5
Cannot be verified as accurate (confidence 2) [3ADBBBBE], AccurateRip returned [6E215E42] (AR v2)
Copy OK

Track 8

Filename D:\torrent\music FLAC\00 new rip\08 - Etudes Australes, Book IV - XXX.wav

Pre-gap length 0:00:12.20

Peak level 47.4 %
Extraction speed 2.3 X
Track quality 100.0 %
Test CRC 5C9E3D24
Copy CRC 5C9E3D24
Cannot be verified as accurate (confidence 2) [2EB9C337], AccurateRip returned [6B828D93] (AR v2)
Copy OK

Track 9

Filename D:\torrent\music FLAC\00 new rip\09 - Etudes Australes, Book IV - XXXI.wav

Pre-gap length 0:00:10.72

Peak level 90.9 %
Extraction speed 2.4 X
Track quality 100.0 %
Test CRC E0B98E71
Copy CRC E0B98E71
Cannot be verified as accurate (confidence 2) [8B8A5118], AccurateRip returned [EBC8246C] (AR v2)
Copy OK

Track 10

Filename D:\torrent\music FLAC\00 new rip\10 - Etudes Australes, Book IV - XXXII.wav

Pre-gap length 0:00:12.32

Peak level 34.4 %
Extraction speed 2.5 X
Track quality 100.0 %
Test CRC E1A79CA5
Copy CRC E1A79CA5
Cannot be verified as accurate (confidence 2) [FA544109], AccurateRip returned [6041D4A1] (AR v2)
Copy OK


No tracks could be verified as accurate
You may have a different pressing from the one(s) in the database

No errors occurred

End of status report

==== Log checksum 79903355F98CACD2E1B6123183E75D73BF4A003075D37EAA9A97634EE9CDD376 ====
Exact Audio Copy V1.0 beta 3 from 29. August 2011

EAC extraction logfile from 28. April 2013, 0:41

John Cage / John Cage Complete Piano Music vol 10 Etcetrea CD18

Used drive : PIONEER DVD-RW DVRTD09 Adapter: 0 ID: 1

Read mode : Secure
Utilize accurate stream : Yes
Defeat audio cache : Yes
Make use of C2 pointers : No

Read offset correction : 96
Overread into Lead-In and Lead-Out : No
Fill up missing offset samples with silence : Yes
Delete leading and trailing silent blocks : No
Null samples used in CRC calculations : Yes
Used interface : Native Win32 interface for Win NT & 2000
Gap handling : Appended to previous track

Used output format : User Defined Encoder
Selected bitrate : 128 kBit/s
Quality : High
Add ID3 tag : No
Command line compressor : C:\Program Files (x86)\Exact Audio Copy\FLAC\FLAC.EXE
Additional command line options : -8 -V -T "ARTIST=%artist%" -T "TITLE=%title%" -T "ALBUM=%albumtitle%" -T "DATE=%year%" -T "TRACKNUMBER=%tracknr%" -T "GENRE=%genre%" -T "PERFORMER=%albuminterpret%" -T "COMPOSER=%composer%" %haslyrics%–tag-from-file=LYRICS="%lyricsfile%"%haslyrics% -T "ALBUMARTIST=%albumartist%" -T "ALBUM ARTIST=%albumartist%" -T "DISCNUMBER=%cdnumber%" -T "TOTALDISCS=%totalcds%" -T "TOTALTRACKS=%numtracks%" -T "COMMENT=EAC V1.0 beta 2, Secure Mode, Test & Copy, AccurateRip, FLAC -8" %source% -o %dest%


TOC of the extracted CD

Track | Start | Length | Start sector | End sector
––––––––––––––––––––––––––––-
1 | 0:00.00 | 2:10.02 | 0 | 9751
2 | 2:10.02 | 20:43.25 | 9752 | 103001
3 | 22:53.27 | 1:40.08 | 103002 | 110509
4 | 24:33.35 | 1:44.30 | 110510 | 118339
5 | 26:17.65 | 1:22.40 | 118340 | 124529
6 | 27:40.30 | 1:28.10 | 124530 | 131139
7 | 29:08.40 | 1:02.12 | 131140 | 135801
8 | 30:10.52 | 4:43.05 | 135802 | 157031
9 | 34:53.57 | 10:42.70 | 157032 | 205251
10 | 45:36.52 | 32:30.03 | 205252 | 351504


Track 1

Filename D:\torrent\music FLAC\00 new rip\01 - Opening Dance (1942).wav

Pre-gap length 0:00:02.00

Peak level 91.3 %
Extraction speed 1.0 X
Track quality 100.0 %
Test CRC A5BABA45
Copy CRC A5BABA45
Cannot be verified as accurate (confidence 4) [53A65D1C], AccurateRip returned [31F8ACF7] (AR v2)
Copy OK

Track 2

Filename D:\torrent\music FLAC\00 new rip\02 - Furniture Music Etcetera (1980).wav

Pre-gap length 0:00:18.20

Peak level 74.8 %
Extraction speed 1.6 X
Track quality 99.9 %
Test CRC D850737F
Copy CRC D850737F
Cannot be verified as accurate (confidence 4) [47B83066], AccurateRip returned [94CA6C2B] (AR v2)
Copy OK

Track 3

Filename D:\torrent\music FLAC\00 new rip\03 - Suite for Toy Piano (1948) - I.wav

Pre-gap length 0:00:17.62

Peak level 11.1 %
Extraction speed 1.4 X
Track quality 100.0 %
Test CRC FEE9572C
Copy CRC FEE9572C
Cannot be verified as accurate (confidence 4) [E7E03C71], AccurateRip returned [20E93CC9] (AR v2)
Copy OK

Track 4

Filename D:\torrent\music FLAC\00 new rip\04 - Suite for Toy Piano (1948) - II.wav

Peak level 8.3 %
Extraction speed 1.4 X
Track quality 100.0 %
Test CRC 9A26B0FF
Copy CRC 9A26B0FF
Cannot be verified as accurate (confidence 4) [0C06B5B8], AccurateRip returned [B69E3672] (AR v2)
Copy OK

Track 5

Filename D:\torrent\music FLAC\00 new rip\05 - Suite for Toy Piano (1948) - III.wav

Peak level 8.3 %
Extraction speed 1.4 X
Track quality 100.0 %
Test CRC 40D78863
Copy CRC 40D78863
Cannot be verified as accurate (confidence 4) [B7EB0638], AccurateRip returned [2D5FA9E0] (AR v2)
Copy OK

Track 6

Filename D:\torrent\music FLAC\00 new rip\06 - Suite for Toy Piano (1948) - IV.wav

Peak level 7.7 %
Extraction speed 1.4 X
Track quality 100.0 %
Test CRC E60B6561
Copy CRC E60B6561
Cannot be verified as accurate (confidence 4) [18A06D11], AccurateRip returned [FC2825F1] (AR v2)
Copy OK

Track 7

Filename D:\torrent\music FLAC\00 new rip\07 - Suite for Toy Piano (1948) - V.wav

Peak level 13.4 %
Extraction speed 1.3 X
Track quality 100.0 %
Test CRC 929EEAB9
Copy CRC 929EEAB9
Cannot be verified as accurate (confidence 4) [CE50AA51], AccurateRip returned [51B0118B] (AR v2)
Copy OK

Track 8

Filename D:\torrent\music FLAC\00 new rip\08 - Music for the film 'Works by Calder' (1949-50) for prepared piano - I.wav

Pre-gap length 0:00:15.32

Peak level 12.9 %
Extraction speed 1.9 X
Track quality 100.0 %
Test CRC 304451E7
Copy CRC 304451E7
Cannot be verified as accurate (confidence 4) [C4BB0810], AccurateRip returned [77E75574] (AR v2)
Copy OK

Track 9

Filename D:\torrent\music FLAC\00 new rip\09 - Music for the film 'Works by Calder' (1949-50) for prepared piano - II.wav

Peak level 21.4 %
Extraction speed 2.1 X
Track quality 100.0 %
Test CRC A3B76682
Copy CRC A3B76682
Cannot be verified as accurate (confidence 4) [708A6D11], AccurateRip returned [9E5E1FA9] (AR v2)
Copy OK

Track 10

Filename D:\torrent\music FLAC\00 new rip\10 - Four3 (1991).wav

Pre-gap length 0:00:27.10

Peak level 2.9 %
Extraction speed 2.6 X
Track quality 100.0 %
Test CRC B7D4A430
Copy CRC B7D4A430
Cannot be verified as accurate (confidence 3) [9D9E65E8], AccurateRip returned [79D8F695] (AR v2)
Copy OK


No tracks could be verified as accurate
You may have a different pressing from the one(s) in the database

No errors occurred

End of status report

==== Log checksum 2580CDD2206BD2423CF6E3F9011751B7F699ABFF8F874C1E0390E588DDAEB4DF ====


John Cage - Complete Piano Music, Vols. 1-10 - Steffen Schleiermacher (2004) {18CD Set MDG 613 1731-2 rec 1997-2002}



===