Subcategories

John Carpenter - Anthology (Movie Themes 1974-1998) (2017)

Posted By: delpotro
John Carpenter - Anthology (Movie Themes 1974-1998) (2017)

John Carpenter - Anthology (Movie Themes 1974-1998) (2017)
EAC Rip | FLAC (tracks+log+.cue) | 00:42:34 | 228 Mb
Electronic, Ambient, Rock, Soundtrack | Label: Sacred Bones Records

John Carpenter is a legend. As the director and composer behind dozens of classic movies, Carpenter has established a reputation as one of the greatest filmmakers in the history of modern cinema, as well as one of its most influential musicians. The minimal, synthesizer-driven themes to films like Halloween, Escape From New York, and Assault on Precinct 13 are as indelible as their images, and their timelessness was evident as Carpenter performed them live in a string of internationally sold-out concert dates in 2016. Anthology: Movie Themes 1974-1998 collects 13 classic themes from Carpenter’s illustrious career together on one volume for the first time. Each theme has been newly recorded with the same collaborators that Carpenter worked with on his hit Lost Themes studio albums: his son, Cody Carpenter, and godson, Daniel Davies.
Tracklist:
1. In the Mouth of Madness
2. Assault on Precinct 13
3. The Fog
4. Prince of Darkness
5. Santiago (Vampires)
6. Escape from New York
7. Halloween
8. Porkchop Express (Big Trouble in Little China)
9. They Live
10. The Thing
11. Starman
12. Dark Star
13. Christine

Exact Audio Copy V1.1 from 23. June 2015

EAC extraction logfile from 31. October 2017, 7:42

John Carpenter / Anthology: Movie Themes 1974-1998

Used drive : PIONEER BD-RW BDR-XD05 Adapter: 1 ID: 1

Read mode : Secure
Utilize accurate stream : Yes
Defeat audio cache : Yes
Make use of C2 pointers : No

Read offset correction : 667
Overread into Lead-In and Lead-Out : No
Fill up missing offset samples with silence : Yes
Delete leading and trailing silent blocks : No
Null samples used in CRC calculations : Yes
Used interface : Native Win32 interface for Win NT & 2000
Gap handling : Appended to previous track

Used output format : User Defined Encoder
Selected bitrate : 1024 kBit/s
Quality : High
Add ID3 tag : No
Command line compressor : C:\Program Files (x86)\Exact Audio Copy\FLAC\FLAC.EXE
Additional command line options : -8 -V -T "ARTIST=%artist%" -T "TITLE=%title%" -T "ALBUM=%albumtitle%" -T "DATE=%year%" -T "TRACKNUMBER=%tracknr%" -T "GENRE=%genre%" -T "PERFORMER=%albuminterpret%" -T "COMPOSER=%composer%" %haslyrics%–tag-from-file=LYRICS="%lyricsfile%"%haslyrics% -T "ALBUMARTIST=%albumartist%" -T "DISCNUMBER=%cdnumber%" -T "TOTALDISCS=%totalcds%" -T "TOTALTRACKS=%numtracks%" -T "COMMENT=%comment%" %source% -o %dest%


TOC of the extracted CD

Track | Start | Length | Start sector | End sector
––––––––––––––––––––––––––––-
1 | 0:00.00 | 5:17.22 | 0 | 23796
2 | 5:17.22 | 2:55.51 | 23797 | 36972
3 | 8:12.73 | 3:03.62 | 36973 | 50759
4 | 11:16.60 | 3:13.00 | 50760 | 65234
5 | 14:29.60 | 2:42.37 | 65235 | 77421
6 | 17:12.22 | 3:32.24 | 77422 | 93345
7 | 20:44.46 | 2:57.65 | 93346 | 106685
8 | 23:42.36 | 3:50.38 | 106686 | 123973
9 | 27:32.74 | 3:07.00 | 123974 | 137998
10 | 30:39.74 | 3:37.68 | 137999 | 154341
11 | 34:17.67 | 2:34.36 | 154342 | 165927
12 | 36:52.28 | 1:26.59 | 165928 | 172436
13 | 38:19.12 | 4:15.35 | 172437 | 191596


Track 1

Filename G:\My Storage\Music\New Lossless Rips\Progressive Rock\John Carpenter (My Own 100% FLAC Rips)\(2017) Anthology - Movie Themes 1974-1998\01 - In the Mouth of Madness.wav

Pre-gap length 0:00:02.00

Peak level 77.5 %
Extraction speed 2.9 X
Track quality 100.0 %
Test CRC D3D064E5
Copy CRC D3D064E5
Track not present in AccurateRip database
Copy OK

Track 2

Filename G:\My Storage\Music\New Lossless Rips\Progressive Rock\John Carpenter (My Own 100% FLAC Rips)\(2017) Anthology - Movie Themes 1974-1998\02 - Assault on Precinct 13.wav

Peak level 80.3 %
Extraction speed 3.0 X
Track quality 100.0 %
Test CRC 8BADFFBC
Copy CRC 8BADFFBC
Track not present in AccurateRip database
Copy OK

Track 3

Filename G:\My Storage\Music\New Lossless Rips\Progressive Rock\John Carpenter (My Own 100% FLAC Rips)\(2017) Anthology - Movie Themes 1974-1998\03 - The Fog.wav

Peak level 87.0 %
Extraction speed 2.7 X
Track quality 99.9 %
Test CRC 9AFCEFBE
Copy CRC 9AFCEFBE
Track not present in AccurateRip database
Copy OK

Track 4

Filename G:\My Storage\Music\New Lossless Rips\Progressive Rock\John Carpenter (My Own 100% FLAC Rips)\(2017) Anthology - Movie Themes 1974-1998\04 - Prince of Darkness.wav

Peak level 82.1 %
Extraction speed 3.4 X
Track quality 100.0 %
Test CRC 46968588
Copy CRC 46968588
Track not present in AccurateRip database
Copy OK

Track 5

Filename G:\My Storage\Music\New Lossless Rips\Progressive Rock\John Carpenter (My Own 100% FLAC Rips)\(2017) Anthology - Movie Themes 1974-1998\05 - Santiago (Vampires).wav

Peak level 60.5 %
Extraction speed 3.5 X
Track quality 100.0 %
Test CRC 9E31CC4D
Copy CRC 9E31CC4D
Track not present in AccurateRip database
Copy OK

Track 6

Filename G:\My Storage\Music\New Lossless Rips\Progressive Rock\John Carpenter (My Own 100% FLAC Rips)\(2017) Anthology - Movie Themes 1974-1998\06 - Escape from New York.wav

Peak level 70.7 %
Extraction speed 3.8 X
Track quality 100.0 %
Test CRC 16390B2B
Copy CRC 16390B2B
Track not present in AccurateRip database
Copy OK

Track 7

Filename G:\My Storage\Music\New Lossless Rips\Progressive Rock\John Carpenter (My Own 100% FLAC Rips)\(2017) Anthology - Movie Themes 1974-1998\07 - Halloween.wav

Peak level 72.3 %
Extraction speed 3.8 X
Track quality 100.0 %
Test CRC 510ACAB3
Copy CRC 510ACAB3
Track not present in AccurateRip database
Copy OK

Track 8

Filename G:\My Storage\Music\New Lossless Rips\Progressive Rock\John Carpenter (My Own 100% FLAC Rips)\(2017) Anthology - Movie Themes 1974-1998\08 - Porkchop Express (Big Trouble in Little China).wav

Peak level 87.0 %
Extraction speed 4.2 X
Track quality 100.0 %
Test CRC 16AB4FBB
Copy CRC 16AB4FBB
Track not present in AccurateRip database
Copy OK

Track 9

Filename G:\My Storage\Music\New Lossless Rips\Progressive Rock\John Carpenter (My Own 100% FLAC Rips)\(2017) Anthology - Movie Themes 1974-1998\09 - They Live.wav

Peak level 70.7 %
Extraction speed 4.2 X
Track quality 100.0 %
Test CRC 3A34C042
Copy CRC 3A34C042
Track not present in AccurateRip database
Copy OK

Track 10

Filename G:\My Storage\Music\New Lossless Rips\Progressive Rock\John Carpenter (My Own 100% FLAC Rips)\(2017) Anthology - Movie Themes 1974-1998\10 - The Thing.wav

Peak level 94.1 %
Extraction speed 4.4 X
Track quality 100.0 %
Test CRC 6904CD51
Copy CRC 6904CD51
Track not present in AccurateRip database
Copy OK

Track 11

Filename G:\My Storage\Music\New Lossless Rips\Progressive Rock\John Carpenter (My Own 100% FLAC Rips)\(2017) Anthology - Movie Themes 1974-1998\11 - Starman.wav

Peak level 82.1 %
Extraction speed 4.3 X
Track quality 100.0 %
Test CRC 27BF98F1
Copy CRC 27BF98F1
Track not present in AccurateRip database
Copy OK

Track 12

Filename G:\My Storage\Music\New Lossless Rips\Progressive Rock\John Carpenter (My Own 100% FLAC Rips)\(2017) Anthology - Movie Themes 1974-1998\12 - Dark Star.wav

Peak level 59.4 %
Extraction speed 3.7 X
Track quality 100.0 %
Test CRC 966FB7AF
Copy CRC 966FB7AF
Track not present in AccurateRip database
Copy OK

Track 13

Filename G:\My Storage\Music\New Lossless Rips\Progressive Rock\John Carpenter (My Own 100% FLAC Rips)\(2017) Anthology - Movie Themes 1974-1998\13 - Christine.wav

Peak level 77.5 %
Extraction speed 4.8 X
Track quality 100.0 %
Test CRC 87335F20
Copy CRC 87335F20
Track not present in AccurateRip database
Copy OK


None of the tracks are present in the AccurateRip database

No errors occurred

End of status report

–– CUETools DB Plugin V2.1.6

[CTDB TOCID: h8kXaT2h5LZ.oJHj5GlrsSyO0O4-] found
Submit result: h8kXaT2h5LZ.oJHj5GlrsSyO0O4- has been confirmed
Track | CTDB Status
1 | (13/13) Accurately ripped
2 | (13/13) Accurately ripped
3 | (13/13) Accurately ripped
4 | (13/13) Accurately ripped
5 | (13/13) Accurately ripped
6 | (13/13) Accurately ripped
7 | (13/13) Accurately ripped
8 | (13/13) Accurately ripped
9 | (13/13) Accurately ripped
10 | (13/13) Accurately ripped
11 | (13/13) Accurately ripped
12 | (13/13) Accurately ripped
13 | (13/13) Accurately ripped


==== Log checksum 1BD3A58870F691DEE32486B61EEE889AA2B857F324CFEE7A55F212B4B4AB1C27 ====

Thanks to the Original ripper GodoftheVoodooMoon !