Subcategories

John Coltrane Quartet - Ballads (1962) [MFSL Gold UDCD731]

Posted By: Sartre
John Coltrane Quartet - Ballads (1962) [MFSL Gold UDCD731]

John Coltrane Quartet - Ballads (1962) [MFSL Gold UDCD731]
Jazz | Lossless WavPack+Log+Cue -> 225MB | Covers | EAC Rip | FS/RS/MU

Throughout John Coltrane's discography there are a handful of decisive and controversial albums that split his listening camp into factions. Generally, these occur in his later-period works such as Om and Ascension, which push into some pretty heady blowing. As a contrast, Ballads is often criticized as too easy and as too much of a compromise between Coltrane and Impulse! (the two had just entered into the first year of label representation). Seen as an answer to critics who found his work complicated with too many notes and too thin a concept, Ballads has even been accused of being a record that Coltrane didn't want to make. These conspiracy theories (and there are more) really just get in the way of enjoying a perfectly fine album of Coltrane doing what he always did – exploring new avenues and modes in an inexhaustible search for personal and artistic enlightenment. With Ballads he looks into the warmer side of things, a path he would take with both Johnny Hartman (on John Coltrane and Johnny Hartman) and with Duke Ellington (on Duke Ellington and John Coltrane). Here he lays out for McCoy Tyner mostly, and the results positively shimmer at times. He's not aggressive, and he's not outwardly. Instead he's introspective and at times even predictable, but that is precisely Ballads' draw.

Tracks
1 Say It (Over and Over Again) Loesser, McHugh 4:18
2 You Don't Know What Love Is DePaul, Raye 5:15
3 Too Young to Go Steady Adamson, McHugh 4:23
4 All or Nothing at All Altman, Lawrence 3:39
5 I Wish I Knew Gordon, Warren 4:54
6 What's New? Burke, Haggart 3:47
7 It's Easy to Remember Hart, Rodgers 2:49
8 Nancy (With the Laughing Face) Silvers, VanHeusen 3:10

Personnel:
John Coltrane - tenor saxophone
McCoy Tyner - piano
Jimmi Garrison - bass
Elvin Jones - drums


This release is packaged as a WAVPack ISO file containing the wavpacked audio data plus all logs, cues and covers. With an .iso extension, it can be opened by any ISO editor such as UltraISO, mounted with a virtual CD program or unpacked by archivers like WinRAR and 7Zip. By changing the extension to .wv, it can be played by any media player that can handle WAVPack format and embedded cues (eg. FooBar).


EAC extraction logfile from 30. April 2007, 15:52 for CD
John Coltrane Quartet / Ballads

Used drive : SONY DVD RW DW-D18A Adapter: 1 ID: 0
Read mode : Secure with NO C2, accurate stream, disable cache
Read offset correction : 12
Overread into Lead-In and Lead-Out : No

Used output format : C:\Program Files\FLAC\flac.exe (User Defined Encoder)
128 kBit/s
Additional command line options : -V -8 -T "artist=%a" -T "title=%t" -T "album=%g" - T "date=%y" -T "tracknumber=%n -T "genre=%m" %s

Other options :
Fill up missing offset samples with silence : Yes
Delete leading and trailing silent blocks : No
Native Win32 interface for Win NT & 2000


Track 1
Filename C:\Documents and Settings\My Documents\Downloads\01 - Say It (Over And Over Again).wav

Pre-gap length 0:00:02.00

Peak level 98.8 %
Track quality 100.0 %
Test CRC 3AE261E2
Copy CRC 3AE261E2
Copy OK

Track 2
Filename C:\Documents and Settings\My Documents\Downloads\02 - You Don't Know What Love Is.wav

Pre-gap length 0:00:03.00

Peak level 100.0 %
Track quality 100.0 %
Test CRC 0879B778
Copy CRC 0879B778
Copy OK

Track 3
Filename C:\Documents and Settings\My Documents\Downloads\03 - Too Young To Go Steady.wav

Pre-gap length 0:00:03.16

Peak level 100.0 %
Track quality 99.9 %
Test CRC 862EC22B
Copy CRC 862EC22B
Copy OK

Track 4
Filename C:\Documents and Settings\My Documents\Downloads\04 - All Or Nothing At All.wav

Pre-gap length 0:00:02.82

Peak level 100.0 %
Track quality 100.0 %
Test CRC 67893FF3
Copy CRC 67893FF3
Copy OK

Track 5
Filename C:\Documents and Settings\My Documents\Downloads\05 - I Wish I Knew.wav

Pre-gap length 0:00:02.00

Peak level 100.0 %
Track quality 100.0 %
Test CRC E955F0D7
Copy CRC E955F0D7
Copy OK

Track 6
Filename C:\Documents and Settings\My Documents\Downloads\06 - What's New.wav

Pre-gap length 0:00:03.17

Peak level 100.0 %
Track quality 100.0 %
Test CRC 41B82A54
Copy CRC 41B82A54
Copy OK

Track 7
Filename C:\Documents and Settings\My Documents\Downloads\07 - It's Easy To Remember.wav

Pre-gap length 0:00:02.84

Peak level 100.0 %
Track quality 100.0 %
Test CRC 5ADE42E9
Copy CRC 5ADE42E9
Copy OK

Track 8
Filename C:\Documents and Settings\My Documents\Downloads\08 - Nancy (With The Laughing Face).wav

Pre-gap length 0:00:02.66

Peak level 100.0 %
Track quality 100.0 %
Test CRC D1C3C113
Copy CRC D1C3C113
Copy OK

No errors occured


End of status report




Fileserve
http://www.fileserve.com/file/9tBgzwk/jc_ballads_dcc.part1.rar
http://www.fileserve.com/file/H6hhDYK/jc_ballads_dcc.part2.rar

Rapidshare
http://rapidshare.com/files/416689208/jc_ballads_dcc.part1.rar
http://rapidshare.com/files/416688919/jc_ballads_dcc.part2.rar

Megaupload
http://www.megaupload.com/?d=VD3II2AK
http://www.megaupload.com/?d=STI5MVMJ