Subcategories

John Coltrane - Blue Train (1957) {2003 Rudy Van Gelder Remaster} (ft. Lee Morgan)

Posted By: ruskaval
John Coltrane - Blue Train (1957) {2003 Rudy Van Gelder Remaster} (ft. Lee Morgan)

John Coltrane - Blue Train (1957) {2003 Rudy Van Gelder Remaster} (ft. Lee Morgan)
EAC rip (secure mode) | FLAC+CUE+LOG -> 463 Mb | MP3 @320 -> 141 Mb
Full Artwork @ 400 dpi (jpg) -> 19 Mb
© 2003 Blue Note / Capitol | 7243 4 95326 2 5 | 24-bit remaster
Jazz / Hard Bop / Saxophone / Trumpet


John Coltrane - Blue Train (1957) {2003 Rudy Van Gelder Remaster} (ft. Lee Morgan)

With 1957's BLUE TRAIN, John Coltrane not only firmly established his own voice on the tenor saxophone, but also proved his abilities as a bandleader and composer. The musicians on BLUE TRAIN, hand-picked by Coltrane himself, play superbly, not only as individuals, but also as a cohesive unit–a rare occurence in an era where "all-star" ensembles would come together for one session, then disband just as quickly. Nineteen-year-old trumpeter Lee Morgan spins bop lines in a warm tone, belying his age with his extraordinary playing, while drummer Philly Joe Jones and bassist Paul Chambers keep BLUE TRAIN running with impressive agility.

Two of Coltrane's compositions here, "Moment's Notice" and "Lazy Bird," contain the seeds of harmonic exploration to be found in his later work. At this stage of his career, Trane was still occupied with blowing over increasingly challenging chord changes. His unique tone could be warm and sweet or sharp and insistent, but is always amazingly expressive. Throughout this revered album, Coltrane packs more emotion into one phrase than most arists are capable of in a whole tune.
Personnel: John Coltrane (tenor saxophone); Lee Morgan (trumpet); Curtis Fuller (trombone); Kenny Drew (piano); Paul Chambers (bass); Philly Joe Jones (drums).

tracklist:
1. Blue Train
2. Moment's Notice
3. Locomotion
4. I'm Old Fashioned
5. Lazy Bird
6. Blue Train (alternate take)
7. Lazy Bird (alternate take)

John Coltrane - Blue Train (1957) {2003 Rudy Van Gelder Remaster} (ft. Lee Morgan)

John Coltrane - Blue Train (1957) {2003 Rudy Van Gelder Remaster} (ft. Lee Morgan)

Exact Audio Copy V0.99 prebeta 5 from 4. May 2009

EAC extraction logfile from 4. July 2010, 19:17

John Coltrane / Blue Train

Used drive : TSSTcorpCD/DVDW TS-H552L Adapter: 3 ID: 0

Read mode : Secure
Utilize accurate stream : Yes
Defeat audio cache : Yes
Make use of C2 pointers : No

Read offset correction : 6
Overread into Lead-In and Lead-Out : No
Fill up missing offset samples with silence : Yes
Delete leading and trailing silent blocks : No
Null samples used in CRC calculations : Yes
Used interface : Native Win32 interface for Win NT & 2000
Gap handling : Appended to previous track

Used output format : User Defined Encoder
Selected bitrate : 1024 kBit/s
Quality : High
Add ID3 tag : No
Command line compressor : C:\Program Files\FLAC\flac.exe
Additional command line options : -6 -V -T "ARTIST=%a" -T "TITLE=%t" -T "ALBUM=%g" -T "DATE=%y" -T "TRACKNUMBER=%n" -T "GENRE=%m" -T "COMMENT=EAC FLAC -6" %s


TOC of the extracted CD

Track | Start | Length | Start sector | End sector
––––––––––––––––––––––––––––-
1 | 0:00.00 | 10:44.01 | 0 | 48300
2 | 10:44.01 | 9:10.57 | 48301 | 89607
3 | 19:54.58 | 7:14.18 | 89608 | 122175
4 | 27:09.01 | 7:57.57 | 122176 | 158007
5 | 35:06.58 | 7:07.20 | 158008 | 190052
6 | 42:14.03 | 9:58.29 | 190053 | 234931
7 | 52:12.32 | 7:12.44 | 234932 | 267375


Track 1

Filename C:\John Coltrane - Blue Train (1957) {2003 Rudy Van Gelder Remaster} (ft. Lee Morgan)\01 - Blue Train.wav

Pre-gap length 0:00:02.00

Peak level 97.9 %
Track quality 100.0 %
Test CRC 5407A271
Copy CRC 5407A271
Accurately ripped (confidence 118) [0A56BCE5]
Copy OK

Track 2

Filename C:\John Coltrane - Blue Train (1957) {2003 Rudy Van Gelder Remaster} (ft. Lee Morgan)\02 - Moment's Notice.wav

Pre-gap length 0:00:02.42

Peak level 97.9 %
Track quality 100.0 %
Test CRC 189D47E7
Copy CRC 189D47E7
Accurately ripped (confidence 120) [C5101793]
Copy OK

Track 3

Filename C:\John Coltrane - Blue Train (1957) {2003 Rudy Van Gelder Remaster} (ft. Lee Morgan)\03 - Locomotion.wav

Pre-gap length 0:00:02.72

Peak level 97.9 %
Track quality 100.0 %
Test CRC DAC101E5
Copy CRC DAC101E5
Accurately ripped (confidence 118) [41126E17]
Copy OK

Track 4

Filename C:\John Coltrane - Blue Train (1957) {2003 Rudy Van Gelder Remaster} (ft. Lee Morgan)\04 - I'm Old Fashioned.wav

Pre-gap length 0:00:02.09

Peak level 97.9 %
Track quality 100.0 %
Test CRC D38EA504
Copy CRC D38EA504
Accurately ripped (confidence 119) [C1A5CA5D]
Copy OK

Track 5

Filename C:\John Coltrane - Blue Train (1957) {2003 Rudy Van Gelder Remaster} (ft. Lee Morgan)\05 - Lazy Bird.wav

Pre-gap length 0:00:02.12

Peak level 97.9 %
Track quality 100.0 %
Test CRC C9555FA4
Copy CRC C9555FA4
Accurately ripped (confidence 119) [C3E71E21]
Copy OK

Track 6

Filename C:\John Coltrane - Blue Train (1957) {2003 Rudy Van Gelder Remaster} (ft. Lee Morgan)\06 - Blue Train (Alternate Take).wav

Pre-gap length 0:00:02.65

Peak level 97.9 %
Track quality 99.9 %
Test CRC A6A887E9
Copy CRC A6A887E9
Accurately ripped (confidence 117) [A1A3E6AE]
Copy OK

Track 7

Filename C:\John Coltrane - Blue Train (1957) {2003 Rudy Van Gelder Remaster} (ft. Lee Morgan)\07 - Lazy Bird (Alternate Take).wav

Pre-gap length 0:00:03.44

Peak level 97.9 %
Track quality 100.0 %
Test CRC E6E52A57
Copy CRC E6E52A57
Accurately ripped (confidence 113) [49804F1A]
Copy OK


All tracks accurately ripped

No errors occurred

End of status report

HF Linkz

or

SM Linkz

p.s. the files are interchangeable…

no mirror, plz…