Subcategories

John Coltrane Quartet - The Complete 1962 Copenhagen Concert (2010) {2CD Set Domino Records 891200}

Posted By: ruskaval
John Coltrane Quartet - The Complete 1962 Copenhagen Concert (2010) {2CD Set Domino Records 891200}

John Coltrane Quartet - The Complete 1962 Copenhagen Concert (2010) {2CD Set Domino Records 891200}
EAC rip (secure mode) | FLAC (tracks)+CUE+LOG -> 586 Mb | MP3 @320 -> 306 Mb
Full Artwork @ 300 dpi (jpg) -> 19 Mb | 5% repair rar
© 1962, 2010 Domino Records | 891200
Jazz / Post Bop / Modal Jazz / Saxophone

Limited Edition. The rare 1962 Copenhagen concert by the classic John Coltrane quartet in it's entirety (not to be confused with the 1961 and 1963 performances). Includes inside booklet.

This performance by the Coltrane Quartet is one of the most blistering ever released. Even by the high performance standards this band had set, this concert is extraordinary. I expected great music but this..Coltrane literally tears into the music with both ferocity and grace, it's almost unbearable. I was listening to this in my car and almost had an accident!

The Danish audience is very receptive and apppreciative. I would recommend this set with rabid urgency.
John Coltrane Quartet - The Complete 1962 Copenhagen Concert (2010) {2CD Set Domino Records 891200}


Personnel
John Coltrane - tenor sax
McCoy Tyner - piano
Jimmy Garrison - bass
Elvin Jones - drums

Recorded live at Falkonercentret, Copenhagen, Denmark November 22, 1962.

Track Listing

CD1

01 - Bye Bye Blackbird
02 - Chasin' The Trane
03 - The Inchworm
04 - Every Time We Say Goodbye
05 - Mr. P.C.

John Coltrane Quartet - The Complete 1962 Copenhagen Concert (2010) {2CD Set Domino Records 891200}


CD2
01 - I Want To Talk About You
02 - Traneing In
03 - Impressions
04 - My Favorite Things

John Coltrane Quartet - The Complete 1962 Copenhagen Concert (2010) {2CD Set Domino Records 891200}


Exact Audio Copy V1.0 beta 3 from 29. August 2011

EAC extraction logfile from 17. February 2012, 9:57

John Coltrane Quartet / The Complete 1962 Copenhagen Concert Disc 1

Used drive : hp DVD A DH16ABLH Adapter: 0 ID: 1

Read mode : Secure
Utilize accurate stream : Yes
Defeat audio cache : Yes
Make use of C2 pointers : No

Read offset correction : 6
Overread into Lead-In and Lead-Out : No
Fill up missing offset samples with silence : Yes
Delete leading and trailing silent blocks : No
Null samples used in CRC calculations : Yes
Used interface : Native Win32 interface for Win NT & 2000
Gap handling : Appended to previous track

Used output format : User Defined Encoder
Selected bitrate : 1024 kBit/s
Quality : High
Add ID3 tag : Yes
Command line compressor : C:\Program Files (x86)\Exact Audio Copy\Flac\flac.exe
Additional command line options : -8 -V -T "ARTIST=%artist%" -T "TITLE=%title%" -T "ALBUM=%albumtitle%" -T "DATE=%year%" -T "TRACKNUMBER=%tracknr%" -T "GENRE=%genre%" -T "PERFORMER=%albuminterpret%" -T "COMPOSER=%composer%" %haslyrics%–tag-from-file=LYRICS="%lyricsfile%"%haslyrics% -T "ALBUMARTIST=%albumartist%" -T "DISCNUMBER=%cdnumber%" -T "TOTALDISCS=%totalcds%" -T "TOTALTRACKS=%numtracks%" -T "COMMENT=%comment%" %source% -o %dest%


TOC of the extracted CD

Track | Start | Length | Start sector | End sector
––––––––––––––––––––––––––––-
1 | 0:00.00 | 21:11.42 | 0 | 95366
2 | 21:11.42 | 7:30.40 | 95367 | 129156
3 | 28:42.07 | 9:14.49 | 129157 | 170755
4 | 37:56.56 | 5:36.71 | 170756 | 196026
5 | 43:33.52 | 19:21.09 | 196027 | 283110


Track 1

Filename C:\Eac\Eac-Rips\trane\CD 1\01 - Bye Bye Blackbird.wav

Pre-gap length 0:00:02.00

Peak level 94.9 %
Extraction speed 4.8 X
Track quality 99.9 %
Test CRC 2006831A
Copy CRC 2006831A
Track not present in AccurateRip database
Copy OK

Track 2

Filename C:\Eac\Eac-Rips\trane\CD 1\02 - Chasin' The Trane.wav

Peak level 92.1 %
Extraction speed 5.2 X
Track quality 99.9 %
Test CRC A9758665
Copy CRC A9758665
Track not present in AccurateRip database
Copy OK

Track 3

Filename C:\Eac\Eac-Rips\trane\CD 1\03 - The Inchworm.wav

Peak level 92.8 %
Extraction speed 6.5 X
Track quality 100.0 %
Test CRC B319AEBC
Copy CRC B319AEBC
Track not present in AccurateRip database
Copy OK

Track 4

Filename C:\Eac\Eac-Rips\trane\CD 1\04 - Every Time We Say Goodbye.wav

Peak level 91.3 %
Extraction speed 5.6 X
Track quality 99.9 %
Test CRC D3613148
Copy CRC D3613148
Track not present in AccurateRip database
Copy OK

Track 5

Filename C:\Eac\Eac-Rips\trane\CD 1\05 - Mr. P.C..wav

Peak level 92.3 %
Extraction speed 7.9 X
Track quality 100.0 %
Test CRC 6DA028AD
Copy CRC 6DA028AD
Track not present in AccurateRip database
Copy OK


None of the tracks are present in the AccurateRip database

No errors occurred

End of status report

==== Log checksum 9DC38BB5FC4197166B331B51F6A4A96EA25DE987ED23CF3E163ADE0A38FE8E1B ====

––––––––––––––––––––––––––––––

Exact Audio Copy V1.0 beta 3 from 29. August 2011

EAC extraction logfile from 17. February 2012, 9:58

John Coltrane Quartet / The Complete 1962 Copenhagen Concert Disc 1

Used drive : hp DVD A DH16ABLH Adapter: 0 ID: 1

Read mode : Secure
Utilize accurate stream : Yes
Defeat audio cache : Yes
Make use of C2 pointers : No

Read offset correction : 6
Overread into Lead-In and Lead-Out : No
Fill up missing offset samples with silence : Yes
Delete leading and trailing silent blocks : No
Null samples used in CRC calculations : Yes
Used interface : Native Win32 interface for Win NT & 2000
Gap handling : Appended to previous track

Used output format : User Defined Encoder
Selected bitrate : 1024 kBit/s
Quality : High
Add ID3 tag : Yes
Command line compressor : C:\Program Files (x86)\Exact Audio Copy\Flac\flac.exe
Additional command line options : -8 -V -T "ARTIST=%artist%" -T "TITLE=%title%" -T "ALBUM=%albumtitle%" -T "DATE=%year%" -T "TRACKNUMBER=%tracknr%" -T "GENRE=%genre%" -T "PERFORMER=%albuminterpret%" -T "COMPOSER=%composer%" %haslyrics%–tag-from-file=LYRICS="%lyricsfile%"%haslyrics% -T "ALBUMARTIST=%albumartist%" -T "DISCNUMBER=%cdnumber%" -T "TOTALDISCS=%totalcds%" -T "TOTALTRACKS=%numtracks%" -T "COMMENT=%comment%" %source% -o %dest%


TOC of the extracted CD

Track | Start | Length | Start sector | End sector
––––––––––––––––––––––––––––-
1 | 0:00.00 | 21:11.42 | 0 | 95366
2 | 21:11.42 | 7:30.40 | 95367 | 129156
3 | 28:42.07 | 9:14.49 | 129157 | 170755
4 | 37:56.56 | 5:36.71 | 170756 | 196026
5 | 43:33.52 | 19:21.09 | 196027 | 283110


Track 1

Filename C:\Eac\Eac-Rips\trane\CD 1\01 - Bye Bye Blackbird.wav

Pre-gap length 0:00:02.00

Peak level 94.9 %
Extraction speed 4.8 X
Track quality 99.9 %
Test CRC 2006831A
Copy CRC 2006831A
Track not present in AccurateRip database
Copy OK

Track 2

Filename C:\Eac\Eac-Rips\trane\CD 1\02 - Chasin' The Trane.wav

Peak level 92.1 %
Extraction speed 5.2 X
Track quality 99.9 %
Test CRC A9758665
Copy CRC A9758665
Track not present in AccurateRip database
Copy OK

Track 3

Filename C:\Eac\Eac-Rips\trane\CD 1\03 - The Inchworm.wav

Peak level 92.8 %
Extraction speed 6.5 X
Track quality 100.0 %
Test CRC B319AEBC
Copy CRC B319AEBC
Track not present in AccurateRip database
Copy OK

Track 4

Filename C:\Eac\Eac-Rips\trane\CD 1\04 - Every Time We Say Goodbye.wav

Peak level 91.3 %
Extraction speed 5.6 X
Track quality 99.9 %
Test CRC D3613148
Copy CRC D3613148
Track not present in AccurateRip database
Copy OK

Track 5

Filename C:\Eac\Eac-Rips\trane\CD 1\05 - Mr. P.C..wav

Peak level 92.3 %
Extraction speed 7.9 X
Track quality 100.0 %
Test CRC 6DA028AD
Copy CRC 6DA028AD
Track not present in AccurateRip database
Copy OK


None of the tracks are present in the AccurateRip database

No errors occurred

End of status report

==== Log checksum C17AF0597C155B7FE6C7C636A6A3C3A439E5BCFAA17C239AC5F24FB543ECE29A ====
Exact Audio Copy V1.0 beta 3 from 29. August 2011

EAC extraction logfile from 17. February 2012, 11:14

John Coltrane Quartet / The Complete 1962 Copenhagen Concert Disc 2

Used drive : hp DVD A DH16ABLH Adapter: 0 ID: 1

Read mode : Secure
Utilize accurate stream : Yes
Defeat audio cache : Yes
Make use of C2 pointers : No

Read offset correction : 6
Overread into Lead-In and Lead-Out : No
Fill up missing offset samples with silence : Yes
Delete leading and trailing silent blocks : No
Null samples used in CRC calculations : Yes
Used interface : Native Win32 interface for Win NT & 2000
Gap handling : Appended to previous track

Used output format : User Defined Encoder
Selected bitrate : 1024 kBit/s
Quality : High
Add ID3 tag : Yes
Command line compressor : C:\Program Files (x86)\Exact Audio Copy\Flac\flac.exe
Additional command line options : -8 -V -T "ARTIST=%artist%" -T "TITLE=%title%" -T "ALBUM=%albumtitle%" -T "DATE=%year%" -T "TRACKNUMBER=%tracknr%" -T "GENRE=%genre%" -T "PERFORMER=%albuminterpret%" -T "COMPOSER=%composer%" %haslyrics%–tag-from-file=LYRICS="%lyricsfile%"%haslyrics% -T "ALBUMARTIST=%albumartist%" -T "DISCNUMBER=%cdnumber%" -T "TOTALDISCS=%totalcds%" -T "TOTALTRACKS=%numtracks%" -T "COMMENT=%comment%" %source% -o %dest%


TOC of the extracted CD

Track | Start | Length | Start sector | End sector
––––––––––––––––––––––––––––-
1 | 0:00.00 | 11:10.08 | 0 | 50257
2 | 11:10.08 | 23:23.00 | 50258 | 155482
3 | 34:33.08 | 9:02.20 | 155483 | 196152
4 | 43:35.28 | 19:54.31 | 196153 | 285733


Track 1

Filename C:\Eac\Eac-Rips\trane\CD 2\01 - I Want To Talk About You.wav

Pre-gap length 0:00:02.00

Peak level 96.8 %
Extraction speed 4.5 X
Track quality 100.0 %
Test CRC 4305735F
Copy CRC 4305735F
Track not present in AccurateRip database
Copy OK

Track 2

Filename C:\Eac\Eac-Rips\trane\CD 2\02 - Traneing In.wav

Peak level 100.0 %
Extraction speed 5.8 X
Track quality 99.9 %
Test CRC 612812E4
Copy CRC 612812E4
Track not present in AccurateRip database
Copy OK

Track 3

Filename C:\Eac\Eac-Rips\trane\CD 2\03 - Impressions.wav

Peak level 99.9 %
Extraction speed 6.8 X
Track quality 100.0 %
Test CRC 33C9D5AD
Copy CRC 33C9D5AD
Track not present in AccurateRip database
Copy OK

Track 4

Filename C:\Eac\Eac-Rips\trane\CD 2\04 - My Favorite Things.wav

Peak level 90.5 %
Extraction speed 7.8 X
Track quality 100.0 %
Test CRC D0318A5E
Copy CRC D0318A5E
Track not present in AccurateRip database
Copy OK


None of the tracks are present in the AccurateRip database

No errors occurred

End of status report

==== Log checksum 9A8F148318A148D3F54882B9B00070B49FBAB6E35415BF414F53FE9A044732E6 ====

––––––––––––––––––––––––––––––

Exact Audio Copy V1.0 beta 3 from 29. August 2011

EAC extraction logfile from 17. February 2012, 11:14

John Coltrane Quartet / The Complete 1962 Copenhagen Concert Disc 2

Used drive : hp DVD A DH16ABLH Adapter: 0 ID: 1

Read mode : Secure
Utilize accurate stream : Yes
Defeat audio cache : Yes
Make use of C2 pointers : No

Read offset correction : 6
Overread into Lead-In and Lead-Out : No
Fill up missing offset samples with silence : Yes
Delete leading and trailing silent blocks : No
Null samples used in CRC calculations : Yes
Used interface : Native Win32 interface for Win NT & 2000
Gap handling : Appended to previous track

Used output format : User Defined Encoder
Selected bitrate : 1024 kBit/s
Quality : High
Add ID3 tag : Yes
Command line compressor : C:\Program Files (x86)\Exact Audio Copy\Flac\flac.exe
Additional command line options : -8 -V -T "ARTIST=%artist%" -T "TITLE=%title%" -T "ALBUM=%albumtitle%" -T "DATE=%year%" -T "TRACKNUMBER=%tracknr%" -T "GENRE=%genre%" -T "PERFORMER=%albuminterpret%" -T "COMPOSER=%composer%" %haslyrics%–tag-from-file=LYRICS="%lyricsfile%"%haslyrics% -T "ALBUMARTIST=%albumartist%" -T "DISCNUMBER=%cdnumber%" -T "TOTALDISCS=%totalcds%" -T "TOTALTRACKS=%numtracks%" -T "COMMENT=%comment%" %source% -o %dest%


TOC of the extracted CD

Track | Start | Length | Start sector | End sector
––––––––––––––––––––––––––––-
1 | 0:00.00 | 11:10.08 | 0 | 50257
2 | 11:10.08 | 23:23.00 | 50258 | 155482
3 | 34:33.08 | 9:02.20 | 155483 | 196152
4 | 43:35.28 | 19:54.31 | 196153 | 285733


Track 1

Filename C:\Eac\Eac-Rips\trane\CD 2\01 - I Want To Talk About You.wav

Pre-gap length 0:00:02.00

Peak level 96.8 %
Extraction speed 4.5 X
Track quality 100.0 %
Test CRC 4305735F
Copy CRC 4305735F
Track not present in AccurateRip database
Copy OK

Track 2

Filename C:\Eac\Eac-Rips\trane\CD 2\02 - Traneing In.wav

Peak level 100.0 %
Extraction speed 5.8 X
Track quality 99.9 %
Test CRC 612812E4
Copy CRC 612812E4
Track not present in AccurateRip database
Copy OK

Track 3

Filename C:\Eac\Eac-Rips\trane\CD 2\03 - Impressions.wav

Peak level 99.9 %
Extraction speed 6.8 X
Track quality 100.0 %
Test CRC 33C9D5AD
Copy CRC 33C9D5AD
Track not present in AccurateRip database
Copy OK

Track 4

Filename C:\Eac\Eac-Rips\trane\CD 2\04 - My Favorite Things.wav

Peak level 90.5 %
Extraction speed 7.8 X
Track quality 100.0 %
Test CRC D0318A5E
Copy CRC D0318A5E
Track not present in AccurateRip database
Copy OK


None of the tracks are present in the AccurateRip database

No errors occurred

End of status report

==== Log checksum 9A8F148318A148D3F54882B9B00070B49FBAB6E35415BF414F53FE9A044732E6 ====


John Coltrane Quartet - The Complete 1962 Copenhagen Concert (2010) {2CD Set Domino Records 891200}



===