Subcategories

John Coltrane - The Impulse! Albums: Volume Two (2008) [5CD] {Verve Originals Series Remaster} [Repost]

Posted By: Hungry Mind
John Coltrane - The Impulse! Albums: Volume Two (2008) [5CD] {Verve Originals Series Remaster} [Repost]

John Coltrane - The Impulse! Albums: Volume Two (2007) [5CD] {Verve Originals Series Remaster}
EAC Rip | FLAC (tracks+.cue+log) - 1,19 GB | Scans TIFF - 492 MB | MP3 CBR 320 kbps (LAME 3.98) - 429 MB
Genre: jazz | RAR 5% Rec. | Label: Verve / Impulse! | 2008 Verve Originals

This second volume in Universal/Impulse's reissuing of the albums of John Coltrane contains some choice titles. For those who love the early Impulse Trane, there is certainly something here for you in the John Coltrane and Johnny Hartman collection of ballads. There's also the excellent quartet era with Live at Birdland, Crescent, and the seminal A Love Supreme, the record that changed everything ever after for him. In addition, there is the 1963 album Impressions, a compilation of sorts. There is a long quartet selection called "Up 'Gainst the Wall" (1962), a beautiful but brief "After the Rain" with drummer Roy Haynes sitting in for Elvin Jones from 1963, the title cut, and opening number "India," recorded with Eric Dolphy on bass clarinet and Reggie Workman as an additional bassist.

John Coltrane - The Impulse! Albums: Volume Two (2008) [5CD] {Verve Originals Series Remaster} [Repost]

John Coltrane - John Coltrane and Johnny Hartman (1963)
EAC Rip | FLAC (tracks+.cue+log) - 179 MB | Scans TIFF - 98 MB | MP3 CBR 320 kbps (LAME 3.98) - 74 MB
Genre: jazz | RAR 5% Rec. | Label: Verve / Impulse! | CAT # 64897 5 | 2008 Verve Originals

John Coltrane's matchup with singer Johnny Hartman, although quite unexpected, works extremely well. Hartman was in prime form on the six ballads, and his versions of "Lush Life" and "My One and Only Love" have never been topped. Coltrane's playing throughout the session is beautiful, sympathetic, and still exploratory; he sticks exclusively to tenor on the date. At only half an hour, one wishes there were twice as much music, but what is here is classic, essential for all jazz collections.
John Coltrane - The Impulse! Albums: Volume Two (2008) [5CD] {Verve Originals Series Remaster} [Repost]


ARTISTS
John Coltrane - tenor sax
Johnny Hartman - vocals
McCoy Tuner - piano
Jimmy Garrison - bass
Elvin Jones - drums

TRACKLIST
01. They Say It's Wonderful
02. Dedicated to You
03. My One and Only Love
04. Lush Life
05. You Are Too Beautiful
06. Autumn Serenade

Exact Audio Copy V1.0 beta 3 from 29. August 2011

EAC extraction logfile from 9. November 2012, 11:26

John Coltrane and Johnny Hartman / John Coltrane and Johnny Hartman

Used drive : ATAPI iHAS124 B Adapter: 4 ID: 0

Read mode : Secure
Utilize accurate stream : Yes
Defeat audio cache : Yes
Make use of C2 pointers : No

Read offset correction : 6
Overread into Lead-In and Lead-Out : No
Fill up missing offset samples with silence : Yes
Delete leading and trailing silent blocks : No
Null samples used in CRC calculations : Yes
Used interface : Native Win32 interface for Win NT & 2000
Gap handling : Appended to previous track

Used output format : User Defined Encoder
Selected bitrate : 1024 kBit/s
Quality : High
Add ID3 tag : No
Command line compressor : C:\Program Files (x86)\FLAC\flac.exe
Additional command line options : -8 -V -T "ARTIST=%artist%" -T "TITLE=%title%" -T "ALBUM=%albumtitle%" -T "DATE=%year%" -T "TRACKNUMBER=%tracknr%" -T "GENRE=%genre%" -T "PERFORMER=%albuminterpret%" -T "COMPOSER=%composer%" %haslyrics%–tag-from-file=LYRICS="%lyricsfile%"%haslyrics% -T "ALBUMARTIST=%albumartist%" -T "DISCNUMBER=%cdnumber%" -T "TOTALDISCS=%totalcds%" -T "TOTALTRACKS=%numtracks%" -T "COMMENT=%comment%" %source% -o %dest%


TOC of the extracted CD

Track | Start | Length | Start sector | End sector
––––––––––––––––––––––––––––-
1 | 0:00.00 | 5:20.58 | 0 | 24057
2 | 5:20.58 | 5:32.09 | 24058 | 48966
3 | 10:52.67 | 4:55.18 | 48967 | 71109
4 | 15:48.10 | 5:29.46 | 71110 | 95830
5 | 21:17.56 | 5:36.41 | 95831 | 121071
6 | 26:54.22 | 4:19.65 | 121072 | 140561


Track 1

Filename C:\EAC\John Coltrane {Impulse! Verve Originals}\07. John Coltrane and Johnny Hartman\01 - They Say It's Wonderful.wav

Pre-gap length 0:00:02.00

Peak level 100.0 %
Extraction speed 5.5 X
Track quality 100.0 %
Test CRC 8EF27133
Copy CRC 8EF27133
Accurately ripped (confidence 14) [75D486EF] (AR v2)
Copy OK

Track 2

Filename C:\EAC\John Coltrane {Impulse! Verve Originals}\07. John Coltrane and Johnny Hartman\02 - Dedicated To You.wav

Peak level 100.0 %
Extraction speed 6.3 X
Track quality 100.0 %
Test CRC B62808CD
Copy CRC B62808CD
Accurately ripped (confidence 14) [61C3E7A6] (AR v2)
Copy OK

Track 3

Filename C:\EAC\John Coltrane {Impulse! Verve Originals}\07. John Coltrane and Johnny Hartman\03 - My One And Only Love.wav

Peak level 100.0 %
Extraction speed 6.9 X
Track quality 100.0 %
Test CRC 48F55B47
Copy CRC 48F55B47
Accurately ripped (confidence 14) [1D20F750] (AR v2)
Copy OK

Track 4

Filename C:\EAC\John Coltrane {Impulse! Verve Originals}\07. John Coltrane and Johnny Hartman\04 - Lush Life.wav

Peak level 100.0 %
Extraction speed 7.5 X
Track quality 100.0 %
Test CRC A91ADB06
Copy CRC A91ADB06
Accurately ripped (confidence 14) [1BED057B] (AR v2)
Copy OK

Track 5

Filename C:\EAC\John Coltrane {Impulse! Verve Originals}\07. John Coltrane and Johnny Hartman\05 - You Are Too Beautiful.wav

Peak level 99.2 %
Extraction speed 8.1 X
Track quality 100.0 %
Test CRC 1505E95B
Copy CRC 1505E95B
Accurately ripped (confidence 13) [CDBBF300] (AR v2)
Copy OK

Track 6

Filename C:\EAC\John Coltrane {Impulse! Verve Originals}\07. John Coltrane and Johnny Hartman\06 - Autumn Serenade.wav

Peak level 100.0 %
Extraction speed 8.3 X
Track quality 100.0 %
Test CRC 42788B8F
Copy CRC 42788B8F
Accurately ripped (confidence 14) [32CC7040] (AR v2)
Copy OK


All tracks accurately ripped

No errors occurred

End of status report

==== Log checksum 446E77E6A5F7BAE5EDBDFB660A7024B082E44CBB2EEAB12DC9561DE5C261E493 ====


John Coltrane - The Impulse! Albums: Volume Two (2008) [5CD] {Verve Originals Series Remaster} [Repost]


––––––––––––––––––––-

John Coltrane - The Impulse! Albums: Volume Two (2008) [5CD] {Verve Originals Series Remaster} [Repost]

John Coltrane - Impressions (1963)
EAC Rip | FLAC (tracks+.cue+log) - 281 MB | Scans TIFF - 118 MB | MP3 CBR 320 kbps (LAME 3.98) - 88 MB
Genre: jazz | RAR 5% Rec. | Label: Verve / Impulse! | CAT # 64899 9 | 2008 Verve Originals

One of John Coltrane's great LPs of the early '60s, Impressions might seem like a hodgepodge, with tracks from three different sessions in three different years. The two long tracks–"Impressions" and "India"–come from Coltrane's November 1961 stand at the Village Vanguard, and together they represent the poles of Coltrane's conception at the time. "Impressions," a personal variant of "So What" that Coltrane had long explored as a member of the Miles Davis quintet, is an uptempo tenor onslaught, a blistering, sustained exploration in which Coltrane and drummer Elvin Jones established new parameters for intensity and sheer physicality. "India," a variant on the earlier "Mr. Knight," has Coltrane's soprano and Eric Dolphy's bass clarinet keening over two pulsing basses, piano, and drums, pressing jazz toward hypnotic depths. Balancing those extraordinary live performances are more compact studio recordings. "Up 'Gainst the Wall," from 1962, is a tautly convoluted blues without piano.

John Coltrane - The Impulse! Albums: Volume Two (2008) [5CD] {Verve Originals Series Remaster} [Repost]


ARTISTS
John Coltrane - tenor saxophone, soprano saxophone
Eric Dolphy - alto saxophone, bass clarinet
McCoy Tyner - piano
Jimmy Garrison, Reggie Workman - bass
Roy Haynes, Elvin Jones - drums

TRACKLIST
01. India
02. Up 'Gainst The Wall
03. Impressions
04. After The Rain

Exact Audio Copy V1.0 beta 3 from 29. August 2011

EAC extraction logfile from 9. November 2012, 12:24

John Coltrane / Impressions

Used drive : ATAPI iHAS124 B Adapter: 4 ID: 0

Read mode : Secure
Utilize accurate stream : Yes
Defeat audio cache : Yes
Make use of C2 pointers : No

Read offset correction : 6
Overread into Lead-In and Lead-Out : No
Fill up missing offset samples with silence : Yes
Delete leading and trailing silent blocks : No
Null samples used in CRC calculations : Yes
Used interface : Native Win32 interface for Win NT & 2000
Gap handling : Appended to previous track

Used output format : User Defined Encoder
Selected bitrate : 1024 kBit/s
Quality : High
Add ID3 tag : No
Command line compressor : C:\Program Files (x86)\FLAC\flac.exe
Additional command line options : -8 -V -T "ARTIST=%artist%" -T "TITLE=%title%" -T "ALBUM=%albumtitle%" -T "DATE=%year%" -T "TRACKNUMBER=%tracknr%" -T "GENRE=%genre%" -T "PERFORMER=%albuminterpret%" -T "COMPOSER=%composer%" %haslyrics%–tag-from-file=LYRICS="%lyricsfile%"%haslyrics% -T "ALBUMARTIST=%albumartist%" -T "DISCNUMBER=%cdnumber%" -T "TOTALDISCS=%totalcds%" -T "TOTALTRACKS=%numtracks%" -T "COMMENT=%comment%" %source% -o %dest%


TOC of the extracted CD

Track | Start | Length | Start sector | End sector
––––––––––––––––––––––––––––-
1 | 0:00.00 | 14:09.27 | 0 | 63701
2 | 14:09.27 | 3:14.00 | 63702 | 78251
3 | 17:23.27 | 15:01.63 | 78252 | 145889
4 | 32:25.15 | 4:09.34 | 145890 | 164598


Track 1

Filename C:\EAC\John Coltrane {Impulse! Verve Originals}\07. Impressions (1963)\01 - India.wav

Pre-gap length 0:00:02.00

Peak level 100.0 %
Extraction speed 6.5 X
Track quality 100.0 %
Test CRC 37BD6964
Copy CRC 37BD6964
Accurately ripped (confidence 16) [CD2A55A2] (AR v1)
Copy OK

Track 2

Filename C:\EAC\John Coltrane {Impulse! Verve Originals}\07. Impressions (1963)\02 - Up 'Gainst The Wall.wav

Peak level 100.0 %
Extraction speed 6.6 X
Track quality 100.0 %
Test CRC ADBA5624
Copy CRC ADBA5624
Accurately ripped (confidence 16) [CA9F8996] (AR v1)
Copy OK

Track 3

Filename C:\EAC\John Coltrane {Impulse! Verve Originals}\07. Impressions (1963)\03 - Impressions.wav

Peak level 100.0 %
Extraction speed 8.7 X
Track quality 100.0 %
Test CRC 0B262DF5
Copy CRC 0B262DF5
Accurately ripped (confidence 16) [191611D5] (AR v1)
Copy OK

Track 4

Filename C:\EAC\John Coltrane {Impulse! Verve Originals}\07. Impressions (1963)\04 - After The Rain.wav

Peak level 97.9 %
Extraction speed 8.7 X
Track quality 100.0 %
Test CRC 6D6F4152
Copy CRC 6D6F4152
Accurately ripped (confidence 15) [AB0FCFD1] (AR v1)
Copy OK


All tracks accurately ripped

No errors occurred

End of status report

==== Log checksum D35DF4B81EC306242EF72B472E23A7B7E55BE105CA77348662F242801B66E754 ====


John Coltrane - The Impulse! Albums: Volume Two (2008) [5CD] {Verve Originals Series Remaster} [Repost]


–––––––––––––––––––––-

John Coltrane - The Impulse! Albums: Volume Two (2008) [5CD] {Verve Originals Series Remaster} [Repost]

John Coltrane - Live At Birdland (1963)
EAC Rip | FLAC (tracks+.cue+log) - 279 MB | Scans TIFF - 100 MB | MP3 CBR 320 kbps (LAME 3.98) - 93 MB
Genre: jazz | RAR 5% Rec. | Label: Verve / Impulse! | CAT # 64900 2 | 2008 Verve Originals

Arguably John Coltrane's finest all-around album, this recording has brilliant versions of "Afro Blue" and "I Want to Talk About You"; the second half of the latter features Coltrane on unaccompanied tenor tearing into the piece but never losing sight of the fact that it is a beautiful ballad. The remainder of this album ("Alabama," "The Promise," and "Your Lady") is almost at the same high level.

John Coltrane - The Impulse! Albums: Volume Two (2008) [5CD] {Verve Originals Series Remaster} [Repost]


ARTISTS
John Coltrane (soprano & tenor saxophones)
McCoy Tyner (piano)
Jimmy Garrison (bass)
Elvin Jones (drums)

TRACKLIST
01. Afro Blue
02. I Want To Talk About You
03. The Promise
04. Alabama
05. Your Lady

Exact Audio Copy V1.0 beta 3 from 29. August 2011

EAC extraction logfile from 9. November 2012, 16:22

John Coltrane / Live At Birdland

Used drive : ATAPI iHAS124 B Adapter: 4 ID: 0

Read mode : Secure
Utilize accurate stream : Yes
Defeat audio cache : Yes
Make use of C2 pointers : No

Read offset correction : 6
Overread into Lead-In and Lead-Out : No
Fill up missing offset samples with silence : Yes
Delete leading and trailing silent blocks : No
Null samples used in CRC calculations : Yes
Used interface : Native Win32 interface for Win NT & 2000
Gap handling : Appended to previous track

Used output format : User Defined Encoder
Selected bitrate : 1024 kBit/s
Quality : High
Add ID3 tag : No
Command line compressor : C:\Program Files (x86)\FLAC\flac.exe
Additional command line options : -8 -V -T "ARTIST=%artist%" -T "TITLE=%title%" -T "ALBUM=%albumtitle%" -T "DATE=%year%" -T "TRACKNUMBER=%tracknr%" -T "GENRE=%genre%" -T "PERFORMER=%albuminterpret%" -T "COMPOSER=%composer%" %haslyrics%–tag-from-file=LYRICS="%lyricsfile%"%haslyrics% -T "ALBUMARTIST=%albumartist%" -T "DISCNUMBER=%cdnumber%" -T "TOTALDISCS=%totalcds%" -T "TOTALTRACKS=%numtracks%" -T "COMMENT=%comment%" %source% -o %dest%


TOC of the extracted CD

Track | Start | Length | Start sector | End sector
––––––––––––––––––––––––––––-
1 | 0:00.00 | 10:49.35 | 0 | 48709
2 | 10:49.35 | 8:10.40 | 48710 | 85499
3 | 19:00.00 | 8:07.69 | 85500 | 122093
4 | 27:07.69 | 5:08.70 | 122094 | 145263
5 | 32:16.64 | 6:37.72 | 145264 | 175110


Track 1

Filename C:\EAC\John Coltrane {Impulse! Verve Originals}\08. Live At Birdland (1963)\01 - Afro-Blue.wav

Pre-gap length 0:00:02.00

Peak level 100.0 %
Extraction speed 6.2 X
Track quality 100.0 %
Test CRC AE87FEED
Copy CRC AE87FEED
Accurately ripped (confidence 6) [2A57E10B] (AR v2)
Copy OK

Track 2

Filename C:\EAC\John Coltrane {Impulse! Verve Originals}\08. Live At Birdland (1963)\02 - I Want To Talk About You.wav

Peak level 100.0 %
Extraction speed 7.4 X
Track quality 100.0 %
Test CRC F4227FF9
Copy CRC F4227FF9
Accurately ripped (confidence 6) [D39ED6B2] (AR v2)
Copy OK

Track 3

Filename C:\EAC\John Coltrane {Impulse! Verve Originals}\08. Live At Birdland (1963)\03 - The Promise.wav

Peak level 100.0 %
Extraction speed 8.2 X
Track quality 100.0 %
Test CRC 16C659EF
Copy CRC 16C659EF
Accurately ripped (confidence 6) [9E0D98A0] (AR v2)
Copy OK

Track 4

Filename C:\EAC\John Coltrane {Impulse! Verve Originals}\08. Live At Birdland (1963)\04 - Alabama.wav

Peak level 100.0 %
Extraction speed 8.5 X
Track quality 100.0 %
Test CRC 58F91325
Copy CRC 58F91325
Accurately ripped (confidence 6) [95EB2C96] (AR v2)
Copy OK

Track 5

Filename C:\EAC\John Coltrane {Impulse! Verve Originals}\08. Live At Birdland (1963)\05 - Your Lady.wav

Peak level 100.0 %
Extraction speed 9.3 X
Track quality 100.0 %
Test CRC 470711B8
Copy CRC 470711B8
Accurately ripped (confidence 6) [C407147C] (AR v2)
Copy OK


All tracks accurately ripped

No errors occurred

End of status report

==== Log checksum F56A86325733F80AF779719B34AD30B81CD3F02DBD6DBC6D9084714477C367D4 ====


John Coltrane - The Impulse! Albums: Volume Two (2008) [5CD] {Verve Originals Series Remaster} [Repost]


–––––––––––––––––-

John Coltrane - The Impulse! Albums: Volume Two (2008) [5CD] {Verve Originals Series Remaster} [Repost]

John Coltrane - Crescent (1964)
EAC Rip | FLAC (tracks+.cue+log) - 256 MB | Scans TIFF - 93 MB | MP3 CBR 320 kbps (LAME 3.98) - 97 MB
Genre: jazz | RAR 5% Rec. | Label: Verve / Impulse! | CAT # 64902 6 | 2008 Verve Originals

John Coltrane's Crescent from the spring of 1964 is an epic album, showing his meditative side that would serve as a perfect prelude to his immortal work A Love Supreme. His finest quartet with McCoy Tyner, Jimmy Garrison, and Elvin Jones supports the somewhat softer side of Coltrane, and while not completely in ballad style, the focus and accessible tone of this recording work wonders for anyone willing to sit back and let this music enrich and wash over you. While not quite at the "sheets of sound" unfettered music he would make before his passing in 1967, there are hints of this group stretching out in restrained dynamics, playing as lovely a progressive jazz as heard anywhere in any time period. The highlights come at the top with the reverent, ruminating, and free ballad "Crescent," with a patient Coltrane acquiescing to swinging, while the utterly beautiful "Wise One" is accented by the delicate and chime-like musings of Tyner with a deeply hued tenor from Coltrane unrushed even in a slight Latin rhythm. These are the ultimate spiritual songs, and ultimately two of the greatest in Coltrane's storied career. But "Bessie's Blues" and "Lonnie's Lament" are just as revered in the sense that they are covered by jazz musicians worldwide, the former a hard bop wonder with a classic short repeat chorus, the latter one of the most somber, sad jazz ballad reflections in a world full of injustice and unfairness – the ultimate eulogy. Garrison and especially Jones are put through their emotional paces, but on the finale "The Drum Thing," the African-like tom-tom sounds extracted by Jones with Coltrane's sighing tenor, followed by some truly amazing case study-frantic snare drumming, makes it one to be revisited. In the liner notes, a quote from Leroi Jones/Amiri Baraka states John Coltrane was "daringly human," and no better example of this quality transferred to musical endeavor is available than on this definitive, must have album that encompasses all that he was and eventually would become.
John Coltrane - The Impulse! Albums: Volume Two (2008) [5CD] {Verve Originals Series Remaster} [Repost]


ARTISTS
John Coltrane (tenor saxophone)
McCoy Tyner (piano)
Jimmy Garrison (bass)
Elvin Jones (drums)

TRACKLIST
01. Crescent
02. Wise One
03. Bessie's Blues
04. Lonnie's Lament
05. The Drum Thing

Exact Audio Copy V1.0 beta 3 from 29. August 2011

EAC extraction logfile from 9. November 2012, 23:24

John Coltrane / Crescent

Used drive : ATAPI iHAS124 B Adapter: 4 ID: 0

Read mode : Secure
Utilize accurate stream : Yes
Defeat audio cache : Yes
Make use of C2 pointers : No

Read offset correction : 6
Overread into Lead-In and Lead-Out : No
Fill up missing offset samples with silence : Yes
Delete leading and trailing silent blocks : No
Null samples used in CRC calculations : Yes
Used interface : Native Win32 interface for Win NT & 2000
Gap handling : Appended to previous track

Used output format : User Defined Encoder
Selected bitrate : 1024 kBit/s
Quality : High
Add ID3 tag : No
Command line compressor : C:\Program Files (x86)\FLAC\flac.exe
Additional command line options : -8 -V -T "ARTIST=%artist%" -T "TITLE=%title%" -T "ALBUM=%albumtitle%" -T "DATE=%year%" -T "TRACKNUMBER=%tracknr%" -T "GENRE=%genre%" -T "PERFORMER=%albuminterpret%" -T "COMPOSER=%composer%" %haslyrics%–tag-from-file=LYRICS="%lyricsfile%"%haslyrics% -T "ALBUMARTIST=%albumartist%" -T "DISCNUMBER=%cdnumber%" -T "TOTALDISCS=%totalcds%" -T "TOTALTRACKS=%numtracks%" -T "COMMENT=%comment%" %source% -o %dest%


TOC of the extracted CD

Track | Start | Length | Start sector | End sector
––––––––––––––––––––––––––––-
1 | 0:00.00 | 8:44.20 | 0 | 39319
2 | 8:44.20 | 9:03.43 | 39320 | 80087
3 | 17:47.63 | 3:35.07 | 80088 | 96219
4 | 21:22.70 | 11:47.70 | 96220 | 149314
5 | 33:10.65 | 7:23.15 | 149315 | 182554


Track 1

Filename C:\EAC\John Coltrane {Impulse! Verve Originals}\09. Crescent (1964)\01 - Crescent.wav

Pre-gap length 0:00:02.00

Peak level 100.0 %
Extraction speed 6.0 X
Track quality 100.0 %
Test CRC 979235EB
Copy CRC 979235EB
Accurately ripped (confidence 9) [F5EB203B] (AR v2)
Copy OK

Track 2

Filename C:\EAC\John Coltrane {Impulse! Verve Originals}\09. Crescent (1964)\02 - Wise One.wav

Peak level 100.0 %
Extraction speed 7.2 X
Track quality 100.0 %
Test CRC F650CEFB
Copy CRC F650CEFB
Accurately ripped (confidence 9) [D6CC0180] (AR v2)
Copy OK

Track 3

Filename C:\EAC\John Coltrane {Impulse! Verve Originals}\09. Crescent (1964)\03 - Bessie's Blues.wav

Peak level 100.0 %
Extraction speed 5.9 X
Track quality 99.9 %
Test CRC 24074503
Copy CRC 24074503
Accurately ripped (confidence 9) [7927EB86] (AR v2)
Copy OK

Track 4

Filename C:\EAC\John Coltrane {Impulse! Verve Originals}\09. Crescent (1964)\04 - Lonnie's Lament.wav

Peak level 100.0 %
Extraction speed 8.9 X
Track quality 100.0 %
Test CRC 763C4DA8
Copy CRC 763C4DA8
Accurately ripped (confidence 9) [C026082D] (AR v2)
Copy OK

Track 5

Filename C:\EAC\John Coltrane {Impulse! Verve Originals}\09. Crescent (1964)\05 - The Drum Thing.wav

Peak level 100.0 %
Extraction speed 8.5 X
Track quality 99.9 %
Test CRC 0735D1B2
Copy CRC 0735D1B2
Accurately ripped (confidence 9) [6CE13321] (AR v2)
Copy OK


All tracks accurately ripped

No errors occurred

End of status report

==== Log checksum 9A213D2BC344B348E3C60B3DCEE902D16F88937FE146E57C7EE96F2913B40BD4 ====


John Coltrane - The Impulse! Albums: Volume Two (2008) [5CD] {Verve Originals Series Remaster} [Repost]


–––––––––––––––––––

John Coltrane - The Impulse! Albums: Volume Two (2008) [5CD] {Verve Originals Series Remaster} [Repost]

John Coltrane - A Love Supreme (1964)
EAC Rip | FLAC (tracks+.cue+log) - 224 MB | Scans TIFF - 85 MB | MP3 CBR 320 kbps (LAME 3.98) - 78 MB
Genre: jazz | RAR 5% Rec. | Label: Verve / Impulse! | CAT # 64903 3 | 2008 Verve Originals

Easily one of the most important records ever made, John Coltrane's A Love Supreme was his pinnacle studio outing that at once compiled all of his innovations from his past, spoke of his current deep spirituality, and also gave a glimpse into the next two and a half years (sadly, those would be his last). Recorded at the end of 1964, Trane's classic quartet of Elvin Jones, McCoy Tyner, and Jimmy Garrison stepped into the studio and created one of the most thought-provoking, concise, and technically pleasing albums of their bountiful relationship (not to mention his best-selling to date). From the undulatory (and classic) bassline at the intro to the last breathy notes, Trane is at the peak of his logical yet emotionally varied soloing while the rest of the group is remarkably in tune with Coltrane's spiritual vibe. Composed of four parts, each has a thematic progression leading to an understanding of spirituality through meditation. From the beginning, "Acknowledgement" is the awakening of sorts that trails off to the famous chanting of the theme at the end, which yields to the second act, "Resolution," an amazingly beautiful piece about the fury of dedication to a new path of understanding. "Persuance" is a search for that understanding, and "Psalm" is the enlightenment. Although he is at times aggressive and atonal, this isn't Trane at his most adventurous (pretty much everything recorded from here on out progressively becomes much more free, and live recordings from this period are extremely spirited), but it certainly is his best attempt at the realization of concept – as the spiritual journey is made amazingly clear. A Love Supreme clocks in at just over 30 minutes, but if it had been any longer it could have turned into a laborious listen. As it stands, just enough is conveyed. It is almost impossible to imagine a world without A Love Supreme having been made, and it is equally impossible to imagine any jazz collection without it.
John Coltrane - The Impulse! Albums: Volume Two (2008) [5CD] {Verve Originals Series Remaster} [Repost]


ARTISTS
John Coltrane (tenor saxophone)
McCoy Tyner (piano)
Jimmy Garrison (bass)
Elvin Jones (drums)

TRACKLIST
01. Love Supreme Part I: Acknowledgement
02. Love Supreme Part II: Resolution
03. Love Supreme Part III: Pursuance
04. Love Supreme Part IV: Psalm

Exact Audio Copy V1.0 beta 3 from 29. August 2011

EAC extraction logfile from 11. November 2012, 19:16

John Coltrane / A Love Supreme

Used drive : ATAPI iHAS124 B Adapter: 4 ID: 0

Read mode : Secure
Utilize accurate stream : Yes
Defeat audio cache : Yes
Make use of C2 pointers : No

Read offset correction : 6
Overread into Lead-In and Lead-Out : No
Fill up missing offset samples with silence : Yes
Delete leading and trailing silent blocks : No
Null samples used in CRC calculations : Yes
Used interface : Native Win32 interface for Win NT & 2000
Gap handling : Appended to previous track

Used output format : User Defined Encoder
Selected bitrate : 1024 kBit/s
Quality : High
Add ID3 tag : No
Command line compressor : C:\Program Files (x86)\FLAC\flac.exe
Additional command line options : -8 -V -T "ARTIST=%artist%" -T "TITLE=%title%" -T "ALBUM=%albumtitle%" -T "DATE=%year%" -T "TRACKNUMBER=%tracknr%" -T "GENRE=%genre%" -T "PERFORMER=%albuminterpret%" -T "COMPOSER=%composer%" %haslyrics%–tag-from-file=LYRICS="%lyricsfile%"%haslyrics% -T "ALBUMARTIST=%albumartist%" -T "DISCNUMBER=%cdnumber%" -T "TOTALDISCS=%totalcds%" -T "TOTALTRACKS=%numtracks%" -T "COMMENT=%comment%" %source% -o %dest%


TOC of the extracted CD

Track | Start | Length | Start sector | End sector
––––––––––––––––––––––––––––-
1 | 0:00.00 | 7:42.64 | 0 | 34713
2 | 7:42.64 | 7:19.33 | 34714 | 67671
3 | 15:02.22 | 10:42.36 | 67672 | 115857
4 | 25:44.58 | 7:02.46 | 115858 | 147553


Track 1

Filename C:\EAC\John Coltrane {Impulse! Verve Originals}\10. A Love Supreme (1964)\01 - Part 1 - Acknowledgement.wav

Pre-gap length 0:00:02.00

Peak level 97.7 %
Extraction speed 5.9 X
Track quality 100.0 %
Test CRC A8435E61
Copy CRC A8435E61
Accurately ripped (confidence 19) [E0EE20A2] (AR v2)
Copy OK

Track 2

Filename C:\EAC\John Coltrane {Impulse! Verve Originals}\10. A Love Supreme (1964)\02 - Part 2 - Resolution.wav

Peak level 97.7 %
Extraction speed 6.9 X
Track quality 100.0 %
Test CRC 3212117C
Copy CRC 3212117C
Accurately ripped (confidence 20) [B91E3C0A] (AR v2)
Copy OK

Track 3

Filename C:\EAC\John Coltrane {Impulse! Verve Originals}\10. A Love Supreme (1964)\03 - Part 3 - Pursuance.wav

Peak level 97.7 %
Extraction speed 8.1 X
Track quality 100.0 %
Test CRC 64C1D4D3
Copy CRC 64C1D4D3
Accurately ripped (confidence 20) [99D9EC0F] (AR v2)
Copy OK

Track 4

Filename C:\EAC\John Coltrane {Impulse! Verve Originals}\10. A Love Supreme (1964)\04 - Part 4 - Psalm.wav

Peak level 97.7 %
Extraction speed 7.6 X
Track quality 99.9 %
Test CRC 4624A34E
Copy CRC 4624A34E
Accurately ripped (confidence 20) [8737A4C3] (AR v2)
Copy OK


All tracks accurately ripped

No errors occurred

End of status report

==== Log checksum 62A6B95D33D9B0771C61754D40EB556F87E9F15E87CC814BB2B3141A34FCE171 ====


John Coltrane - The Impulse! Albums: Volume Two (2008) [5CD] {Verve Originals Series Remaster} [Repost]


John Coltrane - The Impulse! Albums: Volume Three is coming soon………


John Coltrane - John Coltrane and Johnny Hartman (1963)


UPLOADED LINKS

BITSHARE LINKS

DEPOSITFILES LINKS



John Coltrane - Impressions (1963)


UPLOADED LINKS

BITSHARE LINKS

DEPOSITFILES LINKS



John Coltrane - Live At Birdland (1963)


UPLOADED LINKS

BITSHARE LINKS

DEPOSITFILES LINKS



John Coltrane - Crescent (1964)


UPLOADED LINKS

BITSHARE LINKS

DEPOSITFILES LINKS



John Coltrane - A Love Supreme (1964)


UPLOADED LINKS

BITSHARE LINKS

DEPOSITFILES LINKS