Subcategories

John Coltrane featuring Pharoah Sanders - Live In Seattle (1965) {Impulse!-Verve Originals rel 2011}

Posted By: ruskaval
John Coltrane featuring Pharoah Sanders - Live In Seattle (1965) {Impulse!-Verve Originals rel 2011}

John Coltrane featuring Pharoah Sanders - Live In Seattle (1965) {Impulse!-Verve Originals rel 2011}
EAC rip (secure mode) | FLAC (tracks)+CUE+LOG -> 543 Mb | MP3 @320 -> 179 Mb
Full Artwork @ 600 dpi (png) -> 254 Mb | 5% repair rar
© 1965, 1971, 2011 Impulse! / Verve / UMG | Verve Originals Series | B0015951-02 | LP AS-9202-2
Jazz / Avant-Garde Jazz / Free Jazz / Post Bop / Saxophone

John Coltrane and Pharoah Sanders, really setting fire here in a classic live performance from the mid 60s – one of those very long, open-ended concert dates that was arguably even more impressive than some of Coltrane's studio album! The set was recorded in 1965, but not issued until a few years after Coltrane's death – and it's an amazing representation of the bold steps forward that Trane was taking at the time – working with Sanders in a set of very spiritual expressions that run in these out, open ways that are even different from the Coltrane sound of the year before!

The group still features McCoy Tyner on piano, Jimmy Garrison on bass, and Elvin Jones on drums – often hanging onto modal rhythms at the start, then dropping back once the horns open up – and Don Raphael Garrett plays bass clarinet, bringing a bit of Dolphy flavor to the set. Titles include "Tapestry In Sound", "Out Of This World", "Evolution", and "Cosmos".
John Coltrane featuring Pharoah Sanders - Live In Seattle (1965) {Impulse!-Verve Originals rel 2011}


Personnel:
John Coltrane - tenor saxophone, soprano saxophone
Pharoah Sanders - tenor saxophone
Donald Garrett - bass clarinet
McCoy Tyner - piano
Jimmy Garrison - bass
Elvin Jones - drums

tracklist:
01 - Cosmos
02 - Out Of This World
03 - Evolution
04 - Tapestry In Sound

Exact Audio Copy V1.1 from 23. June 2015

EAC extraction logfile from 2. May 2016, 23:51

John Coltrane / Live In Seattle

Used drive : TSSTcorpCDDVDW SE-208DB Adapter: 1 ID: 0

Read mode : Secure
Utilize accurate stream : Yes
Defeat audio cache : Yes
Make use of C2 pointers : No

Read offset correction : 6
Overread into Lead-In and Lead-Out : No
Fill up missing offset samples with silence : Yes
Delete leading and trailing silent blocks : No
Null samples used in CRC calculations : Yes
Used interface : Native Win32 interface for Win NT & 2000
Gap handling : Appended to previous track

Used output format : User Defined Encoder
Selected bitrate : 1024 kBit/s
Quality : High
Add ID3 tag : No
Command line compressor : C:\Program Files (x86)\FLAC Frontend\tools\flac.exe
Additional command line options : -8 -V -T "ARTIST=%artist%" -T "TITLE=%title%" -T "ALBUM=%albumtitle%" -T "DATE=%year%" -T "TRACKNUMBER=%tracknr%" -T "TOTALTRACKS=%numtracks%" -T "GENRE=%genre%" -T "ALBUMARTIST=%albumartist%" -T "ALBUM ARTIST=%albumartist%" -T "COMMENT=EAC Secure Mode, Test & Copy, AccurateRip, FLAC -8" %source%


TOC of the extracted CD

Track | Start | Length | Start sector | End sector
––––––––––––––––––––––––––––-
1 | 0:00.00 | 10:52.70 | 0 | 48969
2 | 10:52.70 | 23:42.37 | 48970 | 155656
3 | 34:35.32 | 35:55.33 | 155657 | 317314
4 | 70:30.65 | 6:08.34 | 317315 | 344948


Track 1

Filename D:\_EAC\John Coltrane featuring Pharoah Sanders - Live In Seattle (1965) [FLAC] {Impulse!-Verve Originals rel 2011}\01 - Cosmos.wav

Pre-gap length 0:00:02.00

Peak level 99.9 %
Extraction speed 1.5 X
Track quality 100.0 %
Test CRC A5175544
Copy CRC A5175544
Accurately ripped (confidence 17) [19ECFCF1] (AR v2)
Copy OK

Track 2

Filename D:\_EAC\John Coltrane featuring Pharoah Sanders - Live In Seattle (1965) [FLAC] {Impulse!-Verve Originals rel 2011}\02 - Out Of This World.wav

Peak level 99.9 %
Extraction speed 2.1 X
Track quality 100.0 %
Test CRC DF9DA967
Copy CRC DF9DA967
Accurately ripped (confidence 17) [B5420E69] (AR v2)
Copy OK

Track 3

Filename D:\_EAC\John Coltrane featuring Pharoah Sanders - Live In Seattle (1965) [FLAC] {Impulse!-Verve Originals rel 2011}\03 - Evolution.wav

Peak level 98.0 %
Extraction speed 2.7 X
Track quality 100.0 %
Test CRC DFF518CB
Copy CRC DFF518CB
Accurately ripped (confidence 17) [CD9AE47B] (AR v2)
Copy OK

Track 4

Filename D:\_EAC\John Coltrane featuring Pharoah Sanders - Live In Seattle (1965) [FLAC] {Impulse!-Verve Originals rel 2011}\04 - Tapestry In Sound.wav

Peak level 78.1 %
Extraction speed 2.9 X
Track quality 100.0 %
Test CRC AF065D7A
Copy CRC AF065D7A
Accurately ripped (confidence 17) [034B44D5] (AR v2)
Copy OK


All tracks accurately ripped

No errors occurred

End of status report

==== Log checksum 7D25778FD762240294B0F81E000E976795362E3124792996C2124CC17B0DBB70 ====


John Coltrane featuring Pharoah Sanders - Live In Seattle (1965) {Impulse!-Verve Originals rel 2011}

John Coltrane featuring Pharoah Sanders - Live In Seattle (1965) {Impulse!-Verve Originals rel 2011}


The John Coltrane Quartet - Africa/Brass (1961) {Impulse!-Verve Originals rel 2007}
John Coltrane - "Live" At The Village Vanguard (1961) {Impulse!-Verve Originals rel 2007}
John Coltrane - Coltrane (1962) {Impulse!-Verve Originals rel 2007}
Duke Ellington & John Coltrane - Duke Ellington & John Coltrane (1962) {Impulse!-Verve Originals rel 2007}
John Coltrane Quartet - Ballads (1962) {Impulse!-Verve Originals rel 2007}

John Coltrane and Johnny Hartman - John Coltrane and Johnny Hartman (1963) {Impulse!-Verve Originals rel 2008}
John Coltrane - Impressions (1963) {Impulse!-Verve Originals rel 2008}
John Coltrane - Coltrane Live At Birdland (1963) {Impulse!-Verve Originals rel 2008}
John Coltrane Quartet - Crescent (1964) {Impulse!-Verve Originals rel 2008}
John Coltrane - A Love Supreme (1964) {Impulse!-Verve Originals rel 2008}

John Coltrane - The John Coltrane Quartet Plays (1965) {Impulse!-Verve Originals rel 2009}
John Coltrane / Archie Shepp - New Thing At Newport (1965) {Impulse!-Verve Originals rel 2009}
John Coltrane - Ascension (1965) {Impulse!-Verve Originals rel 2009}
John Coltrane - Meditations (1965) {Impulse!-Verve Originals rel 2009}
John Coltrane - Kulu Sé Mama (1965) {Impulse!-Verve Originals rel 2009}

John Coltrane - Expression (1967) {Impulse!-Verve Originals rel 2011}
John Coltrane - Live At The Village Vanguard Again! (1966) {Impulse!-Verve Originals rel 2011}
John Coltrane - Om (1965) {Impulse!-Verve Originals rel 2011}
John Coltrane & Alice Coltrane - Cosmic Music (1966) {Impulse!-Verve Originals rel 2011}
John Coltrane - Selflessness featuring My Favorite Things (1965) {Impulse!-Verve Originals rel 2011}




NEXT -> more John Coltrane Impulse!-Verve Originals Series on the way…