Subcategories

John Coltrane - Sun Ship (1965) {Impulse!-Verve Originals rel 2011}

Posted By: ruskaval
John Coltrane - Sun Ship (1965) {Impulse!-Verve Originals rel 2011}

John Coltrane - Sun Ship (1965) {Impulse!-Verve Originals rel 2011}
EAC rip (secure mode) | FLAC (tracks)+CUE+LOG -> 299 Mb | MP3 @320 -> 100 Mb
Full Artwork @ 600 dpi (png) -> 154 Mb | 5% repair rar
© 1965, 2011 Impulse! / Verve / UMG | Verve Originals Series | B0015952-02 | LP AS-9211
Jazz / Avant-Garde Jazz / Free Jazz / Saxophone

Recorded on August 26, 1965 (and not released until after his death in heavily edited form), Sun Ship was the final recording by John Coltrane's quartet with drummer Elvin Jones, pianist McCoy Tyner, and bassist Jimmy Garrison. After nearly four years together, this band had achieved a vital collective identity. When Coltrane moved toward metrically free styles of rhythm and melody (with tunes often based on one chord or a short series of notes as themes), the quartet's rhythmic pulse and collective interplay evolved accordingly. The title track opens with a splintered theme. Garrison and Jones group dramatically around the leader's call, then rhythmically abstract the pulse; they imply a central rhythm more than state one.

Tyner crafts a monumental solo full of crashing modulations and heated single lines. Coltrane reenters at full tilt, alternating throttled upper-register cries with crunching bass declamations, using multiphonics and altissimo as the levitating rhythm boils around him. Garrison and Jones are featured on "Ascent" and "Attaining," where they unveil bold new solutions for coming in and out of tempo, and manipulating dynamics while maintaining an amorphous yet authoritative ebb and flow. The gyrating, oceanic waves of "Dearly Beloved" suggest earlier balladic explorations such as "Alabama," with Coltrane's keening tenor providing a taut melodic focus for the multi-layered, nearly ritualistic rhythms surrounding him. Tyner's great chordal waves and contrapuntal motion build to a surging climax before the saxophonist reenters to bring them all home. On "Amen," the saxophonist announces a spare modal theme that evokes swing, but refracts it through free jazz. While a summation for this quartet, Sun Ship is also an exciting if unfinished prelude to Coltrane's final period of transformation.
John Coltrane - Sun Ship (1965) {Impulse!-Verve Originals rel 2011}


Personnel:
John Coltrane – tenor saxophone
McCoy Tyner – piano
Jimmy Garrison – bass
Elvin Jones – drums

tracklist:
01 - Sun Ship
02 - Dearly Beloved
03 - Amen
04 - Attaining
05 - Ascent

Exact Audio Copy V1.1 from 23. June 2015

EAC extraction logfile from 9. May 2016, 6:23

John Coltrane / Sun Ship

Used drive : TSSTcorpCDDVDW SE-208DB Adapter: 1 ID: 0

Read mode : Secure
Utilize accurate stream : Yes
Defeat audio cache : Yes
Make use of C2 pointers : No

Read offset correction : 6
Overread into Lead-In and Lead-Out : No
Fill up missing offset samples with silence : Yes
Delete leading and trailing silent blocks : No
Null samples used in CRC calculations : Yes
Used interface : Native Win32 interface for Win NT & 2000
Gap handling : Appended to previous track

Used output format : User Defined Encoder
Selected bitrate : 1024 kBit/s
Quality : High
Add ID3 tag : No
Command line compressor : C:\Program Files (x86)\FLAC Frontend\tools\flac.exe
Additional command line options : -8 -V -T "ARTIST=%artist%" -T "TITLE=%title%" -T "ALBUM=%albumtitle%" -T "DATE=%year%" -T "TRACKNUMBER=%tracknr%" -T "TOTALTRACKS=%numtracks%" -T "GENRE=%genre%" -T "ALBUMARTIST=%albumartist%" -T "ALBUM ARTIST=%albumartist%" -T "COMMENT=EAC Secure Mode, Test & Copy, AccurateRip, FLAC -8" %source%


TOC of the extracted CD

Track | Start | Length | Start sector | End sector
––––––––––––––––––––––––––––-
1 | 0:00.00 | 6:15.50 | 0 | 28174
2 | 6:15.50 | 6:29.61 | 28175 | 57410
3 | 12:45.36 | 8:20.22 | 57411 | 94932
4 | 21:05.58 | 11:24.70 | 94933 | 146302
5 | 32:30.53 | 10:04.33 | 146303 | 191635


Track 1

Filename D:\_EAC\John Coltrane - Sun Ship (1965) [FLAC] {Impulse!-Verve Originals rel 2011}\01 - Sun Ship.wav

Pre-gap length 0:00:02.00

Peak level 99.9 %
Extraction speed 1.2 X
Track quality 100.0 %
Test CRC 5D51E10C
Copy CRC 5D51E10C
Accurately ripped (confidence 16) [1A2E6EA3] (AR v2)
Copy OK

Track 2

Filename D:\_EAC\John Coltrane - Sun Ship (1965) [FLAC] {Impulse!-Verve Originals rel 2011}\02 - Dearly Beloved.wav

Peak level 99.9 %
Extraction speed 1.4 X
Track quality 100.0 %
Test CRC 45BB101C
Copy CRC 45BB101C
Accurately ripped (confidence 16) [960C97E9] (AR v2)
Copy OK

Track 3

Filename D:\_EAC\John Coltrane - Sun Ship (1965) [FLAC] {Impulse!-Verve Originals rel 2011}\03 - Amen.wav

Peak level 99.9 %
Extraction speed 1.4 X
Track quality 99.9 %
Test CRC E73AE3B8
Copy CRC E73AE3B8
Accurately ripped (confidence 16) [8FCF6F16] (AR v2)
Copy OK

Track 4

Filename D:\_EAC\John Coltrane - Sun Ship (1965) [FLAC] {Impulse!-Verve Originals rel 2011}\04 - Attaining.wav

Peak level 99.9 %
Extraction speed 1.7 X
Track quality 100.0 %
Test CRC 14B2D309
Copy CRC 14B2D309
Accurately ripped (confidence 16) [162F4C4A] (AR v2)
Copy OK

Track 5

Filename D:\_EAC\John Coltrane - Sun Ship (1965) [FLAC] {Impulse!-Verve Originals rel 2011}\05 - Ascent.wav

Peak level 99.9 %
Extraction speed 1.9 X
Track quality 100.0 %
Test CRC 0CFC9D6E
Copy CRC 0CFC9D6E
Accurately ripped (confidence 16) [594997EF] (AR v2)
Copy OK


All tracks accurately ripped

No errors occurred

End of status report

==== Log checksum EB9343D3AAEFE2DC0A313F74038E2FB91F634F94F45D9E7782240369AE097121 ====


John Coltrane - Sun Ship (1965) {Impulse!-Verve Originals rel 2011}

John Coltrane - Sun Ship (1965) {Impulse!-Verve Originals rel 2011}


The John Coltrane Quartet - Africa/Brass (1961) {Impulse!-Verve Originals rel 2007}
John Coltrane - "Live" At The Village Vanguard (1961) {Impulse!-Verve Originals rel 2007}
John Coltrane - Coltrane (1962) {Impulse!-Verve Originals rel 2007}
Duke Ellington & John Coltrane - Duke Ellington & John Coltrane (1962) {Impulse!-Verve Originals rel 2007}
John Coltrane Quartet - Ballads (1962) {Impulse!-Verve Originals rel 2007}

John Coltrane and Johnny Hartman - John Coltrane and Johnny Hartman (1963) {Impulse!-Verve Originals rel 2008}
John Coltrane - Impressions (1963) {Impulse!-Verve Originals rel 2008}
John Coltrane - Coltrane Live At Birdland (1963) {Impulse!-Verve Originals rel 2008}
John Coltrane Quartet - Crescent (1964) {Impulse!-Verve Originals rel 2008}
John Coltrane - A Love Supreme (1964) {Impulse!-Verve Originals rel 2008}

John Coltrane - The John Coltrane Quartet Plays (1965) {Impulse!-Verve Originals rel 2009}
John Coltrane / Archie Shepp - New Thing At Newport (1965) {Impulse!-Verve Originals rel 2009}
John Coltrane - Ascension (1965) {Impulse!-Verve Originals rel 2009}
John Coltrane - Meditations (1965) {Impulse!-Verve Originals rel 2009}
John Coltrane - Kulu Sé Mama (1965) {Impulse!-Verve Originals rel 2009}

John Coltrane - Expression (1967) {Impulse!-Verve Originals rel 2011}
John Coltrane - Live At The Village Vanguard Again! (1966) {Impulse!-Verve Originals rel 2011}
John Coltrane - Om (1965) {Impulse!-Verve Originals rel 2011}
John Coltrane & Alice Coltrane - Cosmic Music (1966) {Impulse!-Verve Originals rel 2011}
John Coltrane - Selflessness featuring My Favorite Things (1965) {Impulse!-Verve Originals rel 2011}

John Coltrane featuring Pharoah Sanders - Live In Seattle (1965) {Impulse!-Verve Originals rel 2011}




NEXT -> more John Coltrane Impulse!-Verve Originals Series on the way…