Subcategories

John Coltrane - The Bethlehem Years (1957) {2014 2CD Set Japan Bethlehem Album Collection 1000 CDSOL-6151}

Posted By: ruskaval
John Coltrane - The Bethlehem Years (1957) {2014 2CD Set Japan Bethlehem Album Collection 1000 CDSOL-6151}

John Coltrane - The Bethlehem Years (1957) {2014 2CD Set Japan Bethlehem Album Collection 1000 CDSOL-6151}
EAC rip (secure mode) | FLAC (tracks)+CUE+LOG -> 763 Mb | MP3 @320 -> 254 Mb
Full Artwork @ 600 dpi (png) -> 300 Mb | 5% repair rar
© 1957, 2014 Solid Records Japan / Bethlehem | CDSOL-6151
Jazz / Hard Bop / Saxophone

Features the latest remastering. Includes a Japanese description, lyrics, and bonus tracks. Features original cover artwork. The complete recordings done by John Coltrane for Bethlehem Records – mostly cut during December of 1957, and issued on the albums The Winner's Circle and Art Blakey Big Band! Both albums were a bit unusual for the label – in that The Winner's Circle was sort of a blowing/jam session type record, cut with some of the big poll winners of the year, but with shorter tracks than the usual Prestige-styled set of that nature. The lineup includes Donald Byrd, Al Cohn, Eddie Costa, Oscar Pettiford, and Philly Joe Jones – and Coltrane's a bit buried in the group, but gets out some nice licks from time to time.

The second set of tracks was recorded for a unique big band session led by Art Blakey – featuring a core group with Coltrane, Donald Byrd, Walter Bishop Jr, and Wendell Marshall on some tracks – plus a larger lineup on a number of others. The CD brings together a whopping 46 tracks from these sessions, including some great alternate takes, false starts, and breakdowns – and titles include "Midriff", "Tippin", "The Outer World", "The Kiss Of No Return", "Pristine Take", and "Oasis" – a previously unreleased track!
John Coltrane - The Bethlehem Years (1957) {2014 2CD Set Japan Bethlehem Album Collection 1000 CDSOL-6151}


Personnel: John Coltrane, Donald Byrd, Frank Rehak, Al Cohn, Eddie Costa, Freddie Green, Oscar Pettiford, Gene Quill, Philly Joe Jones, Idrees Sulieman, Bill Hardman, Ray Copeland, Melba Liston, Jimmy Cleveland, Sahib Shihab, Bill Graham, Bill Slapin, Walter Bishop Jr., Wendell Marshall, Art Blakey.

tracklist:
CD1

01 - Midriff (Take 1)
02 - Midriff (Take 2) (false start) (unreleased)
03 - Midriff (Take 3)
04 - Midriff (Take 4) (only announcement)
05 - Ain't Life Grand (Take 1) (false start) (unreleased)
06 - Ain't Life Grand (Take 2)
07 - Ain't Life Grand (Take 3) (breakdown) (unreleased)
08 - Ain't Life Grand (Take 4)
09 - Ain't Life Grand (Take 5) (breakdown) (unreleased)
10 - Ain't Life Grand (Take 6) (only announcement) (unreleased)
11 - Ain't Life Grand (insert take) (ending part) (unreleased)
12 - Ain't Life Grand (insert take) (ending) (unreleased)
13 - El Toro Valiente (Take 1)
14 - El Toro Valiente (Take 2) (only announcement) (unreleased)
15 - The Kiss Of No Return (Take 1)
16 - The Kiss Of No Return (Take 2) (false start) (unreleased)
17 - The Kiss Of No Return (Take 3) (breakdown) (unreleased)
18 - The Kiss Of No Return (Take 4) (false start)
19 - The Kiss Of No Return (Take 5)
20 - The Outer World (Take 1) (false start) (unreleased)
21 - The Outer World (Take 2)
22 - The Outer World (Take 3) (false start) (unreleased)
23 - The Outer World (Take 4) (breakdown) (unreleased)
24 - The Outer World (Take 5)
25 - The Outer World (Take 6) (false start) (unreleased)
26 - The Outer World (Take 7) (false start of art) (unreleased)
27 - The Outer World (Take 8) (only announcement) (unreleased)
28 - Oasis (Take 1) (false start) (unreleased)
29 - Oasis (Take 2) (false start) (unreleased)
30 - Oasis (Take 3) (breakdown) (unreleased)
31 - Oasis (Take 4)

CD2
01 - Tippin' (Take 1)
02 - Tippin' (Take 2) (breakdown)
03 - Tippin' (Take 3)
04 - Tippin' (Take 4) (breakdown) (unreleased)
05 - Tippin' (Take 5)
06 - Tippin' (Take 6) (unreleased)
07 - Tippin' (Take 7) (false start) (unreleased)
08 - Pristine (Take 1) (false start)
09 - Pristine (Take 2)
10 - Pristine (Take 3) (false start)
11 - Pristine (Take 4) (beakdown) (unreleased)
12 - Pristine (Take 5) (breakdown) (unreleased)
13 - Pristine (Take 6)
14 - Pristine (Take 7) (unreleased)
15 - Pristine (Take 8)

Exact Audio Copy V1.0 beta 3 from 29. August 2011

EAC extraction logfile from 6. September 2014, 19:08

John Coltrane / The Bethlehem Years (CD1)

Used drive : ATAPI iHAS124 B Adapter: 2 ID: 1

Read mode : Secure
Utilize accurate stream : Yes
Defeat audio cache : Yes
Make use of C2 pointers : No

Read offset correction : 6
Overread into Lead-In and Lead-Out : No
Fill up missing offset samples with silence : Yes
Delete leading and trailing silent blocks : No
Null samples used in CRC calculations : Yes
Used interface : Native Win32 interface for Win NT & 2000
Gap handling : Appended to previous track

Used output format : User Defined Encoder
Selected bitrate : 1024 kBit/s
Quality : High
Add ID3 tag : No
Command line compressor : C:\Program Files (x86)\FLAC Frontend\tools\flac.exe
Additional command line options : -8 -V -T "ARTIST=%artist%" -T "TITLE=%title%" -T "ALBUM=%albumtitle%" -T "DATE=%year%" -T "TRACKNUMBER=%tracknr%" -T "TOTALTRACKS=%numtracks%" -T "GENRE=%genre%" -T "ALBUMARTIST=%albumartist%" -T "ALBUM ARTIST=%albumartist%" -T "COMMENT=EAC Secure Mode, Test & Copy, AccurateRip, FLAC -8" %source%


TOC of the extracted CD

Track | Start | Length | Start sector | End sector
––––––––––––––––––––––––––––-
1 | 0:00.00 | 2:46.56 | 0 | 12505
2 | 2:46.56 | 0:40.55 | 12506 | 15560
3 | 3:27.36 | 3:24.37 | 15561 | 30897
4 | 6:51.73 | 0:28.00 | 30898 | 32997
5 | 7:19.73 | 0:51.43 | 32998 | 36865
6 | 8:11.41 | 3:17.60 | 36866 | 51700
7 | 11:29.26 | 1:20.10 | 51701 | 57710
8 | 12:49.36 | 3:42.25 | 57711 | 74385
9 | 16:31.61 | 2:59.25 | 74386 | 87835
10 | 19:31.11 | 0:35.62 | 87836 | 90522
11 | 20:06.73 | 1:20.50 | 90523 | 96572
12 | 21:27.48 | 0:51.38 | 96573 | 100435
13 | 22:19.11 | 3:02.12 | 100436 | 114097
14 | 25:21.23 | 0:14.50 | 114098 | 115197
15 | 25:35.73 | 5:55.38 | 115198 | 141860
16 | 31:31.36 | 0:24.37 | 141861 | 143697
17 | 31:55.73 | 1:18.38 | 143698 | 149585
18 | 33:14.36 | 0:42.37 | 149586 | 152772
19 | 33:56.73 | 5:37.00 | 152773 | 178047
20 | 39:33.73 | 0:33.00 | 178048 | 180522
21 | 40:06.73 | 3:02.00 | 180523 | 194172
22 | 43:08.73 | 0:24.50 | 194173 | 196022
23 | 43:33.48 | 1:24.13 | 196023 | 202335
24 | 44:57.61 | 3:39.37 | 202336 | 218797
25 | 48:37.23 | 0:29.00 | 218798 | 220972
26 | 49:06.23 | 0:27.63 | 220973 | 223060
27 | 49:34.11 | 0:12.25 | 223061 | 223985
28 | 49:46.36 | 0:28.62 | 223986 | 226147
29 | 50:15.23 | 0:28.38 | 226148 | 228285
30 | 50:43.61 | 1:00.25 | 228286 | 232810
31 | 51:44.11 | 2:45.39 | 232811 | 245224


Track 1

Filename C:\John Coltrane - The Bethlehem Years (1957) [2CD] {2014 Japanese Bethlehem Album Collection 1000}\CD1\01 - Midriff (Take 1).wav

Pre-gap length 0:00:02.00

Peak level 98.3 %
Extraction speed 1.7 X
Track quality 100.0 %
Test CRC 3063E5DD
Copy CRC 3063E5DD
Track not present in AccurateRip database
Copy OK

Track 2

Filename C:\John Coltrane - The Bethlehem Years (1957) [2CD] {2014 Japanese Bethlehem Album Collection 1000}\CD1\02 - Midriff (Take 2) (false start) (unreleased).wav

Peak level 98.2 %
Extraction speed 1.0 X
Track quality 100.0 %
Test CRC 679E49DC
Copy CRC 679E49DC
Track not present in AccurateRip database
Copy OK

Track 3

Filename C:\John Coltrane - The Bethlehem Years (1957) [2CD] {2014 Japanese Bethlehem Album Collection 1000}\CD1\03 - Midriff (Take 3).wav

Peak level 98.3 %
Extraction speed 1.4 X
Track quality 99.9 %
Test CRC C5A79BC7
Copy CRC C5A79BC7
Track not present in AccurateRip database
Copy OK

Track 4

Filename C:\John Coltrane - The Bethlehem Years (1957) [2CD] {2014 Japanese Bethlehem Album Collection 1000}\CD1\04 - Midriff (Take 4) (only announcement).wav

Peak level 70.1 %
Extraction speed 1.0 X
Track quality 100.0 %
Test CRC F47DC760
Copy CRC F47DC760
Track not present in AccurateRip database
Copy OK

Track 5

Filename C:\John Coltrane - The Bethlehem Years (1957) [2CD] {2014 Japanese Bethlehem Album Collection 1000}\CD1\05 - Ain't Life Grand (Take 1) (false start) (unreleased).wav

Peak level 98.2 %
Extraction speed 1.3 X
Track quality 100.0 %
Test CRC A78A5E6A
Copy CRC A78A5E6A
Track not present in AccurateRip database
Copy OK

Track 6

Filename C:\John Coltrane - The Bethlehem Years (1957) [2CD] {2014 Japanese Bethlehem Album Collection 1000}\CD1\06 - Ain't Life Grand (Take 2).wav

Peak level 98.3 %
Extraction speed 2.1 X
Track quality 100.0 %
Test CRC 3870CA29
Copy CRC 3870CA29
Track not present in AccurateRip database
Copy OK

Track 7

Filename C:\John Coltrane - The Bethlehem Years (1957) [2CD] {2014 Japanese Bethlehem Album Collection 1000}\CD1\07 - Ain't Life Grand (Take 3) (breakdown) (unreleased).wav

Peak level 98.2 %
Extraction speed 1.8 X
Track quality 100.0 %
Test CRC 6C90D3DA
Copy CRC 6C90D3DA
Track not present in AccurateRip database
Copy OK

Track 8

Filename C:\John Coltrane - The Bethlehem Years (1957) [2CD] {2014 Japanese Bethlehem Album Collection 1000}\CD1\08 - Ain't Life Grand (Take 4).wav

Peak level 98.3 %
Extraction speed 2.4 X
Track quality 100.0 %
Test CRC 844A5FC7
Copy CRC 844A5FC7
Track not present in AccurateRip database
Copy OK

Track 9

Filename C:\John Coltrane - The Bethlehem Years (1957) [2CD] {2014 Japanese Bethlehem Album Collection 1000}\CD1\09 - Ain't Life Grand (Take 5) (breakdown) (unreleased).wav

Peak level 98.3 %
Extraction speed 2.4 X
Track quality 100.0 %
Test CRC 30AE4804
Copy CRC 30AE4804
Track not present in AccurateRip database
Copy OK

Track 10

Filename C:\John Coltrane - The Bethlehem Years (1957) [2CD] {2014 Japanese Bethlehem Album Collection 1000}\CD1\10 - Ain't Life Grand (Take 6) (only announcement) (unreleased).wav

Peak level 40.8 %
Extraction speed 0.6 X
Track quality 99.7 %
Test CRC A9E91249
Copy CRC A9E91249
Track not present in AccurateRip database
Copy OK

Track 11

Filename C:\John Coltrane - The Bethlehem Years (1957) [2CD] {2014 Japanese Bethlehem Album Collection 1000}\CD1\11 - Ain't Life Grand (insert take) (ending part) (unreleased).wav

Peak level 98.3 %
Extraction speed 1.1 X
Track quality 99.8 %
Test CRC 7337D0F1
Copy CRC 7337D0F1
Track not present in AccurateRip database
Copy OK

Track 12

Filename C:\John Coltrane - The Bethlehem Years (1957) [2CD] {2014 Japanese Bethlehem Album Collection 1000}\CD1\12 - Ain't Life Grand (insert take) (ending) (unreleased).wav

Peak level 98.2 %
Extraction speed 1.7 X
Track quality 100.0 %
Test CRC 930C951F
Copy CRC 930C951F
Track not present in AccurateRip database
Copy OK

Track 13

Filename C:\John Coltrane - The Bethlehem Years (1957) [2CD] {2014 Japanese Bethlehem Album Collection 1000}\CD1\13 - El Toro Valiente (Take 1).wav

Peak level 98.3 %
Extraction speed 2.6 X
Track quality 100.0 %
Test CRC 645316CB
Copy CRC 645316CB
Track not present in AccurateRip database
Copy OK

Track 14

Filename C:\John Coltrane - The Bethlehem Years (1957) [2CD] {2014 Japanese Bethlehem Album Collection 1000}\CD1\14 - El Toro Valiente (Take 2) (only announcement) (unreleased).wav

Peak level 44.3 %
Extraction speed 0.8 X
Track quality 100.0 %
Test CRC CE16A26B
Copy CRC CE16A26B
Track not present in AccurateRip database
Copy OK

Track 15

Filename C:\John Coltrane - The Bethlehem Years (1957) [2CD] {2014 Japanese Bethlehem Album Collection 1000}\CD1\15 - The Kiss Of No Return (Take 1).wav

Peak level 98.3 %
Extraction speed 3.0 X
Track quality 100.0 %
Test CRC 2FE6647A
Copy CRC 2FE6647A
Track not present in AccurateRip database
Copy OK

Track 16

Filename C:\John Coltrane - The Bethlehem Years (1957) [2CD] {2014 Japanese Bethlehem Album Collection 1000}\CD1\16 - The Kiss Of No Return (Take 2) (false start) (unreleased).wav

Peak level 98.2 %
Extraction speed 1.3 X
Track quality 100.0 %
Test CRC 14228642
Copy CRC 14228642
Track not present in AccurateRip database
Copy OK

Track 17

Filename C:\John Coltrane - The Bethlehem Years (1957) [2CD] {2014 Japanese Bethlehem Album Collection 1000}\CD1\17 - The Kiss Of No Return (Take 3) (breakdown) (unreleased).wav

Peak level 98.2 %
Extraction speed 2.3 X
Track quality 100.0 %
Test CRC 988FA0F2
Copy CRC 988FA0F2
Track not present in AccurateRip database
Copy OK

Track 18

Filename C:\John Coltrane - The Bethlehem Years (1957) [2CD] {2014 Japanese Bethlehem Album Collection 1000}\CD1\18 - The Kiss Of No Return (Take 4) (false start).wav

Peak level 98.2 %
Extraction speed 0.8 X
Track quality 99.7 %
Test CRC 58559096
Copy CRC 58559096
Track not present in AccurateRip database
Copy OK

Track 19

Filename C:\John Coltrane - The Bethlehem Years (1957) [2CD] {2014 Japanese Bethlehem Album Collection 1000}\CD1\19 - The Kiss Of No Return (Take 5).wav

Peak level 98.3 %
Extraction speed 2.6 X
Track quality 99.9 %
Test CRC 129E59BD
Copy CRC 129E59BD
Track not present in AccurateRip database
Copy OK

Track 20

Filename C:\John Coltrane - The Bethlehem Years (1957) [2CD] {2014 Japanese Bethlehem Album Collection 1000}\CD1\20 - The Outer World (Take 1) (false start) (unreleased).wav

Peak level 98.2 %
Extraction speed 1.7 X
Track quality 100.0 %
Test CRC 06C79F08
Copy CRC 06C79F08
Track not present in AccurateRip database
Copy OK

Track 21

Filename C:\John Coltrane - The Bethlehem Years (1957) [2CD] {2014 Japanese Bethlehem Album Collection 1000}\CD1\21 - The Outer World (Take 2).wav

Peak level 98.3 %
Extraction speed 3.2 X
Track quality 100.0 %
Test CRC D4B677AB
Copy CRC D4B677AB
Track not present in AccurateRip database
Copy OK

Track 22

Filename C:\John Coltrane - The Bethlehem Years (1957) [2CD] {2014 Japanese Bethlehem Album Collection 1000}\CD1\22 - The Outer World (Take 3) (false start) (unreleased).wav

Peak level 98.2 %
Extraction speed 1.5 X
Track quality 100.0 %
Test CRC 247B937C
Copy CRC 247B937C
Track not present in AccurateRip database
Copy OK

Track 23

Filename C:\John Coltrane - The Bethlehem Years (1957) [2CD] {2014 Japanese Bethlehem Album Collection 1000}\CD1\23 - The Outer World (Take 4) (breakdown) (unreleased).wav

Peak level 98.2 %
Extraction speed 2.7 X
Track quality 100.0 %
Test CRC C11CE9BB
Copy CRC C11CE9BB
Track not present in AccurateRip database
Copy OK

Track 24

Filename C:\John Coltrane - The Bethlehem Years (1957) [2CD] {2014 Japanese Bethlehem Album Collection 1000}\CD1\24 - The Outer World (Take 5).wav

Peak level 98.3 %
Extraction speed 3.4 X
Track quality 100.0 %
Test CRC B41CC103
Copy CRC B41CC103
Track not present in AccurateRip database
Copy OK

Track 25

Filename C:\John Coltrane - The Bethlehem Years (1957) [2CD] {2014 Japanese Bethlehem Album Collection 1000}\CD1\25 - The Outer World (Take 6) (false start) (unreleased).wav

Peak level 98.2 %
Extraction speed 1.7 X
Track quality 100.0 %
Test CRC ECDF66AD
Copy CRC ECDF66AD
Track not present in AccurateRip database
Copy OK

Track 26

Filename C:\John Coltrane - The Bethlehem Years (1957) [2CD] {2014 Japanese Bethlehem Album Collection 1000}\CD1\26 - The Outer World (Take 7) (false start of art) (unreleased).wav

Peak level 97.7 %
Extraction speed 0.6 X
Track quality 99.6 %
Test CRC B9D65FC8
Copy CRC B9D65FC8
Track not present in AccurateRip database
Copy OK

Track 27

Filename C:\John Coltrane - The Bethlehem Years (1957) [2CD] {2014 Japanese Bethlehem Album Collection 1000}\CD1\27 - The Outer World (Take 8) (only announcement) (unreleased).wav

Peak level 27.7 %
Extraction speed 1.0 X
Track quality 100.0 %
Test CRC 0E00AC26
Copy CRC 0E00AC26
Track not present in AccurateRip database
Copy OK

Track 28

Filename C:\John Coltrane - The Bethlehem Years (1957) [2CD] {2014 Japanese Bethlehem Album Collection 1000}\CD1\28 - Oasis (Take 1) (false start) (unreleased).wav

Peak level 98.2 %
Extraction speed 1.7 X
Track quality 100.0 %
Test CRC D7BDC46B
Copy CRC D7BDC46B
Track not present in AccurateRip database
Copy OK

Track 29

Filename C:\John Coltrane - The Bethlehem Years (1957) [2CD] {2014 Japanese Bethlehem Album Collection 1000}\CD1\29 - Oasis (Take 2) (false start) (unreleased).wav

Peak level 98.2 %
Extraction speed 0.6 X
Track quality 99.6 %
Test CRC CA484D5E
Copy CRC CA484D5E
Track not present in AccurateRip database
Copy OK

Track 30

Filename C:\John Coltrane - The Bethlehem Years (1957) [2CD] {2014 Japanese Bethlehem Album Collection 1000}\CD1\30 - Oasis (Take 3) (breakdown) (unreleased).wav

Peak level 98.2 %
Extraction speed 2.4 X
Track quality 100.0 %
Test CRC A86B0945
Copy CRC A86B0945
Track not present in AccurateRip database
Copy OK

Track 31

Filename C:\John Coltrane - The Bethlehem Years (1957) [2CD] {2014 Japanese Bethlehem Album Collection 1000}\CD1\31 - Oasis (Take 4).wav

Peak level 98.2 %
Extraction speed 3.4 X
Track quality 100.0 %
Test CRC 66DE5A0F
Copy CRC 66DE5A0F
Track not present in AccurateRip database
Copy OK


None of the tracks are present in the AccurateRip database

No errors occurred

End of status report

==== Log checksum C4D5C6C44AFB9B2D417BD0EC6D0DF11FAF67FAB3783139580B263465EF3AF2AD ====

Exact Audio Copy V1.0 beta 3 from 29. August 2011

EAC extraction logfile from 6. September 2014, 19:55

John Coltrane / The Bethlehem Years (CD2)

Used drive : ATAPI iHAS124 B Adapter: 2 ID: 1

Read mode : Secure
Utilize accurate stream : Yes
Defeat audio cache : Yes
Make use of C2 pointers : No

Read offset correction : 6
Overread into Lead-In and Lead-Out : No
Fill up missing offset samples with silence : Yes
Delete leading and trailing silent blocks : No
Null samples used in CRC calculations : Yes
Used interface : Native Win32 interface for Win NT & 2000
Gap handling : Appended to previous track

Used output format : User Defined Encoder
Selected bitrate : 1024 kBit/s
Quality : High
Add ID3 tag : No
Command line compressor : C:\Program Files (x86)\FLAC Frontend\tools\flac.exe
Additional command line options : -8 -V -T "ARTIST=%artist%" -T "TITLE=%title%" -T "ALBUM=%albumtitle%" -T "DATE=%year%" -T "TRACKNUMBER=%tracknr%" -T "TOTALTRACKS=%numtracks%" -T "GENRE=%genre%" -T "ALBUMARTIST=%albumartist%" -T "ALBUM ARTIST=%albumartist%" -T "COMMENT=EAC Secure Mode, Test & Copy, AccurateRip, FLAC -8" %source%


TOC of the extracted CD

Track | Start | Length | Start sector | End sector
––––––––––––––––––––––––––––-
1 | 0:00.00 | 6:26.61 | 0 | 29010
2 | 6:26.61 | 1:21.00 | 29011 | 35085
3 | 7:47.61 | 6:09.50 | 35086 | 62810
4 | 13:57.36 | 0:43.00 | 62811 | 66035
5 | 14:40.36 | 0:45.62 | 66036 | 69472
6 | 15:26.23 | 6:20.38 | 69473 | 98010
7 | 21:46.61 | 0:30.50 | 98011 | 100310
8 | 22:17.36 | 0:19.62 | 100311 | 101797
9 | 22:37.23 | 7:18.63 | 101798 | 134710
10 | 29:56.11 | 0:47.12 | 134711 | 138247
11 | 30:43.23 | 1:12.63 | 138248 | 143710
12 | 31:56.11 | 0:46.32 | 143711 | 147192
13 | 32:42.43 | 8:22.43 | 147193 | 184885
14 | 41:05.11 | 6:10.12 | 184886 | 212647
15 | 47:15.23 | 6:16.61 | 212648 | 240908


Track 1

Filename C:\John Coltrane - The Bethlehem Years (1957) [2CD] {2014 Japanese Bethlehem Album Collection 1000}\CD2\01 - Tippin' (Take 1).wav

Pre-gap length 0:00:02.00

Peak level 98.3 %
Extraction speed 3.7 X
Track quality 100.0 %
Test CRC 27A21E6D
Copy CRC 27A21E6D
Track not present in AccurateRip database
Copy OK

Track 2

Filename C:\John Coltrane - The Bethlehem Years (1957) [2CD] {2014 Japanese Bethlehem Album Collection 1000}\CD2\02 - Tippin' (Take 2) (breakdown).wav

Peak level 98.2 %
Extraction speed 1.9 X
Track quality 99.8 %
Test CRC 652ADA27
Copy CRC 652ADA27
Track not present in AccurateRip database
Copy OK

Track 3

Filename C:\John Coltrane - The Bethlehem Years (1957) [2CD] {2014 Japanese Bethlehem Album Collection 1000}\CD2\03 - Tippin' (Take 3).wav

Peak level 98.2 %
Extraction speed 4.5 X
Track quality 100.0 %
Test CRC A146EF1A
Copy CRC A146EF1A
Track not present in AccurateRip database
Copy OK

Track 4

Filename C:\John Coltrane - The Bethlehem Years (1957) [2CD] {2014 Japanese Bethlehem Album Collection 1000}\CD2\04 - Tippin' (Take 4) (breakdown) (unreleased).wav

Peak level 98.2 %
Extraction speed 2.7 X
Track quality 100.0 %
Test CRC 1C3218B9
Copy CRC 1C3218B9
Track not present in AccurateRip database
Copy OK

Track 5

Filename C:\John Coltrane - The Bethlehem Years (1957) [2CD] {2014 Japanese Bethlehem Album Collection 1000}\CD2\05 - Tippin' (Take 5).wav

Peak level 98.2 %
Extraction speed 1.5 X
Track quality 99.7 %
Test CRC 1F6071F2
Copy CRC 1F6071F2
Track not present in AccurateRip database
Copy OK

Track 6

Filename C:\John Coltrane - The Bethlehem Years (1957) [2CD] {2014 Japanese Bethlehem Album Collection 1000}\CD2\06 - Tippin' (Take 6) (unreleased).wav

Peak level 98.3 %
Extraction speed 5.1 X
Track quality 100.0 %
Test CRC D3B738AB
Copy CRC D3B738AB
Track not present in AccurateRip database
Copy OK

Track 7

Filename C:\John Coltrane - The Bethlehem Years (1957) [2CD] {2014 Japanese Bethlehem Album Collection 1000}\CD2\07 - Tippin' (Take 7) (false start) (unreleased).wav

Peak level 98.2 %
Extraction speed 2.5 X
Track quality 100.0 %
Test CRC 24479770
Copy CRC 24479770
Track not present in AccurateRip database
Copy OK

Track 8

Filename C:\John Coltrane - The Bethlehem Years (1957) [2CD] {2014 Japanese Bethlehem Album Collection 1000}\CD2\08 - Pristine (Take 1) (false start).wav

Peak level 87.8 %
Extraction speed 1.9 X
Track quality 100.0 %
Test CRC 49F69CEC
Copy CRC 49F69CEC
Track not present in AccurateRip database
Copy OK

Track 9

Filename C:\John Coltrane - The Bethlehem Years (1957) [2CD] {2014 Japanese Bethlehem Album Collection 1000}\CD2\09 - Pristine (Take 2).wav

Peak level 98.3 %
Extraction speed 5.7 X
Track quality 100.0 %
Test CRC 394DD1F4
Copy CRC 394DD1F4
Track not present in AccurateRip database
Copy OK

Track 10

Filename C:\John Coltrane - The Bethlehem Years (1957) [2CD] {2014 Japanese Bethlehem Album Collection 1000}\CD2\10 - Pristine (Take 3) (false start).wav

Peak level 98.2 %
Extraction speed 3.4 X
Track quality 100.0 %
Test CRC DCAB0904
Copy CRC DCAB0904
Track not present in AccurateRip database
Copy OK

Track 11

Filename C:\John Coltrane - The Bethlehem Years (1957) [2CD] {2014 Japanese Bethlehem Album Collection 1000}\CD2\11 - Pristine (Take 4) (beakdown) (unreleased).wav

Peak level 98.2 %
Extraction speed 4.2 X
Track quality 100.0 %
Test CRC 4C046988
Copy CRC 4C046988
Track not present in AccurateRip database
Copy OK

Track 12

Filename C:\John Coltrane - The Bethlehem Years (1957) [2CD] {2014 Japanese Bethlehem Album Collection 1000}\CD2\12 - Pristine (Take 5) (breakdown) (unreleased).wav

Peak level 98.2 %
Extraction speed 3.6 X
Track quality 100.0 %
Test CRC C1052F8F
Copy CRC C1052F8F
Track not present in AccurateRip database
Copy OK

Track 13

Filename C:\John Coltrane - The Bethlehem Years (1957) [2CD] {2014 Japanese Bethlehem Album Collection 1000}\CD2\13 - Pristine (Take 6).wav

Peak level 98.3 %
Extraction speed 6.4 X
Track quality 100.0 %
Test CRC B41F6D5D
Copy CRC B41F6D5D
Track not present in AccurateRip database
Copy OK

Track 14

Filename C:\John Coltrane - The Bethlehem Years (1957) [2CD] {2014 Japanese Bethlehem Album Collection 1000}\CD2\14 - Pristine (Take 7) (unreleased).wav

Peak level 98.2 %
Extraction speed 5.6 X
Track quality 99.9 %
Test CRC F407BED1
Copy CRC F407BED1
Track not present in AccurateRip database
Copy OK

Track 15

Filename C:\John Coltrane - The Bethlehem Years (1957) [2CD] {2014 Japanese Bethlehem Album Collection 1000}\CD2\15 - Pristine (Take 8).wav

Peak level 98.3 %
Extraction speed 5.9 X
Track quality 99.9 %
Test CRC 33974113
Copy CRC 33974113
Track not present in AccurateRip database
Copy OK


None of the tracks are present in the AccurateRip database

No errors occurred

End of status report

==== Log checksum E9E818F564B4B736534DBA7FA2358DDDBAC50E6AA8F278561C8FF0B69DB7637A ====


John Coltrane - The Bethlehem Years (1957) {2014 2CD Set Japan Bethlehem Album Collection 1000 CDSOL-6151}

John Coltrane - The Bethlehem Years (1957) {2014 2CD Set Japan Bethlehem Album Collection 1000 CDSOL-6151}


more Bethlehem Records Album Collection…


===