Subcategories

John Coltrane - Transition (1965) {Impulse!-Verve Originals rel 2011}

Posted By: ruskaval
John Coltrane - Transition (1965) {Impulse!-Verve Originals rel 2011}

John Coltrane - Transition (1965) {Impulse!-Verve Originals rel 2011}
EAC rip (secure mode) | FLAC (tracks)+CUE+LOG -> 296 Mb | MP3 @320 -> 100 Mb
Full Artwork @ 600 dpi (png) -> 147 Mb | 5% repair rar
© 1965, 2011 Impulse! / Verve / UMG | Verve Originals Series | B0015953-02 | LP AS-9195
Jazz / Avant-Garde Jazz / Post Bop / Saxophone

There's no sense of "transition" here – as the album's an incredibly solid one, and stands with John Coltrane's best mid 60s work for Impulse – even if the session wasn't issued by the label until after his early death! The work builds strongly on the Love Supreme vibe – soaring, searching, and finding whole new space in jazz – but all with a unified conception that's driven by an unbridled sense of energy. The group here is the quartet with McCoy Tyner on piano, Jimmy Garrison on bass, and Elvin Jones on drums – and we're still quite puzzled why Impulse never managed to get this one released until a few years later! Titles include "Transition", "Dear Lord", and the side-long "Prayer and Meditation" suite.
John Coltrane - Transition (1965) {Impulse!-Verve Originals rel 2011}


Personnel:
John Coltrane – tenor saxophone
McCoy Tyner – piano
Jimmy Garrison – bass
Elvin Jones – drums

tracklist:
01 - Transition
02 - Dear Lord
03 - Suite
a. Prayer and Meditation: Day
b. Peace and After
c. Prayer and Meditation: Evening
d. Affirmation
e. Prayer and Meditation: 4 A.M.

Exact Audio Copy V1.1 from 23. June 2015

EAC extraction logfile from 12. May 2016, 21:43

John Coltrane / Transition

Used drive : TSSTcorpCDDVDW SE-208DB Adapter: 1 ID: 0

Read mode : Secure
Utilize accurate stream : Yes
Defeat audio cache : Yes
Make use of C2 pointers : No

Read offset correction : 6
Overread into Lead-In and Lead-Out : No
Fill up missing offset samples with silence : Yes
Delete leading and trailing silent blocks : No
Null samples used in CRC calculations : Yes
Used interface : Native Win32 interface for Win NT & 2000
Gap handling : Appended to previous track

Used output format : User Defined Encoder
Selected bitrate : 1024 kBit/s
Quality : High
Add ID3 tag : No
Command line compressor : C:\Program Files (x86)\FLAC Frontend\tools\flac.exe
Additional command line options : -8 -V -T "ARTIST=%artist%" -T "TITLE=%title%" -T "ALBUM=%albumtitle%" -T "DATE=%year%" -T "TRACKNUMBER=%tracknr%" -T "TOTALTRACKS=%numtracks%" -T "GENRE=%genre%" -T "ALBUMARTIST=%albumartist%" -T "ALBUM ARTIST=%albumartist%" -T "COMMENT=EAC Secure Mode, Test & Copy, AccurateRip, FLAC -8" %source%


TOC of the extracted CD

Track | Start | Length | Start sector | End sector
––––––––––––––––––––––––––––-
1 | 0:00.00 | 15:31.45 | 0 | 69869
2 | 15:31.45 | 5:36.32 | 69870 | 95101
3 | 21:08.02 | 21:19.46 | 95102 | 191072


Track 1

Filename D:\_EAC\John Coltrane - Transition (1965) [FLAC] {Impulse!-Verve Originals rel 2011}\01 - Transition.wav

Pre-gap length 0:00:02.00

Peak level 93.7 %
Extraction speed 1.5 X
Track quality 99.9 %
Test CRC CD74B64A
Copy CRC CD74B64A
Accurately ripped (confidence 6) [A2515A40] (AR v2)
Copy OK

Track 2

Filename D:\_EAC\John Coltrane - Transition (1965) [FLAC] {Impulse!-Verve Originals rel 2011}\02 - Dear Lord.wav

Peak level 99.7 %
Extraction speed 1.8 X
Track quality 100.0 %
Test CRC A1A3A044
Copy CRC A1A3A044
Accurately ripped (confidence 6) [521AFA06] (AR v2)
Copy OK

Track 3

Filename D:\_EAC\John Coltrane - Transition (1965) [FLAC] {Impulse!-Verve Originals rel 2011}\03 - Suite.wav

Peak level 99.9 %
Extraction speed 2.2 X
Track quality 100.0 %
Test CRC 67F00822
Copy CRC 67F00822
Accurately ripped (confidence 6) [4BFD83C7] (AR v2)
Copy OK


All tracks accurately ripped

No errors occurred

End of status report

==== Log checksum 310BAFA117EEC9652A1C2A4F4AF6E5A8A4B882FF6FFA23E9FBD652FA825C323D ====


John Coltrane - Transition (1965) {Impulse!-Verve Originals rel 2011}

John Coltrane - Transition (1965) {Impulse!-Verve Originals rel 2011}


The John Coltrane Quartet - Africa/Brass (1961) {Impulse!-Verve Originals rel 2007}
John Coltrane - "Live" At The Village Vanguard (1961) {Impulse!-Verve Originals rel 2007}
John Coltrane - Coltrane (1962) {Impulse!-Verve Originals rel 2007}
Duke Ellington & John Coltrane - Duke Ellington & John Coltrane (1962) {Impulse!-Verve Originals rel 2007}
John Coltrane Quartet - Ballads (1962) {Impulse!-Verve Originals rel 2007}

John Coltrane and Johnny Hartman - John Coltrane and Johnny Hartman (1963) {Impulse!-Verve Originals rel 2008}
John Coltrane - Impressions (1963) {Impulse!-Verve Originals rel 2008}
John Coltrane - Coltrane Live At Birdland (1963) {Impulse!-Verve Originals rel 2008}
John Coltrane Quartet - Crescent (1964) {Impulse!-Verve Originals rel 2008}
John Coltrane - A Love Supreme (1964) {Impulse!-Verve Originals rel 2008}

John Coltrane - The John Coltrane Quartet Plays (1965) {Impulse!-Verve Originals rel 2009}
John Coltrane / Archie Shepp - New Thing At Newport (1965) {Impulse!-Verve Originals rel 2009}
John Coltrane - Ascension (1965) {Impulse!-Verve Originals rel 2009}
John Coltrane - Meditations (1965) {Impulse!-Verve Originals rel 2009}
John Coltrane - Kulu Sé Mama (1965) {Impulse!-Verve Originals rel 2009}

John Coltrane - Expression (1967) {Impulse!-Verve Originals rel 2011}
John Coltrane - Live At The Village Vanguard Again! (1966) {Impulse!-Verve Originals rel 2011}
John Coltrane - Om (1965) {Impulse!-Verve Originals rel 2011}
John Coltrane & Alice Coltrane - Cosmic Music (1966) {Impulse!-Verve Originals rel 2011}
John Coltrane - Selflessness featuring My Favorite Things (1965) {Impulse!-Verve Originals rel 2011}

John Coltrane featuring Pharoah Sanders - Live In Seattle (1965) {Impulse!-Verve Originals rel 2011}
John Coltrane - Sun Ship (1965) {Impulse!-Verve Originals rel 2011}




NEXT -> more John Coltrane Impulse!-Verve Originals Series on the way…