Subcategories

John Lee Hooker - I'm John Lee Hooker (1959) & Travelin' (1960) {Soul Jam Records 600804 rel 2011}

Posted By: ruskaval
John Lee Hooker - I'm John Lee Hooker (1959) & Travelin' (1960) {Soul Jam Records 600804 rel 2011}

John Lee Hooker - I'm John Lee Hooker (1959) & Travelin' (1960) {Soul Jam Records 600804 rel 2011}
EAC rip (secure mode) | FLAC (tracks)+CUE+LOG -> 385 Mb | MP3 @320 -> 179 Mb
Full Artwork @ 300 dpi (png) -> 56 Mb | 5% repair rar
© 1959-60, 2011 Vee-Jay / Soul Jam Records | 600804
Blues / Electric Blues / Blues Revival / Delta Blues / Detroit Blues

Two classic Vee-Jay albums from blues master John Lee Hooker! One of the great blues collections of the post-World War II era. John Lee Hooker developed a “talking blues” style that became his trademark. Though similar to the early Delta tradition, his metrically free approach and unique sound would make him a staple of the Detroit blues tradition. Often called the “King of the Boogie”, Hooker’s driving, rhythmic approach to guitar playing has become an integral part of the blues.
John Lee Hooker - I'm John Lee Hooker (1959) & Travelin' (1960) {Soul Jam Records 600804 rel 2011}

His thunderous electric guitar sounded raw, while his basic technique was riveting. This quintessential collector’s edition includes two of Hooker’s finest albums: I’m John Lee Hooker (1959) and Travelin’ (1960), both originally released by the Vee-Jay label. These two blues masterpieces have been packaged together in this very special release, which also includes 5 bonus tracks from the same period. Contained here is the cream of the crop from Hooker’s hitmaking stretch for Vee-Jay records during his most inspired years. Without a doubt, this is the material upon which John Lee Hooker’s legend was built.

INCLUDES 16-PAGE BOOKLET, RARE PHOTOS, VINTAGE MEMORABILIA, DETAILED LINER NOTES

John Lee Hooker - I'm John Lee Hooker (1959) & Travelin' (1960) {Soul Jam Records 600804 rel 2011}


PERSONNEL:
JOHN LEE HOOKER, vocals and guitar, plus:
Eddie Taylor, Lefty Bates, Eddie Kirkland (guitar),
George Washington (bass)
Frankie Bradford, Joe Hunter (piano),
Tom Whitehead, Jimmy Turner, Richard Johnson (drums)
Jimmy Reed (harmonica), among others.

Recorded in Detroit and Chicago, between 1954 and 1960.

Track Listing:
I'm John Lee Hooker (1959)

1. Dimples
2. Hobo Blues
3. I'm So Excited
4. I Love You Honey
5. Boogie Chillun
6. Little Wheel
7. I'm In The Mood
8. Maudie
9. Crawlin' King Snake
10. Every Night
11. Time Is Marching
12. Baby Lee

Travelin' (1960)
13. No Shoes
14. I Wanna Walk
15. Canal Street Blues
16. Run On
17. I'm A Stranger
18. Whiskey And Wimmen
19. Solid Sender
20. Sunny Land
21. Goin To California
22. I Can't Believe
23. I'll Know tonight
24. Dusty Road

Bonus Tracks
25. Mambo Chillun
26. Baby, Please Don't Go
27. Time Is Marching
28. Shake, Holler And Run
29. Boogie Rambler

Exact Audio Copy V1.2 from 12. August 2016

EAC extraction logfile from 2. November 2016, 20:40

John Lee Hooker / I'm John Lee Hooker & Travelin'

Used drive : TSSTcorpCDDVDW SH-224BB Adapter: 1 ID: 0

Read mode : Secure
Utilize accurate stream : Yes
Defeat audio cache : Yes
Make use of C2 pointers : No

Read offset correction : 6
Overread into Lead-In and Lead-Out : No
Fill up missing offset samples with silence : Yes
Delete leading and trailing silent blocks : No
Null samples used in CRC calculations : Yes
Used interface : Native Win32 interface for Win NT & 2000
Gap handling : Appended to previous track

Used output format : User Defined Encoder
Selected bitrate : 768 kBit/s
Quality : High
Add ID3 tag : No
Command line compressor : C:\Program Files (x86)\Exact Audio Copy\Flac\flac.exe
Additional command line options : -8 -V -T "ARTIST=%artist%" -T "TITLE=%title%" -T "ALBUM=%albumtitle%" -T "DATE=%year%" -T "TRACKNUMBER=%tracknr%" -T "TOTALTRACKS=%numtracks%" -T "GENRE=%genre%" -T "ALBUMARTIST=%albumartist%" -T "ALBUM ARTIST=%albumartist%" -T "COMMENT=EAC Secure Mode, Test & Copy, AccurateRip, FLAC -8" %source%


TOC of the extracted CD

Track | Start | Length | Start sector | End sector
––––––––––––––––––––––––––––-
1 | 0:00.00 | 2:17.00 | 0 | 10274
2 | 2:17.00 | 2:49.19 | 10275 | 22968
3 | 5:06.19 | 2:54.29 | 22969 | 36047
4 | 8:00.48 | 2:34.47 | 36048 | 47644
5 | 10:35.20 | 2:35.47 | 47645 | 59316
6 | 13:10.67 | 2:35.29 | 59317 | 70970
7 | 15:46.21 | 2:44.38 | 70971 | 83308
8 | 18:30.59 | 2:20.38 | 83309 | 93846
9 | 20:51.22 | 2:43.00 | 93847 | 106071
10 | 23:34.22 | 3:00.00 | 106072 | 119571
11 | 26:34.22 | 3:02.57 | 119572 | 133278
12 | 29:37.04 | 2:52.38 | 133279 | 146216
13 | 32:29.42 | 2:26.00 | 146217 | 157166
14 | 34:55.42 | 2:15.00 | 157167 | 167291
15 | 37:10.42 | 2:54.47 | 167292 | 180388
16 | 40:05.14 | 2:12.00 | 180389 | 190288
17 | 42:17.14 | 2:41.38 | 190289 | 202401
18 | 44:58.52 | 2:58.38 | 202402 | 215789
19 | 47:57.15 | 2:35.57 | 215790 | 227471
20 | 50:32.72 | 2:30.00 | 227472 | 238721
21 | 53:02.72 | 2:23.38 | 238722 | 249484
22 | 55:26.35 | 2:50.00 | 249485 | 262234
23 | 58:16.35 | 2:41.29 | 262235 | 274338
24 | 60:57.64 | 2:21.00 | 274339 | 284913
25 | 63:18.64 | 2:53.19 | 284914 | 297907
26 | 66:12.08 | 2:30.47 | 297908 | 309204
27 | 68:42.55 | 3:02.57 | 309205 | 322911
28 | 71:45.37 | 2:31.29 | 322912 | 334265
29 | 74:16.66 | 3:02.47 | 334266 | 347962


Track 1

Filename C:\Rips\John Lee Hooker - I'm John Lee Hooker (1959) & Travelin' (1960) [FLAC] (2on1 2011)\01 - Dimples.wav

Pre-gap length 0:00:02.00

Peak level 91.2 %
Extraction speed 1.7 X
Track quality 100.0 %
Test CRC C4EB071C
Copy CRC C4EB071C
Accurately ripped (confidence 4) [1596D443] (AR v2)
Copy OK

Track 2

Filename C:\Rips\John Lee Hooker - I'm John Lee Hooker (1959) & Travelin' (1960) [FLAC] (2on1 2011)\02 - Hobo Blues.wav

Pre-gap length 0:00:03.00

Peak level 91.2 %
Extraction speed 1.8 X
Track quality 100.0 %
Test CRC 62F3CF16
Copy CRC 62F3CF16
Accurately ripped (confidence 4) [903EA444] (AR v2)
Copy OK

Track 3

Filename C:\Rips\John Lee Hooker - I'm John Lee Hooker (1959) & Travelin' (1960) [FLAC] (2on1 2011)\03 - I'm So Excited.wav

Pre-gap length 0:00:03.00

Peak level 91.2 %
Extraction speed 1.9 X
Track quality 100.0 %
Test CRC 3AE93719
Copy CRC 3AE93719
Accurately ripped (confidence 4) [6A86F319] (AR v2)
Copy OK

Track 4

Filename C:\Rips\John Lee Hooker - I'm John Lee Hooker (1959) & Travelin' (1960) [FLAC] (2on1 2011)\04 - I Love You Honey.wav

Pre-gap length 0:00:03.00

Peak level 91.2 %
Extraction speed 2.0 X
Track quality 100.0 %
Test CRC 9D0748E9
Copy CRC 9D0748E9
Accurately ripped (confidence 4) [9B3DE6FD] (AR v2)
Copy OK

Track 5

Filename C:\Rips\John Lee Hooker - I'm John Lee Hooker (1959) & Travelin' (1960) [FLAC] (2on1 2011)\05 - Boogie Chillun.wav

Pre-gap length 0:00:03.00

Peak level 91.2 %
Extraction speed 2.1 X
Track quality 100.0 %
Test CRC 0D76BBCD
Copy CRC 0D76BBCD
Accurately ripped (confidence 4) [340E29A7] (AR v2)
Copy OK

Track 6

Filename C:\Rips\John Lee Hooker - I'm John Lee Hooker (1959) & Travelin' (1960) [FLAC] (2on1 2011)\06 - Little Wheel.wav

Pre-gap length 0:00:03.00

Peak level 91.2 %
Extraction speed 1.7 X
Track quality 99.9 %
Test CRC 2A71E995
Copy CRC 2A71E995
Accurately ripped (confidence 4) [3A97DD2A] (AR v2)
Copy OK

Track 7

Filename C:\Rips\John Lee Hooker - I'm John Lee Hooker (1959) & Travelin' (1960) [FLAC] (2on1 2011)\07 - I'm In The Mood.wav

Pre-gap length 0:00:03.00

Peak level 91.2 %
Extraction speed 2.3 X
Track quality 100.0 %
Test CRC 86120576
Copy CRC 86120576
Accurately ripped (confidence 4) [6669BF2D] (AR v2)
Copy OK

Track 8

Filename C:\Rips\John Lee Hooker - I'm John Lee Hooker (1959) & Travelin' (1960) [FLAC] (2on1 2011)\08 - Maudie.wav

Pre-gap length 0:00:03.00

Peak level 91.2 %
Extraction speed 2.3 X
Track quality 100.0 %
Test CRC A0641F43
Copy CRC A0641F43
Accurately ripped (confidence 4) [F82CB423] (AR v2)
Copy OK

Track 9

Filename C:\Rips\John Lee Hooker - I'm John Lee Hooker (1959) & Travelin' (1960) [FLAC] (2on1 2011)\09 - Crawlin' King Snake.wav

Pre-gap length 0:00:03.00

Peak level 91.2 %
Extraction speed 1.8 X
Track quality 99.9 %
Test CRC ADBBBA87
Copy CRC ADBBBA87
Accurately ripped (confidence 4) [DE225B6B] (AR v2)
Copy OK

Track 10

Filename C:\Rips\John Lee Hooker - I'm John Lee Hooker (1959) & Travelin' (1960) [FLAC] (2on1 2011)\10 - Every Night.wav

Pre-gap length 0:00:03.00

Peak level 91.2 %
Extraction speed 2.6 X
Track quality 100.0 %
Test CRC 825E16FC
Copy CRC 825E16FC
Accurately ripped (confidence 4) [5EAB4DD7] (AR v2)
Copy OK

Track 11

Filename C:\Rips\John Lee Hooker - I'm John Lee Hooker (1959) & Travelin' (1960) [FLAC] (2on1 2011)\11 - Time Is Marching.wav

Pre-gap length 0:00:03.00

Peak level 91.2 %
Extraction speed 2.7 X
Track quality 100.0 %
Test CRC DCDF31D8
Copy CRC DCDF31D8
Accurately ripped (confidence 4) [0904A67B] (AR v2)
Copy OK

Track 12

Filename C:\Rips\John Lee Hooker - I'm John Lee Hooker (1959) & Travelin' (1960) [FLAC] (2on1 2011)\12 - Baby Lee.wav

Pre-gap length 0:00:03.00

Peak level 91.2 %
Extraction speed 2.7 X
Track quality 100.0 %
Test CRC C1DE1654
Copy CRC C1DE1654
Accurately ripped (confidence 4) [B9874B74] (AR v2)
Copy OK

Track 13

Filename C:\Rips\John Lee Hooker - I'm John Lee Hooker (1959) & Travelin' (1960) [FLAC] (2on1 2011)\13 - No Shoes.wav

Pre-gap length 0:00:02.74

Peak level 91.2 %
Extraction speed 2.7 X
Track quality 100.0 %
Test CRC BFE43B56
Copy CRC BFE43B56
Accurately ripped (confidence 4) [75BC95BC] (AR v2)
Copy OK

Track 14

Filename C:\Rips\John Lee Hooker - I'm John Lee Hooker (1959) & Travelin' (1960) [FLAC] (2on1 2011)\14 - I Wanna Walk.wav

Pre-gap length 0:00:03.00

Peak level 91.2 %
Extraction speed 2.7 X
Track quality 100.0 %
Test CRC 951E8869
Copy CRC 951E8869
Accurately ripped (confidence 4) [15792369] (AR v2)
Copy OK

Track 15

Filename C:\Rips\John Lee Hooker - I'm John Lee Hooker (1959) & Travelin' (1960) [FLAC] (2on1 2011)\15 - Canal Street Blues.wav

Pre-gap length 0:00:03.00

Peak level 91.2 %
Extraction speed 2.1 X
Track quality 99.9 %
Test CRC FB34461B
Copy CRC FB34461B
Accurately ripped (confidence 4) [8C1CE251] (AR v2)
Copy OK

Track 16

Filename C:\Rips\John Lee Hooker - I'm John Lee Hooker (1959) & Travelin' (1960) [FLAC] (2on1 2011)\16 - Run On.wav

Pre-gap length 0:00:03.00

Peak level 91.2 %
Extraction speed 2.8 X
Track quality 100.0 %
Test CRC 1AB0663A
Copy CRC 1AB0663A
Accurately ripped (confidence 4) [E35EECD8] (AR v2)
Copy OK

Track 17

Filename C:\Rips\John Lee Hooker - I'm John Lee Hooker (1959) & Travelin' (1960) [FLAC] (2on1 2011)\17 - I'm A Stranger.wav

Pre-gap length 0:00:03.00

Peak level 91.2 %
Extraction speed 3.0 X
Track quality 100.0 %
Test CRC B2BE1392
Copy CRC B2BE1392
Accurately ripped (confidence 4) [2D214555] (AR v2)
Copy OK

Track 18

Filename C:\Rips\John Lee Hooker - I'm John Lee Hooker (1959) & Travelin' (1960) [FLAC] (2on1 2011)\18 - Whiskey And Wimmen.wav

Pre-gap length 0:00:03.00

Peak level 91.2 %
Extraction speed 3.1 X
Track quality 100.0 %
Test CRC 7C1693D1
Copy CRC 7C1693D1
Accurately ripped (confidence 4) [A5EABE44] (AR v2)
Copy OK

Track 19

Filename C:\Rips\John Lee Hooker - I'm John Lee Hooker (1959) & Travelin' (1960) [FLAC] (2on1 2011)\19 - Solid Sender.wav

Pre-gap length 0:00:03.00

Peak level 91.2 %
Extraction speed 3.1 X
Track quality 100.0 %
Test CRC D4EE421E
Copy CRC D4EE421E
Accurately ripped (confidence 4) [0A65D544] (AR v2)
Copy OK

Track 20

Filename C:\Rips\John Lee Hooker - I'm John Lee Hooker (1959) & Travelin' (1960) [FLAC] (2on1 2011)\20 - Sunny Land.wav

Pre-gap length 0:00:03.00

Peak level 91.2 %
Extraction speed 3.1 X
Track quality 100.0 %
Test CRC 6DCAFF81
Copy CRC 6DCAFF81
Accurately ripped (confidence 4) [46B301C9] (AR v2)
Copy OK

Track 21

Filename C:\Rips\John Lee Hooker - I'm John Lee Hooker (1959) & Travelin' (1960) [FLAC] (2on1 2011)\21 - Goin' To California.wav

Pre-gap length 0:00:03.00

Peak level 91.2 %
Extraction speed 3.1 X
Track quality 100.0 %
Test CRC 67A658D6
Copy CRC 67A658D6
Accurately ripped (confidence 4) [53600D19] (AR v2)
Copy OK

Track 22

Filename C:\Rips\John Lee Hooker - I'm John Lee Hooker (1959) & Travelin' (1960) [FLAC] (2on1 2011)\22 - I Can't Believe.wav

Pre-gap length 0:00:03.00

Peak level 91.2 %
Extraction speed 2.2 X
Track quality 99.9 %
Test CRC A7FFFBF4
Copy CRC A7FFFBF4
Accurately ripped (confidence 4) [FD84DC58] (AR v2)
Copy OK

Track 23

Filename C:\Rips\John Lee Hooker - I'm John Lee Hooker (1959) & Travelin' (1960) [FLAC] (2on1 2011)\23 - I'll Know Tonight.wav

Pre-gap length 0:00:03.00

Peak level 91.2 %
Extraction speed 3.3 X
Track quality 100.0 %
Test CRC 8E4EA03B
Copy CRC 8E4EA03B
Accurately ripped (confidence 4) [E419C48A] (AR v2)
Copy OK

Track 24

Filename C:\Rips\John Lee Hooker - I'm John Lee Hooker (1959) & Travelin' (1960) [FLAC] (2on1 2011)\24 - Dusty Road.wav

Pre-gap length 0:00:03.00

Peak level 91.2 %
Extraction speed 3.2 X
Track quality 100.0 %
Test CRC FDAADEAD
Copy CRC FDAADEAD
Accurately ripped (confidence 4) [18E7026D] (AR v2)
Copy OK

Track 25

Filename C:\Rips\John Lee Hooker - I'm John Lee Hooker (1959) & Travelin' (1960) [FLAC] (2on1 2011)\25 - Mambo Chillun.wav

Pre-gap length 0:00:03.00

Peak level 91.2 %
Extraction speed 2.3 X
Track quality 99.9 %
Test CRC B2B04381
Copy CRC B2B04381
Accurately ripped (confidence 4) [07B32561] (AR v2)
Copy OK

Track 26

Filename C:\Rips\John Lee Hooker - I'm John Lee Hooker (1959) & Travelin' (1960) [FLAC] (2on1 2011)\26 - Baby, Please Don't Go.wav

Pre-gap length 0:00:03.00

Peak level 82.8 %
Extraction speed 3.4 X
Track quality 100.0 %
Test CRC 515AEB9A
Copy CRC 515AEB9A
Accurately ripped (confidence 4) [B3FD9C24] (AR v2)
Copy OK

Track 27

Filename C:\Rips\John Lee Hooker - I'm John Lee Hooker (1959) & Travelin' (1960) [FLAC] (2on1 2011)\27 - Time Is Marching.wav

Pre-gap length 0:00:03.00

Peak level 91.2 %
Extraction speed 3.6 X
Track quality 100.0 %
Test CRC 863CC2A4
Copy CRC 863CC2A4
Accurately ripped (confidence 4) [30CE7D85] (AR v2)
Copy OK

Track 28

Filename C:\Rips\John Lee Hooker - I'm John Lee Hooker (1959) & Travelin' (1960) [FLAC] (2on1 2011)\28 - Shake, Holler And Run.wav

Pre-gap length 0:00:03.00

Peak level 91.2 %
Extraction speed 2.2 X
Track quality 99.9 %
Test CRC CFAD72C1
Copy CRC CFAD72C1
Accurately ripped (confidence 4) [82A76937] (AR v2)
Copy OK

Track 29

Filename C:\Rips\John Lee Hooker - I'm John Lee Hooker (1959) & Travelin' (1960) [FLAC] (2on1 2011)\29 - Boogie Rambler.wav

Pre-gap length 0:00:03.00

Peak level 91.2 %
Extraction speed 2.3 X
Track quality 99.9 %
Test CRC 42FA1F20
Copy CRC 42FA1F20
Accurately ripped (confidence 4) [26CD58A8] (AR v2)
Copy OK


All tracks accurately ripped

No errors occurred

End of status report

–– CUETools DB Plugin V2.1.6

[CTDB TOCID: QzWPE6YEwIq2t7StLbK4miErmt8-] found
Submit result: already submitted
Track | CTDB Status
1 | (8/8) Accurately ripped
2 | (8/8) Accurately ripped
3 | (8/8) Accurately ripped
4 | (8/8) Accurately ripped
5 | (8/8) Accurately ripped
6 | (8/8) Accurately ripped
7 | (8/8) Accurately ripped
8 | (8/8) Accurately ripped
9 | (8/8) Accurately ripped
10 | (8/8) Accurately ripped
11 | (8/8) Accurately ripped
12 | (8/8) Accurately ripped
13 | (8/8) Accurately ripped
14 | (8/8) Accurately ripped
15 | (8/8) Accurately ripped
16 | (8/8) Accurately ripped
17 | (8/8) Accurately ripped
18 | (8/8) Accurately ripped
19 | (8/8) Accurately ripped
20 | (8/8) Accurately ripped
21 | (8/8) Accurately ripped
22 | (8/8) Accurately ripped
23 | (8/8) Accurately ripped
24 | (8/8) Accurately ripped
25 | (8/8) Accurately ripped
26 | (8/8) Accurately ripped
27 | (8/8) Accurately ripped
28 | (8/8) Accurately ripped
29 | (8/8) Accurately ripped


==== Log checksum 60B89FC6CBB9BB5023E7A0D1C75B0F5D83FF06F9C7EB5ED2DADB7A0B647E3AD1 ====


John Lee Hooker - I'm John Lee Hooker (1959) & Travelin' (1960) {Soul Jam Records 600804 rel 2011}

John Lee Hooker - I'm John Lee Hooker (1959) & Travelin' (1960) {Soul Jam Records 600804 rel 2011}


All thanks goes to the original releaser!