Subcategories

John Zorn - The Urmuz Epigrams (2018)

Posted By: delpotro
John Zorn - The Urmuz Epigrams (2018)

John Zorn - The Urmuz Epigrams (2018)
EAC Rip | FLAC (tracks+log+.cue) | 00:49:30 | 219 Mb
Free Jazz | Label: Tzadik Records

With The Urmuz Epigrams Zorn returns to his roots, using the recording studio as instrument to create an intensely personal suite of compositions in the style of his legendary File Card compositions and Zoetropes. Dedicated to the visionary Romanian writer Urmuz whose small, scattered body of work predated Dadaism by decades, The Urmuz Epigrams is a suite of surrealistic miniatures more akin to philosophical aphorisms than actual music. The pieces are presented here in two iterations, as a set of “rare 78rpm records” complete with surface scratches and limited dynamic range, and as a modern reconstruction of same with the full blown studio sound presented in all its perplexing glory. Some of the craziest music in the Zorn catalog!
Tracklist:
01 Disgusted With Life (modern)
02 This Piano Lid Serves as a Wall (modern)
03 With Wet Clothes and Disheveled Hair He Wandered in the Dead of Night in Search of Shelter (modern)
04 Then Again, Who Amongst Us Can Complain (modern)
05 A Rain of Threats and Screams (modern)
06 The Pelican or the Pelicaness (modern)
07 After That the Funnel Became a Symbol (modern)
08 Desperate from Having Been Left Without a Bladder (modern)
09 Disgusted With Life (original)
10 This Piano Lid Serves as a Wall (original)
11 With Wet Clothes and Disheveled Hair He Wandered in the Dead of Night in Search of Shelter (original)
12 Then Again, Who Amongst Us Can Complain (original)
13 A Rain of Threats and Screams (original)
14 The Pelican or the Pelicaness (original)
15 After That the Funnel Became a Symbol (original)
16 Desperate from Having Been Left Without a Bladder (original)

Exact Audio Copy V1.3 from 2. September 2016

EAC extraction logfile from 3. March 2018, 19:03

John Zorn / The Urmuz Epigrams

Used drive : ASUS DRW-24B1ST j Adapter: 1 ID: 0

Read mode : Secure
Utilize accurate stream : Yes
Defeat audio cache : Yes
Make use of C2 pointers : No

Read offset correction : 6
Overread into Lead-In and Lead-Out : No
Fill up missing offset samples with silence : Yes
Delete leading and trailing silent blocks : No
Null samples used in CRC calculations : Yes
Used interface : Native Win32 interface for Win NT & 2000
Gap handling : Appended to previous track

Used output format : User Defined Encoder
Selected bitrate : 1024 kBit/s
Quality : High
Add ID3 tag : No
Command line compressor : C:\flac-1.3.2-win\win64\flac.exe
Additional command line options : -8 -e -p -V -T "ARTIST=%artist%" -T "TITLE=%title%" -T "ALBUM=%albumtitle%" -T "DATE=%year%" -T "TRACKNUMBER=%tracknr%" -T "GENRE=%genre%" -T "PERFORMER=%albuminterpret%" -T "COMPOSER=%composer%" %haslyrics%–tag-from-file=LYRICS="%lyricsfile%"%haslyrics% -T "ALBUMARTIST=%albumartist%" -T "DISCNUMBER=%cdnumber%" -T "TOTALDISCS=%totalcds%" -T "TOTALTRACKS=%numtracks%" -T "COMMENT=%comment%" %source% -o %dest%


TOC of the extracted CD

Track | Start | Length | Start sector | End sector
––––––––––––––––––––––––––––-
1 | 0:00.00 | 2:48.06 | 0 | 12605
2 | 2:48.06 | 3:52.07 | 12606 | 30012
3 | 6:40.13 | 3:01.56 | 30013 | 43643
4 | 9:41.69 | 3:40.12 | 43644 | 60155
5 | 13:22.06 | 3:43.01 | 60156 | 76881
6 | 17:05.07 | 3:05.58 | 76882 | 90814
7 | 20:10.65 | 2:54.60 | 90815 | 103924
8 | 23:05.50 | 1:28.30 | 103925 | 110554
9 | 24:34.05 | 2:49.65 | 110555 | 123294
10 | 27:23.70 | 3:55.74 | 123295 | 140993
11 | 31:19.69 | 3:05.13 | 140994 | 154881
12 | 34:25.07 | 3:47.45 | 154882 | 171951
13 | 38:12.52 | 3:50.04 | 171952 | 189205
14 | 42:02.56 | 3:11.12 | 189206 | 203542
15 | 45:13.68 | 2:57.06 | 203543 | 216823
16 | 48:10.74 | 1:19.68 | 216824 | 222816


Track 1

Filename C:\EAC rips\John Zorn - The Urmuz Epigrams (2018) [FLAC]\01 Disgusted With Life (modern).wav

Pre-gap length 0:00:02.00

Peak level 88.9 %
Extraction speed 4.6 X
Track quality 100.0 %
Test CRC 6C6FA663
Copy CRC 6C6FA663
Track not present in AccurateRip database
Copy OK

Track 2

Filename C:\EAC rips\John Zorn - The Urmuz Epigrams (2018) [FLAC]\02 This Piano Lid Serves as a Wall (modern).wav

Peak level 87.9 %
Extraction speed 4.6 X
Track quality 99.9 %
Test CRC 4704A5B0
Copy CRC 4704A5B0
Track not present in AccurateRip database
Copy OK

Track 3

Filename C:\EAC rips\John Zorn - The Urmuz Epigrams (2018) [FLAC]\03 With Wet Clothes and Disheveled Hair He Wandered in the Dead of Night in Search of Shelter (modern).wav

Peak level 90.0 %
Extraction speed 5.6 X
Track quality 100.0 %
Test CRC A7305A34
Copy CRC A7305A34
Track not present in AccurateRip database
Copy OK

Track 4

Filename C:\EAC rips\John Zorn - The Urmuz Epigrams (2018) [FLAC]\04 Then Again, Who Amongst Us Can Complain (modern).wav

Peak level 90.4 %
Extraction speed 6.2 X
Track quality 100.0 %
Test CRC 1BBFE6A8
Copy CRC 1BBFE6A8
Track not present in AccurateRip database
Copy OK

Track 5

Filename C:\EAC rips\John Zorn - The Urmuz Epigrams (2018) [FLAC]\05 A Rain of Threats and Screams (modern).wav

Peak level 89.7 %
Extraction speed 6.7 X
Track quality 100.0 %
Test CRC 577F4A38
Copy CRC 577F4A38
Track not present in AccurateRip database
Copy OK

Track 6

Filename C:\EAC rips\John Zorn - The Urmuz Epigrams (2018) [FLAC]\06 The Pelican or the Pelicaness (modern).wav

Peak level 89.6 %
Extraction speed 6.9 X
Track quality 100.0 %
Test CRC 477CAC47
Copy CRC 477CAC47
Track not present in AccurateRip database
Copy OK

Track 7

Filename C:\EAC rips\John Zorn - The Urmuz Epigrams (2018) [FLAC]\07 After That the Funnel Became a Symbol (modern).wav

Peak level 89.9 %
Extraction speed 7.0 X
Track quality 100.0 %
Test CRC 97D217BD
Copy CRC 97D217BD
Track not present in AccurateRip database
Copy OK

Track 8

Filename C:\EAC rips\John Zorn - The Urmuz Epigrams (2018) [FLAC]\08 Desperate from Having Been Left Without a Bladder (modern).wav

Peak level 87.7 %
Extraction speed 6.2 X
Track quality 100.0 %
Test CRC 541ADF15
Copy CRC 541ADF15
Track not present in AccurateRip database
Copy OK

Track 9

Filename C:\EAC rips\John Zorn - The Urmuz Epigrams (2018) [FLAC]\09 Disgusted With Life (original).wav

Peak level 94.5 %
Extraction speed 7.5 X
Track quality 100.0 %
Test CRC AC37058F
Copy CRC AC37058F
Track not present in AccurateRip database
Copy OK

Track 10

Filename C:\EAC rips\John Zorn - The Urmuz Epigrams (2018) [FLAC]\10 This Piano Lid Serves as a Wall (original).wav

Peak level 94.9 %
Extraction speed 8.1 X
Track quality 100.0 %
Test CRC 8D75B119
Copy CRC 8D75B119
Track not present in AccurateRip database
Copy OK

Track 11

Filename C:\EAC rips\John Zorn - The Urmuz Epigrams (2018) [FLAC]\11 With Wet Clothes and Disheveled Hair He Wandered in the Dead of Night in Search of Shelter (original).wav

Peak level 91.1 %
Extraction speed 8.0 X
Track quality 100.0 %
Test CRC 2CFF232D
Copy CRC 2CFF232D
Track not present in AccurateRip database
Copy OK

Track 12

Filename C:\EAC rips\John Zorn - The Urmuz Epigrams (2018) [FLAC]\12 Then Again, Who Amongst Us Can Complain (original).wav

Peak level 94.8 %
Extraction speed 8.6 X
Track quality 100.0 %
Test CRC C118712D
Copy CRC C118712D
Track not present in AccurateRip database
Copy OK

Track 13

Filename C:\EAC rips\John Zorn - The Urmuz Epigrams (2018) [FLAC]\13 A Rain of Threats and Screams (original).wav

Peak level 95.7 %
Extraction speed 7.2 X
Track quality 99.9 %
Test CRC 9E789505
Copy CRC 9E789505
Track not present in AccurateRip database
Copy OK

Track 14

Filename C:\EAC rips\John Zorn - The Urmuz Epigrams (2018) [FLAC]\14 The Pelican or the Pelicaness (original).wav

Peak level 93.7 %
Extraction speed 9.0 X
Track quality 100.0 %
Test CRC D2F61AB5
Copy CRC D2F61AB5
Track not present in AccurateRip database
Copy OK

Track 15

Filename C:\EAC rips\John Zorn - The Urmuz Epigrams (2018) [FLAC]\15 After That the Funnel Became a Symbol (original).wav

Peak level 95.4 %
Extraction speed 9.2 X
Track quality 100.0 %
Test CRC 478D2F3F
Copy CRC 478D2F3F
Track not present in AccurateRip database
Copy OK

Track 16

Filename C:\EAC rips\John Zorn - The Urmuz Epigrams (2018) [FLAC]\16 Desperate from Having Been Left Without a Bladder (original).wav

Peak level 94.1 %
Extraction speed 7.4 X
Track quality 100.0 %
Test CRC D2B54698
Copy CRC D2B54698
Track not present in AccurateRip database
Copy OK


None of the tracks are present in the AccurateRip database

No errors occurred

End of status report

–– CUETools DB Plugin V2.1.6

[CTDB TOCID: wqYD0wTkJvOKC_q2Th7FgTZZSSI-] disk not present in database
Submit result: wqYD0wTkJvOKC_q2Th7FgTZZSSI- has been uploaded


==== Log checksum 82BAFE6A7DB96279D78CFC06D325330AE6C7123A33B8D16997D769973B014791 ====

Thanks to the Original ripper fishbrains !