Subcategories

Jonathan Richman - I, Jonathan (1992)

Posted By: plonker
Jonathan Richman - I, Jonathan (1992)

Jonathan Richman - I, Jonathan (1992)
Alt. Pop/Rock | EAC rip | FLAC: tracks+CUE+EAC/log -> 190 MB | mp3@VBR V0 (230kbps) -> 70 MB
38:24 min | covers | RAR inc. 3% recovery | Rounder CD 9036

AMG review by Jason Ankeny:
A lo-fi effort cut in a California basement, I, Jonathan returns Richman to the full band setting and manic diversity that recent conceptual efforts have forsaken. Sloppy and wild, the album is a blast from start to finish; among its many concerns are skydiving ("Tandem Jump"), sea life (the surf instrumental "Grunion Run"), nightclubbing ("I Was Dancing in a Lesbian Bar"), and hero worship ("Velvet Underground").
Release date: Sep 16, 1992

Tracklist:
01 Parties in the U.S.A (04:45)
02 Tandem Jump (02:16)
03 You Can't Talk to the Dude (02:54)
04 Velvet Underground (03:30)
05 I Was Dancing in a Lesbian Bar (03:46)
06 Rooming House on Venice Beach (05:10)
07 That Summer Feeling (06:08)
08 Grunion Run (02:36)
09 A Higher Power (03:07)
10 Twilight in Boston (04:12)

Exact Audio Copy V0.99 prebeta 4 from 23. January 2008

EAC extraction logfile from 27. April 2009, 3:50

Jonathan Richman / I, Jonathan

Used drive : TSSTcorpCD/DVDW TS-H552L Adapter: 2 ID: 0

Read mode : Secure
Utilize accurate stream : Yes
Defeat audio cache : Yes
Make use of C2 pointers : No

Read offset correction : 6
Overread into Lead-In and Lead-Out : No
Fill up missing offset samples with silence : Yes
Delete leading and trailing silent blocks : No
Null samples used in CRC calculations : Yes
Used interface : Installed external ASPI interface
Gap handling : Appended to previous track

Used output format : User Defined Encoder
Selected bitrate : 128 kBit/s
Quality : High
Add ID3 tag : No
Command line compressor : C:\Program Files\Exact Audio Copy\Flac\flac.exe
Additional command line options : -V -8 -T "artist=%a" -T "title=%t" -T "album=%g" -T "date=%y" -T "tracknumber=%n" -T "genre=%m" %s


TOC of the extracted CD

Track | Start | Length | Start sector | End sector
––––––––––––––––––––––––––––-
1 | 0:00.00 | 4:45.00 | 0 | 21374
2 | 4:45.00 | 2:16.00 | 21375 | 31574
3 | 7:01.00 | 2:54.00 | 31575 | 44624
4 | 9:55.00 | 3:29.37 | 44625 | 60336
5 | 13:24.37 | 3:45.38 | 60337 | 77249
6 | 17:10.00 | 5:10.00 | 77250 | 100499
7 | 22:20.00 | 6:08.00 | 100500 | 128099
8 | 28:28.00 | 2:36.00 | 128100 | 139799
9 | 31:04.00 | 3:07.00 | 139800 | 153824
10 | 34:11.00 | 4:12.02 | 153825 | 172726


Track 1

Filename C:\Documents and Settings\Compaq_Administrator\My Documents\CD Rips\Jonathan Richman\Jonathan Richman\I, Jonathan\01 - Parties in the U.S.A.wav

Pre-gap length 0:00:02.00

Peak level 88.4 %
Track quality 100.0 %
Test CRC 5D812FE2
Copy CRC 5D812FE2
Accurately ripped (confidence 6) [AC9CEF6B]
Copy OK

Track 2

Filename C:\Documents and Settings\Compaq_Administrator\My Documents\CD Rips\Jonathan Richman\Jonathan Richman\I, Jonathan\02 - Tandem Jump.wav

Pre-gap length 0:00:01.08

Peak level 78.7 %
Track quality 100.0 %
Test CRC 5B3D3662
Copy CRC 5B3D3662
Accurately ripped (confidence 6) [14618485]
Copy OK

Track 3

Filename C:\Documents and Settings\Compaq_Administrator\My Documents\CD Rips\Jonathan Richman\Jonathan Richman\I, Jonathan\03 - You Can't Talk to the Dude.wav

Pre-gap length 0:00:01.43

Peak level 90.4 %
Track quality 99.9 %
Test CRC 8E0D9173
Copy CRC 8E0D9173
Accurately ripped (confidence 6) [437D5954]
Copy OK

Track 4

Filename C:\Documents and Settings\Compaq_Administrator\My Documents\CD Rips\Jonathan Richman\Jonathan Richman\I, Jonathan\04 - Velvet Underground.wav

Pre-gap length 0:00:00.40

Peak level 69.6 %
Track quality 100.0 %
Test CRC AA10F630
Copy CRC AA10F630
Accurately ripped (confidence 6) [C3E0E32D]
Copy OK

Track 5

Filename C:\Documents and Settings\Compaq_Administrator\My Documents\CD Rips\Jonathan Richman\Jonathan Richman\I, Jonathan\05 - I Was Dancing in a Lesbian Bar.wav

Pre-gap length 0:00:01.45

Peak level 100.0 %
Track quality 100.0 %
Test CRC 362880F3
Copy CRC 362880F3
Accurately ripped (confidence 6) [6E23E27D]
Copy OK

Track 6

Filename C:\Documents and Settings\Compaq_Administrator\My Documents\CD Rips\Jonathan Richman\Jonathan Richman\I, Jonathan\06 - Rooming House on Venice Beach.wav

Pre-gap length 0:00:01.50

Peak level 73.0 %
Track quality 100.0 %
Test CRC 4682A0E1
Copy CRC 4682A0E1
Accurately ripped (confidence 6) [B8802B4C]
Copy OK

Track 7

Filename C:\Documents and Settings\Compaq_Administrator\My Documents\CD Rips\Jonathan Richman\Jonathan Richman\I, Jonathan\07 - That Summer Feeling.wav

Pre-gap length 0:00:01.58

Peak level 98.1 %
Track quality 100.0 %
Test CRC B1342615
Copy CRC B1342615
Accurately ripped (confidence 6) [C1881D17]
Copy OK

Track 8

Filename C:\Documents and Settings\Compaq_Administrator\My Documents\CD Rips\Jonathan Richman\Jonathan Richman\I, Jonathan\08 - Grunion Run.wav

Pre-gap length 0:00:01.30

Peak level 77.2 %
Track quality 100.0 %
Test CRC 59254CE3
Copy CRC 59254CE3
Accurately ripped (confidence 6) [9381AAD6]
Copy OK

Track 9

Filename C:\Documents and Settings\Compaq_Administrator\My Documents\CD Rips\Jonathan Richman\Jonathan Richman\I, Jonathan\09 - A Higher Power.wav

Pre-gap length 0:00:01.03

Peak level 90.7 %
Track quality 100.0 %
Test CRC 60343358
Copy CRC 60343358
Accurately ripped (confidence 6) [2C4FFBBB]
Copy OK

Track 10

Filename C:\Documents and Settings\Compaq_Administrator\My Documents\CD Rips\Jonathan Richman\Jonathan Richman\I, Jonathan\10 - Twilight in Boston.wav

Pre-gap length 0:00:01.23

Peak level 44.9 %
Track quality 99.9 %
Test CRC C5FC6E87
Copy CRC C5FC6E87
Accurately ripped (confidence 6) [42A79ADD]
Copy OK


All tracks accurately ripped

No errors occurred

End of status report

Not my rip! torrent find . All credits and thanks to original ripper !!


************ download ************