Subcategories

Blank & Jones - The Singles (2006)

Posted By: meditation
Blank & Jones - The Singles (2006)

Blank & Jones - The Singles (2006)
Trance/Downtempo/Ambient | Flac (image + .cue + log) : 644mb | MP3 - 320 kbps : 227mb | Covers | RS.com

Blank & Jones is one of Germany's most successful DJ and recording duos and they are back in stores with a new album called "The Singles." This greatest hits collection is a definitive must-have for all B&J fans, trance fans, and music lovers alike and features a bonus DVD containing all their video clips. Even though ATB and Paul Van Dyk have garnered more attention than their compatriots in the music scene, the duo has managed to release seven albums, three mix albums, and have obtained fifteen hit singles under their belts. On The Singles CD you will find rare tracks such as "Sunrise" and "Nightclubbing" sitting next to two new, exclusive tracks. The CD also covers the whole history of the act, from their early chart successes such as "Cream" and "A Forest" with Robert Smith from The Cure to their current new singles "Catch" and "Revealed," with each song having been digitally remastered.

Exact Audio Copy V0.99 prebeta 4 from 23. January 2008

EAC extraction logfile from 19. December 2008, 0:01

Blank & Jones / The Singles

Used drive : _NEC DVD_RW ND-3550A Adapter: 1 ID: 0

Read mode : Secure
Utilize accurate stream : Yes
Defeat audio cache : Yes
Make use of C2 pointers : No

Read offset correction : 48
Overread into Lead-In and Lead-Out : No
Fill up missing offset samples with silence : Yes
Delete leading and trailing silent blocks : No
Null samples used in CRC calculations : Yes
Used interface : Native Win32 interface for Win NT & 2000
Gap handling : Appended to previous track

Used output format : User Defined Encoder
Selected bitrate : 128 kBit/s
Quality : High
Add ID3 tag : No
Command line compressor : C:\Program Files\EAC\Flac\flac.exe
Additional command line options : -8 -V -T "ARTIST=%a" -T "TITLE=%t" -T "ALBUM=%g" -T "DATE=%y" -T "TRACKNUMBER=%n" -T "GENRE=%m" -T "COMMENT=EAC FLAC -8" %s


TOC of the extracted CD

Track | Start | Length | Start sector | End sector
––––––––––––––––––––––––––––-
1 | 0:00.00 | 3:34.26 | 0 | 16075
2 | 3:34.26 | 3:21.32 | 16076 | 31182
3 | 6:55.58 | 3:16.47 | 31183 | 45929
4 | 10:12.30 | 3:54.05 | 45930 | 63484
5 | 14:06.35 | 3:17.45 | 63485 | 78304
6 | 17:24.05 | 3:23.56 | 78305 | 93585
7 | 20:47.61 | 4:09.40 | 93586 | 112300
8 | 24:57.26 | 3:51.24 | 112301 | 129649
9 | 28:48.50 | 2:44.05 | 129650 | 141954
10 | 31:32.55 | 3:29.32 | 141955 | 157661
11 | 35:02.12 | 3:29.64 | 157662 | 173400
12 | 38:32.01 | 3:33.53 | 173401 | 189428
13 | 42:05.54 | 3:02.31 | 189429 | 203109
14 | 45:08.10 | 3:11.16 | 203110 | 217450
15 | 48:19.26 | 3:37.29 | 217451 | 233754
16 | 51:56.55 | 3:46.20 | 233755 | 250724
17 | 55:43.00 | 3:35.65 | 250725 | 266914
18 | 59:18.65 | 3:59.02 | 266915 | 284841
19 | 63:17.67 | 3:35.36 | 284842 | 301002
20 | 66:53.28 | 3:28.54 | 301003 | 316656
21 | 70:22.07 | 3:46.52 | 316657 | 333658
22 | 74:08.59 | 3:25.74 | 333659 | 349107


Track 1

Filename D:\Temp\CDRips\01. Blank & Jones - A Forest (Short Cut) (with Robert Smith).wav

Pre-gap length 0:00:02.00

Peak level 96.6 %
Track quality 100.0 %
Test CRC 0F8BA3E1
Copy CRC 0F8BA3E1
Track not present in AccurateRip database
Copy OK

Track 2

Filename D:\Temp\CDRips\02. Blank & Jones - Perfect Silence (Short Cut) (with Bobo).wav

Pre-gap length 0:00:01.00

Peak level 96.6 %
Track quality 100.0 %
Test CRC FC67D4FF
Copy CRC FC67D4FF
Track not present in AccurateRip database
Copy OK

Track 3

Filename D:\Temp\CDRips\03. Blank & Jones - Catch (Radio,Video Mix) (with Elles de Graaf).wav

Pre-gap length 0:00:01.00

Peak level 96.6 %
Track quality 100.0 %
Test CRC 18ABAE22
Copy CRC 18ABAE22
Track not present in AccurateRip database
Copy OK

Track 4

Filename D:\Temp\CDRips\04. Blank & Jones - The Nightfly (Short Cut).wav

Pre-gap length 0:00:01.00

Peak level 96.6 %
Track quality 100.0 %
Test CRC D56BBAE3
Copy CRC D56BBAE3
Track not present in AccurateRip database
Copy OK

Track 5

Filename D:\Temp\CDRips\05. Blank & Jones - Cream (Short Cut).wav

Pre-gap length 0:00:01.00

Peak level 96.6 %
Track quality 100.0 %
Test CRC EA4897D2
Copy CRC EA4897D2
Track not present in AccurateRip database
Copy OK

Track 6

Filename D:\Temp\CDRips\06. Blank & Jones - Desire (Short Cut).wav

Pre-gap length 0:00:01.00

Peak level 96.6 %
Track quality 100.0 %
Test CRC 83282539
Copy CRC 83282539
Track not present in AccurateRip database
Copy OK

Track 7

Filename D:\Temp\CDRips\07. Blank & Jones - Mind Of The Wonderful (Short Cut) (with Elles de Graaf).wav

Pre-gap length 0:00:01.00

Peak level 96.6 %
Track quality 100.0 %
Test CRC BC68996C
Copy CRC BC68996C
Track not present in AccurateRip database
Copy OK

Track 8

Filename D:\Temp\CDRips\08. Blank & Jones - Somebody (Never Wait) (with Escape With Romeo).wav

Pre-gap length 0:00:01.00

Peak level 98.8 %
Track quality 100.0 %
Test CRC 361BBE57
Copy CRC 361BBE57
Track not present in AccurateRip database
Copy OK

Track 9

Filename D:\Temp\CDRips\09. Blank & Jones - DJs, Fans & Freaks (D.F.F.) (Radio Cut).wav

Pre-gap length 0:00:01.00

Peak level 96.6 %
Track quality 100.0 %
Test CRC 8D0C60DE
Copy CRC 8D0C60DE
Track not present in AccurateRip database
Copy OK

Track 10

Filename D:\Temp\CDRips\10. Blank & Jones - Heartbeat (Video Mix).wav

Pre-gap length 0:00:01.00

Peak level 96.6 %
Track quality 100.0 %
Test CRC A73057B4
Copy CRC A73057B4
Track not present in AccurateRip database
Copy OK

Track 11

Filename D:\Temp\CDRips\11. Blank & Jones - Nightclubbing (Wippenberg Remix Short).wav

Pre-gap length 0:00:01.00

Peak level 96.6 %
Track quality 99.9 %
Test CRC 34E7A6BD
Copy CRC 34E7A6BD
Track not present in AccurateRip database
Copy OK

Track 12

Filename D:\Temp\CDRips\12. Blank & Jones - The Hardest Heart (Short Cut) (with Anne Clark).wav

Pre-gap length 0:00:01.00

Peak level 96.6 %
Track quality 100.0 %
Test CRC C91A6B26
Copy CRC C91A6B26
Track not present in AccurateRip database
Copy OK

Track 13

Filename D:\Temp\CDRips\13. Blank & Jones - Sound Of Machines (Short Cut).wav

Pre-gap length 0:00:01.00

Peak level 96.6 %
Track quality 100.0 %
Test CRC A533DA86
Copy CRC A533DA86
Track not present in AccurateRip database
Copy OK

Track 14

Filename D:\Temp\CDRips\14. Blank & Jones - DJ Culture (New Short Cut).wav

Pre-gap length 0:00:01.00

Peak level 96.6 %
Track quality 100.0 %
Test CRC FC1BEFDC
Copy CRC FC1BEFDC
Track not present in AccurateRip database
Copy OK

Track 15

Filename D:\Temp\CDRips\15. Blank & Jones - Sunrise (Radio Mix).wav

Pre-gap length 0:00:01.00

Peak level 96.6 %
Track quality 100.0 %
Test CRC A349B4F0
Copy CRC A349B4F0
Track not present in AccurateRip database
Copy OK

Track 16

Filename D:\Temp\CDRips\16. Blank & Jones - After Love (New Short Cut).wav

Pre-gap length 0:00:01.00

Peak level 96.6 %
Track quality 100.0 %
Test CRC EE1420CF
Copy CRC 62C70D7F
Track not present in AccurateRip database
Copy OK

Track 17

Filename D:\Temp\CDRips\17. Blank & Jones - Watching The Waves (Short Cut).wav

Pre-gap length 0:00:01.00

Peak level 96.6 %
Track quality 99.9 %
Test CRC 81E83E25
Copy CRC 70162BE3
Track not present in AccurateRip database
Copy OK

Track 18

Filename D:\Temp\CDRips\18. Blank & Jones - Unknown Treasure (Radio Cut) (with Claudia Bruecken).wav

Pre-gap length 0:00:01.00

Peak level 96.6 %
Track quality 100.0 %
Test CRC F1D8718D
Copy CRC F1D8718D
Track not present in AccurateRip database
Copy OK

Track 19

Filename D:\Temp\CDRips\19. Blank & Jones - Beyond Time (Short Cut).wav

Pre-gap length 0:00:01.00

Peak level 96.6 %
Track quality 100.0 %
Test CRC CC622DF9
Copy CRC CC622DF9
Track not present in AccurateRip database
Copy OK

Track 20

Filename D:\Temp\CDRips\20. Blank & Jones - Flying To The Moon (Radio Mix).wav

Pre-gap length 0:00:01.00

Peak level 96.6 %
Track quality 100.0 %
Test CRC C0CB18CF
Copy CRC C0CB18CF
Track not present in AccurateRip database
Copy OK

Track 21

Filename D:\Temp\CDRips\21. Blank & Jones - Revealed (Radio Version) (with Steve Kilbey).wav

Pre-gap length 0:00:01.00

Peak level 96.6 %
Track quality 100.0 %
Test CRC CE82747E
Copy CRC CE82747E
Track not present in AccurateRip database
Copy OK

Track 22

Filename D:\Temp\CDRips\22. Blank & Jones - The Nightfly (WMC 06 Retouch).wav

Pre-gap length 0:00:01.00

Peak level 98.8 %
Track quality 100.0 %
Test CRC F08F400F
Copy CRC F08F400F
Track not present in AccurateRip database
Copy OK


None of the tracks are present in the AccurateRip database

No errors occurred

End of status report


Tracklist:
01. A Forest (Short Cut) 03:34
02. Perfect Silence (Short Cut) 03:20
03. Catch (Radio/Video Mix) 03:19
04. The Nightfly (Short Cut) 03:54
05. Cream (Radio Edit) 03:17
06. Desire (Short Cut) 03:24
07. Mind Of The Wonderful (Short Cut) 04:10
08. Somebody (Never Wait) 03:52
09. DJs, Fans & Freaks (D.F.F.) (Radio Cut) 02:44
10. Heartbeat (Video Mix) 03:28
11. Nightclubbing (Wippenberg Remix Short) 03:29
12. The Hardest Heart (Short Cut) 03:34
13. Sound Of Machines (Short Cut) 03:02
14. DJ Culture (New Short Cut) 03:11
15. Sunrise (Radio Mix) 03:37
16. After Love (New Short Cut) 03:48
17. Watching The Waves (Short Cut) 03:38
18. Unknown Treasure (Radio Cut) 03:59
19. Beyond Time (Short Cut) 03:35
20. Flying To The Moon (Radio Mix) 03:28
21. Revealed (Radio Version) 03:47
22. The Nightfly (WMC 06 Retouch) (Bonus Track) 03:26