Subcategories

Rodney Jones & Tommy Flanagan - My Funny Valentine (1981) {2015 Japan Timeless Jazz Master Collection Complete Series}

Posted By: ruskaval
Rodney Jones & Tommy Flanagan - My Funny Valentine (1981) {2015 Japan Timeless Jazz Master Collection Complete Series}

Rodney Jones & Tommy Flanagan - My Funny Valentine (1981) {2015 Japan Timeless Jazz Master Collection Complete Series}
EAC rip (secure mode) | FLAC (tracks)+CUE+LOG -> 220 Mb | MP3 @320 -> 93 Mb
Full Artwork @ 600 dpi (png) -> 259 Mb | 5% repair rar
© 1981, 2015 Timeless Records / Solid Records Japan / Ultra-Vibe | CDSOL-6340
Jazz / Post Bop / Contemporary Jazz / Guitar / Piano Trio

Reissue with the latest remastering. Features original cover artwork. Comes with a descripton in Japanese. That's kind of a creepy cover on the front – and it hardly does justice to an album with so much lyrical beauty as this – a great meeting between piano giant Tommy Flanagan and younger guitarist Rodney Jones! The record's got a feel that's a bit like a Flanagan trio session with added guitar – not to imply that Jones is just some extra element thrown into the mix, but just that Tommy's inherent sense of soulful swing really drives the proceedings right from the start – giving the whole thing maybe more focus than some of Jones' other records from the time, at a level that really opens him up as an old school-styled jazz guitarist!

Tracks are mostly standards, which fits the approach as well – but are handled beautifully by Major Holley on bass and Jesse Hameen on drums. Titles include "Giant Steps", "Oleo", "I'll Remember April", "Star Eyes", and "D Natural Blues".
Rodney Jones & Tommy Flanagan - My Funny Valentine (1981) {2015 Japan Timeless Jazz Master Collection Complete Series}


Ultra-Vibe INFO

Personnel:
Tommy Flanagan - piano)
Rodney Jones - guitar
Major Holley - bass
Jesse Hameen - drums

tracklist:
01 - Giant Steps
02 - Oleo
03 - I'll Remember April
04 - Yesterday
05 - D Natural Blues
06 - Star Eyes
07 - Morning Of The Carnival (Theme From Black Orpheus)
08 - My Funny Valentine

Exact Audio Copy V1.1 from 23. June 2015

EAC extraction logfile from 6. April 2016, 13:24

Rodney Jones / Tommy Flanagan Quartet / My Funny Valentine

Used drive : TSSTcorpCDDVDW SE-208DB Adapter: 1 ID: 0

Read mode : Secure
Utilize accurate stream : Yes
Defeat audio cache : Yes
Make use of C2 pointers : No

Read offset correction : 6
Overread into Lead-In and Lead-Out : No
Fill up missing offset samples with silence : Yes
Delete leading and trailing silent blocks : No
Null samples used in CRC calculations : Yes
Used interface : Native Win32 interface for Win NT & 2000
Gap handling : Appended to previous track

Used output format : User Defined Encoder
Selected bitrate : 1024 kBit/s
Quality : High
Add ID3 tag : No
Command line compressor : C:\Program Files (x86)\FLAC Frontend\tools\flac.exe
Additional command line options : -8 -V -T "ARTIST=%artist%" -T "TITLE=%title%" -T "ALBUM=%albumtitle%" -T "DATE=%year%" -T "TRACKNUMBER=%tracknr%" -T "TOTALTRACKS=%numtracks%" -T "GENRE=%genre%" -T "ALBUMARTIST=%albumartist%" -T "ALBUM ARTIST=%albumartist%" -T "COMMENT=EAC Secure Mode, Test & Copy, AccurateRip, FLAC -8" %source%


TOC of the extracted CD

Track | Start | Length | Start sector | End sector
––––––––––––––––––––––––––––-
1 | 0:00.00 | 4:30.62 | 0 | 20311
2 | 4:30.62 | 3:35.43 | 20312 | 36479
3 | 8:06.30 | 7:19.50 | 36480 | 69454
4 | 15:26.05 | 1:38.35 | 69455 | 76839
5 | 17:04.40 | 6:06.47 | 76840 | 104336
6 | 23:11.12 | 4:26.02 | 104337 | 124288
7 | 27:37.14 | 2:34.07 | 124289 | 135845
8 | 30:11.21 | 8:34.73 | 135846 | 174468


Track 1

Filename D:\_EAC\Rodney Jones & Tommy Flanagan - My Funny Valentine (1981) [FLAC] {CDSOL-6340}\01 - Giant Steps.wav

Pre-gap length 0:00:02.00

Peak level 97.3 %
Extraction speed 2.6 X
Track quality 100.0 %
Test CRC 0BAAB3C5
Copy CRC 0BAAB3C5
Accurately ripped (confidence 1) [A0F23884] (AR v2)
Copy OK

Track 2

Filename D:\_EAC\Rodney Jones & Tommy Flanagan - My Funny Valentine (1981) [FLAC] {CDSOL-6340}\02 - Oleo.wav

Peak level 97.3 %
Extraction speed 2.8 X
Track quality 100.0 %
Test CRC E6CF560C
Copy CRC E6CF560C
Accurately ripped (confidence 1) [ECA08C59] (AR v2)
Copy OK

Track 3

Filename D:\_EAC\Rodney Jones & Tommy Flanagan - My Funny Valentine (1981) [FLAC] {CDSOL-6340}\03 - I'll Remember April.wav

Peak level 97.3 %
Extraction speed 3.4 X
Track quality 100.0 %
Test CRC 292AEEB5
Copy CRC 292AEEB5
Accurately ripped (confidence 1) [D24E9CAC] (AR v2)
Copy OK

Track 4

Filename D:\_EAC\Rodney Jones & Tommy Flanagan - My Funny Valentine (1981) [FLAC] {CDSOL-6340}\04 - Yesterday.wav

Peak level 81.3 %
Extraction speed 2.9 X
Track quality 100.0 %
Test CRC BFF36FE0
Copy CRC BFF36FE0
Accurately ripped (confidence 1) [EA378D69] (AR v2)
Copy OK

Track 5

Filename D:\_EAC\Rodney Jones & Tommy Flanagan - My Funny Valentine (1981) [FLAC] {CDSOL-6340}\05 - D Natural Blues.wav

Peak level 97.3 %
Extraction speed 3.9 X
Track quality 100.0 %
Test CRC D6EC8E6F
Copy CRC D6EC8E6F
Accurately ripped (confidence 1) [01A93E1E] (AR v2)
Copy OK

Track 6

Filename D:\_EAC\Rodney Jones & Tommy Flanagan - My Funny Valentine (1981) [FLAC] {CDSOL-6340}\06 - Star Eyes.wav

Peak level 97.3 %
Extraction speed 4.0 X
Track quality 100.0 %
Test CRC A13E6EB0
Copy CRC A13E6EB0
Accurately ripped (confidence 1) [1CF46905] (AR v2)
Copy OK

Track 7

Filename D:\_EAC\Rodney Jones & Tommy Flanagan - My Funny Valentine (1981) [FLAC] {CDSOL-6340}\07 - Morning Of The Carnival (Theme From Black Orpheus).wav

Peak level 97.3 %
Extraction speed 3.8 X
Track quality 100.0 %
Test CRC 1489D41C
Copy CRC 1489D41C
Accurately ripped (confidence 1) [56AE1020] (AR v2)
Copy OK

Track 8

Filename D:\_EAC\Rodney Jones & Tommy Flanagan - My Funny Valentine (1981) [FLAC] {CDSOL-6340}\08 - My Funny Valentine.wav

Peak level 89.6 %
Extraction speed 4.7 X
Track quality 100.0 %
Test CRC EA32BCA9
Copy CRC EA32BCA9
Accurately ripped (confidence 1) [EAAD1471] (AR v2)
Copy OK


All tracks accurately ripped

No errors occurred

End of status report

==== Log checksum 071DC9C84068582960541D8330454F4ED30AA8317B1A29D0383629564460FC1C ====


Rodney Jones & Tommy Flanagan - My Funny Valentine (1981) {2015 Japan Timeless Jazz Master Collection Complete Series}

Rodney Jones & Tommy Flanagan - My Funny Valentine (1981) {2015 Japan Timeless Jazz Master Collection Complete Series}


see more Japan Timeless Jazz Master Collection…


===