Subcategories

José Miguel Moreno - Weiss: Ars Melancholiae (1994)

Posted By: delpotro
José Miguel Moreno - Weiss: Ars Melancholiae (1994)

José Miguel Moreno - Weiss: Ars Melancholiae (1994)
EAC Rip | FLAC (tracks+log+.cue) | 01:03:58 | 266 Mb
Classical | Label: Glossa Music

There was a point where the lute sonatas of Sylvius Leopold Weiss were so obscure that Andrés Segovia would play them on guitar thinking he was doing them a favor through reviving them on the "superior" instrument. However, Weiss played a 13-course lute and Segovia's Spanish classical guitar naturally has only six strings; while Segovia considered an instrument like Weiss' as having "too many strings," it is nevertheless the right one to play Weiss' music on, owing to its tone and special resonance. One of the finest players of 13-course lute is Spaniard José Miguel Moreno, who has played in Jordi Savall's group Hesperion XX and leads another, La Romanesca. Glossa's Sylvius Leopold Weiss: Ars Melancholiae consists of two complete Weiss sonatas, two chaconnes, and a little clutch of single pieces placed at the album's center; recorded in 1993, this is one of the finest single-disc collections devoted to Weiss ever. Moreno plays beautifully, making judicious use of the acoustic space in which he is performing and the negative space around him as well. The playing is fluid, controlled, and conforms very comfortably to the contours of Weiss' constant spinning out of contrapuntal lines; significant, as a large part of Weiss' appeal is his similarity of approach to Johann Sebastian Bach in terms of texture. The one thing here that seems a little questionable is the choice of pace in the Sarabande from the Sonata in D major; Moreno takes it very slowly, and on its own it is a very beautiful and striking artistic statement, full of color and space. However, it just seems a little too slow for a sarabande; one wonders if anyone could get away with playing a sarabande at such a tempo in the eighteenth century. Nevertheless, other than that – and admittedly the reservation stated is more a matter of curiosity than a criticism of the performance – Glossa's Sylvius Leopold Weiss: Ars Melancholiae is perfect, and it's hard to imagine why anyone who appreciates good music wouldn't want it.
Tracklist:
01 - Ciaconne
02 - Sonata in D major (K. 5) - I. Prelude
03 - Sonata in D major (K. 5) - II. Allemande
04 - Sonata in D major (K. 5) - III. Courante
05 - Sonata in D major (K. 5) - IV.Bouree
06 - Sonata in D major (K. 5) - V. Sarabande
07 - Sonata in D major (K. 5) - VI. Menuet
08 - Sonata in D major (K. 5) - VII. Passagaille
09 - Sonata in D major (K. 5) - VIII. Giga
10 - Prelude
11 - Menuet
12 - Fantasie
13 - Sonata in D minor (K. 9) - I. Prelude
14 - Sonata in D minor (K. 9) - II. Allemande
15 - Sonata in D minor (K. 9) - III. Courente
16 - Sonata in D minor (K. 9) - IV. Bouree
17 - Sonata in D minor (K. 9) - V. Menuet
18 - Sonata in D minor (K. 9) - VI. Sarabande
19 - Sonata in D minor (K. 9) - VII. Menuet
20 - Sonata in D minor (K. 9) - VIII. Gigue
21 - Ciacona

Exact Audio Copy V1.3 from 2. September 2016

EAC extraction logfile from 8. May 2017, 10:42

José Miguel Moreno / Ars Melancholiae

Used drive : TSSTcorpCDDVDW SU-208FB Adapter: 1 ID: 0

Read mode : Secure
Utilize accurate stream : Yes
Defeat audio cache : Yes
Make use of C2 pointers : No

Read offset correction : 6
Overread into Lead-In and Lead-Out : No
Fill up missing offset samples with silence : Yes
Delete leading and trailing silent blocks : No
Null samples used in CRC calculations : Yes
Used interface : Native Win32 interface for Win NT & 2000
Gap handling : Appended to previous track

Used output format : User Defined Encoder
Selected bitrate : 768 kBit/s
Quality : High
Add ID3 tag : No
Command line compressor : C:\Program Files (x86)\Exact Audio Copy\FLAC\FLAC.EXE
Additional command line options : -8 -e -V -T "ARTIST=%artist%" -T "TITLE=%title%" -T "ALBUM=%albumtitle%" -T "DATE=%year%" -T "TRACKNUMBER=%tracknr%" -T "GENRE=%genre%" -T "PERFORMER=%albuminterpret%" -T "COMPOSER=%composer%" %haslyrics%–tag-from-file=LYRICS="%lyricsfile%"%haslyrics% -T "ALBUMARTIST=%albumartist%" -T "DISCNUMBER=%cdnumber%" -T "TOTALDISCS=%totalcds%" -T "TOTALTRACKS=%numtracks%" -T "COMMENT=%comment%" %source% -o %dest%


TOC of the extracted CD

Track | Start | Length | Start sector | End sector
––––––––––––––––––––––––––––-
1 | 0:00.38 | 5:36.00 | 38 | 25237
2 | 5:36.38 | 2:19.00 | 25238 | 35662
3 | 7:55.38 | 4:49.00 | 35663 | 57337
4 | 12:44.38 | 3:59.00 | 57338 | 75262
5 | 16:43.38 | 1:40.00 | 75263 | 82762
6 | 18:23.38 | 4:55.00 | 82763 | 104887
7 | 23:18.38 | 1:31.00 | 104888 | 111712
8 | 24:49.38 | 7:32.00 | 111713 | 145612
9 | 32:21.38 | 3:08.00 | 145613 | 159712
10 | 35:29.38 | 2:04.00 | 159713 | 169012
11 | 37:33.38 | 2:16.00 | 169013 | 179212
12 | 39:49.38 | 2:31.00 | 179213 | 190537
13 | 42:20.38 | 2:02.00 | 190538 | 199687
14 | 44:22.38 | 3:33.00 | 199688 | 215662
15 | 47:55.38 | 1:58.00 | 215663 | 224512
16 | 49:53.38 | 2:13.00 | 224513 | 234487
17 | 52:06.38 | 1:21.00 | 234488 | 240562
18 | 53:27.38 | 2:34.00 | 240563 | 252112
19 | 56:01.38 | 1:06.00 | 252113 | 257062
20 | 57:07.38 | 1:59.00 | 257063 | 265987
21 | 59:06.38 | 4:52.00 | 265988 | 287887


Track 1

Filename C:\EAC Rips\Sylvius Leopold Weiss - José Miguel Moreno - Música para laúd (1994)[FLAC]{GCD 920102}\01 - Ciaconne.wav

Pre-gap length 0:00:02.38

Peak level 73.5 %
Extraction speed 1.1 X
Track quality 99.9 %
Test CRC E8D68FEC
Copy CRC E8D68FEC
Accurately ripped (confidence 4) [20674767] (AR v2)
Copy OK

Track 2

Filename C:\EAC Rips\Sylvius Leopold Weiss - José Miguel Moreno - Música para laúd (1994)[FLAC]{GCD 920102}\02 - Sonata in D major (K. 5) - I. Prelude.wav

Peak level 80.7 %
Extraction speed 1.2 X
Track quality 100.0 %
Test CRC AA2D46DD
Copy CRC AA2D46DD
Accurately ripped (confidence 4) [03A28F7A] (AR v2)
Copy OK

Track 3

Filename C:\EAC Rips\Sylvius Leopold Weiss - José Miguel Moreno - Música para laúd (1994)[FLAC]{GCD 920102}\03 - Sonata in D major (K. 5) - II. Allemande.wav

Peak level 75.5 %
Extraction speed 1.4 X
Track quality 100.0 %
Test CRC DA98AC7A
Copy CRC DA98AC7A
Accurately ripped (confidence 4) [97C93BB1] (AR v2)
Copy OK

Track 4

Filename C:\EAC Rips\Sylvius Leopold Weiss - José Miguel Moreno - Música para laúd (1994)[FLAC]{GCD 920102}\04 - Sonata in D major (K. 5) - III. Courante.wav

Peak level 95.1 %
Extraction speed 1.5 X
Track quality 100.0 %
Test CRC C948F762
Copy CRC C948F762
Accurately ripped (confidence 4) [1C49158C] (AR v2)
Copy OK

Track 5

Filename C:\EAC Rips\Sylvius Leopold Weiss - José Miguel Moreno - Música para laúd (1994)[FLAC]{GCD 920102}\05 - Sonata in D major (K. 5) - IV.Bouree.wav

Peak level 75.6 %
Extraction speed 1.2 X
Track quality 100.0 %
Test CRC DDE33CC9
Copy CRC DDE33CC9
Accurately ripped (confidence 4) [0D1EFA1D] (AR v2)
Copy OK

Track 6

Filename C:\EAC Rips\Sylvius Leopold Weiss - José Miguel Moreno - Música para laúd (1994)[FLAC]{GCD 920102}\06 - Sonata in D major (K. 5) - V. Sarabande.wav

Peak level 56.0 %
Extraction speed 1.6 X
Track quality 100.0 %
Test CRC 6598F5BC
Copy CRC 6598F5BC
Accurately ripped (confidence 4) [D5BA7EE6] (AR v2)
Copy OK

Track 7

Filename C:\EAC Rips\Sylvius Leopold Weiss - José Miguel Moreno - Música para laúd (1994)[FLAC]{GCD 920102}\07 - Sonata in D major (K. 5) - VI. Menuet.wav

Peak level 73.5 %
Extraction speed 1.3 X
Track quality 100.0 %
Test CRC 1DC9CDEF
Copy CRC 1DC9CDEF
Accurately ripped (confidence 4) [05A12652] (AR v2)
Copy OK

Track 8

Filename C:\EAC Rips\Sylvius Leopold Weiss - José Miguel Moreno - Música para laúd (1994)[FLAC]{GCD 920102}\08 - Sonata in D major (K. 5) - VII. Passagaille.wav

Peak level 87.5 %
Extraction speed 1.9 X
Track quality 100.0 %
Test CRC 0BCAE5DE
Copy CRC 0BCAE5DE
Accurately ripped (confidence 4) [007C6271] (AR v2)
Copy OK

Track 9

Filename C:\EAC Rips\Sylvius Leopold Weiss - José Miguel Moreno - Música para laúd (1994)[FLAC]{GCD 920102}\09 - Sonata in D major (K. 5) - VIII. Giga.wav

Peak level 95.5 %
Extraction speed 1.7 X
Track quality 100.0 %
Test CRC 9A87A454
Copy CRC 9A87A454
Accurately ripped (confidence 4) [DBDC159A] (AR v2)
Copy OK

Track 10

Filename C:\EAC Rips\Sylvius Leopold Weiss - José Miguel Moreno - Música para laúd (1994)[FLAC]{GCD 920102}\10 - Prelude.wav

Peak level 73.9 %
Extraction speed 1.6 X
Track quality 100.0 %
Test CRC 047E2434
Copy CRC 047E2434
Accurately ripped (confidence 4) [2FB6F605] (AR v2)
Copy OK

Track 11

Filename C:\EAC Rips\Sylvius Leopold Weiss - José Miguel Moreno - Música para laúd (1994)[FLAC]{GCD 920102}\11 - Menuet.wav

Peak level 81.4 %
Extraction speed 1.7 X
Track quality 100.0 %
Test CRC 3F01B364
Copy CRC 3F01B364
Accurately ripped (confidence 4) [A2D79E4F] (AR v2)
Copy OK

Track 12

Filename C:\EAC Rips\Sylvius Leopold Weiss - José Miguel Moreno - Música para laúd (1994)[FLAC]{GCD 920102}\12 - Fantasie.wav

Peak level 95.5 %
Extraction speed 1.8 X
Track quality 100.0 %
Test CRC E2C47811
Copy CRC E2C47811
Accurately ripped (confidence 4) [5DD2F819] (AR v2)
Copy OK

Track 13

Filename C:\EAC Rips\Sylvius Leopold Weiss - José Miguel Moreno - Música para laúd (1994)[FLAC]{GCD 920102}\13 - Sonata in D minor (K. 9) - I. Prelude.wav

Peak level 78.0 %
Extraction speed 1.7 X
Track quality 100.0 %
Test CRC DED68E8C
Copy CRC DED68E8C
Accurately ripped (confidence 4) [A6E6904D] (AR v2)
Copy OK

Track 14

Filename C:\EAC Rips\Sylvius Leopold Weiss - José Miguel Moreno - Música para laúd (1994)[FLAC]{GCD 920102}\14 - Sonata in D minor (K. 9) - II. Allemande.wav

Peak level 93.6 %
Extraction speed 2.0 X
Track quality 100.0 %
Test CRC B2E93D83
Copy CRC B2E93D83
Accurately ripped (confidence 4) [D332CB7D] (AR v2)
Copy OK

Track 15

Filename C:\EAC Rips\Sylvius Leopold Weiss - José Miguel Moreno - Música para laúd (1994)[FLAC]{GCD 920102}\15 - Sonata in D minor (K. 9) - III. Courente.wav

Peak level 91.7 %
Extraction speed 1.8 X
Track quality 100.0 %
Test CRC 4501BC11
Copy CRC 4501BC11
Accurately ripped (confidence 4) [2684E640] (AR v2)
Copy OK

Track 16

Filename C:\EAC Rips\Sylvius Leopold Weiss - José Miguel Moreno - Música para laúd (1994)[FLAC]{GCD 920102}\16 - Sonata in D minor (K. 9) - IV. Bouree.wav

Peak level 95.5 %
Extraction speed 1.9 X
Track quality 100.0 %
Test CRC 156937C3
Copy CRC 156937C3
Accurately ripped (confidence 4) [4A3CD735] (AR v2)
Copy OK

Track 17

Filename C:\EAC Rips\Sylvius Leopold Weiss - José Miguel Moreno - Música para laúd (1994)[FLAC]{GCD 920102}\17 - Sonata in D minor (K. 9) - V. Menuet.wav

Peak level 57.4 %
Extraction speed 1.2 X
Track quality 99.8 %
Test CRC 0219FAE2
Copy CRC 0219FAE2
Accurately ripped (confidence 4) [8A5D2A16] (AR v2)
Copy OK

Track 18

Filename C:\EAC Rips\Sylvius Leopold Weiss - José Miguel Moreno - Música para laúd (1994)[FLAC]{GCD 920102}\18 - Sonata in D minor (K. 9) - VI. Sarabande.wav

Peak level 63.0 %
Extraction speed 1.6 X
Track quality 99.9 %
Test CRC 66BB2C35
Copy CRC 66BB2C35
Accurately ripped (confidence 4) [BFB7A3D7] (AR v2)
Copy OK

Track 19

Filename C:\EAC Rips\Sylvius Leopold Weiss - José Miguel Moreno - Música para laúd (1994)[FLAC]{GCD 920102}\19 - Sonata in D minor (K. 9) - VII. Menuet.wav

Peak level 95.5 %
Extraction speed 1.5 X
Track quality 100.0 %
Test CRC 6EE25356
Copy CRC 6EE25356
Accurately ripped (confidence 4) [470191F8] (AR v2)
Copy OK

Track 20

Filename C:\EAC Rips\Sylvius Leopold Weiss - José Miguel Moreno - Música para laúd (1994)[FLAC]{GCD 920102}\20 - Sonata in D minor (K. 9) - VIII. Gigue.wav

Peak level 85.5 %
Extraction speed 1.9 X
Track quality 100.0 %
Test CRC 85E8C682
Copy CRC 85E8C682
Accurately ripped (confidence 4) [3B725B17] (AR v2)
Copy OK

Track 21

Filename C:\EAC Rips\Sylvius Leopold Weiss - José Miguel Moreno - Música para laúd (1994)[FLAC]{GCD 920102}\21 - Ciacona.wav

Peak level 69.0 %
Extraction speed 1.0 X
Track quality 100.0 %
Test CRC A90082F5
Copy CRC A90082F5
Accurately ripped (confidence 4) [BFB7975F] (AR v2)
Copy OK


All tracks accurately ripped

No errors occurred

End of status report

–– CUETools DB Plugin V2.1.6

[CTDB TOCID: a_eZomQYMOET9ATyAp6n8bVE4X8-] found
Submit result: a_eZomQYMOET9ATyAp6n8bVE4X8- has been confirmed
Track | CTDB Status
1 | (16/17) Accurately ripped
2 | (16/17) Accurately ripped
3 | (16/17) Accurately ripped
4 | (16/17) Accurately ripped
5 | (16/17) Accurately ripped
6 | (16/17) Accurately ripped
7 | (16/17) Accurately ripped
8 | (16/17) Accurately ripped
9 | (16/17) Accurately ripped
10 | (16/17) Accurately ripped
11 | (16/17) Accurately ripped
12 | (16/17) Accurately ripped
13 | (16/17) Accurately ripped
14 | (16/17) Accurately ripped
15 | (16/17) Accurately ripped
16 | (16/17) Accurately ripped
17 | (16/17) Accurately ripped
18 | (16/17) Accurately ripped
19 | (16/17) Accurately ripped
20 | (16/17) Accurately ripped
21 | (16/17) Accurately ripped


==== Log checksum DCA72760313089539FB6FB06B7232160805C8CCFB2D1424B5AD6C4A8F4C88238 ====

Thanks to the Original ripper StockholmSynT !