Subcategories

Juan Gutierrez de Padilla - Mexico Barroco: Puebla I - Maitines de Navidad (FLAC & MP3)

Posted By: iVic
Juan Gutierrez de Padilla - Mexico Barroco: Puebla I - Maitines de Navidad (FLAC & MP3)

Juan Gutierrez de Padilla - Mexico Barroco: Puebla I - Maitines de Navidad
Benjamín Juárez Echenique (Conducer) - Schola Cantorum de Mexico & Angelicum de Puebla (Performers)
EAC Rip | FLAC | LOG | 1CD | 289 MB | Cover | RAR
EAC Rip | MP3 [Preset fast extreme] | LOG | 1CD | 139 MB | Cover | RAR
Genre: Classical Baroque | Label: URTEXT | Year: 1995

Like most Spanish maestros de capilla, Puebla, Mexico, Padilla composed a great number of chanzonetas or villancicos. These charming and melodious works encompass exquisite charm and refined elegance to unabashed humour; they are frequently framed with dance rhythms, often in a characteristic uneven triple time with abundant syncopation. All the words in this gender have melodic instrumental lines and accompaniments with great variety of possibilites: from a solo voice to a full choir.

The instruments were characteristic of Renaissence music: recorders, dulzian, shawms, cornets, voils, organ, crumhorns, etc. In Mexico, villancicos achieved such popularity that they were published even when paper was very scarce, and important works such as some writings of Sor Juana Inés de la Cruz could not be printed.

Exact Audio Copy V0.99 prebeta 5 from 4. May 2009

Archivo Log de extracciones desde 6. Julio 2010, 15:13

Juan Gutierrez de Padilla / Mexico Barroco - Puebla 1

Usar unidad : Optiarc DVD RW AD-7590S Adapter: 1 ID: 0

Modo de Lectura : Seguro
Utilizar Corriente Exacta : Sí
Descartar Audio caché : No
Utilizar los punteros C2 : Sí

Corrección de Desplazamiento de Lectura : 0
Sobreleer tanto en Lead-In como en Lead-Out : No
Rellenar las muestras faltantes con silencios : Sí
Eliminar silencios inicial y final : No
Se han usado muestras nulas en los cálculos CRC : Sí
Interfaz usada : Interfaz propio de Win32 para Windowns NT y 2000

Formato de Salida utilizado : Compresor definido por el usuario
Bitrate seleccionado : 192 kBit/s
Calidad : Alta
Añadir Etiqueta ID3 : No
Compresor de linea de comandos : C:\Program Files\Exact Audio Copy\Flac\flac.exe
Opciones adicionales en línea de comandos : -8 -T "artist=%a" -T "title=%t" -T "album=%g" -T "date=%y" -T "tracknumber=%n" -T "genre=%m" %s


TOC del CD extraido

Pista | Inicio | Duración | Sector inicial | Sector final
––––––––––––––––––––––––––––––-
1 | 0:00.32 | 4:17.70 | 32 | 19376
2 | 4:18.27 | 11:29.20 | 19377 | 71071
3 | 15:47.47 | 5:39.05 | 71072 | 96501
4 | 21:26.52 | 4:49.23 | 96502 | 118199
5 | 26:16.00 | 5:37.70 | 118200 | 143544
6 | 31:53.70 | 7:28.65 | 143545 | 177209
7 | 39:22.60 | 5:33.52 | 177210 | 202236
8 | 44:56.37 | 4:21.38 | 202237 | 221849
9 | 49:18.00 | 3:50.45 | 221850 | 239144
10 | 53:08.45 | 2:46.55 | 239145 | 251649


Gama de estados y errores

Seleccionar gama

Nombre de Archivo C:\Users\Administrador\Music\EAC\Juan Gutierrez de Padilla - Mexico Barroco - Puebla 1.wav

Nivel Pico 98.8 %
Gama de Calidad 100.0 %
Copiar CRC 2E2B2CC4
Copia OK

Sin Errores

Final del Informe


Tracklist.

1. Villancico I: Alto, zagales de todo el ejido.
2. Villancico II: A la jácara, jacarilla.
3. Villancico III: No hay zagal como Gilillo.
4. Villancico IV: Pues el cielo se viene a la choza.
5. Villancico V: Oíd, zagales, atentos.
6. Villancico VI: Si al nacer o mi niño.
7. Villancico VII: De carámbanos el día.
8. Villancico VIII: ¡Ah, siolo Flasiquillo!
9. Villancico IX: ¡Albricias, pastores!
10. Himno: Christus natus est nobis.