Subcategories

Julio Iglesias - Mi Vida: Grandes Exitos (2CD, 1998)

Posted By: Speedyclick
Julio Iglesias - Mi Vida: Grandes Exitos (2CD, 1998)

Julio Iglesias - Mi Vida: Grandes Exitos (2CD, 1998)
EAC Rip | FLAC (image & cue & log) | tracks: 38 | ~ 1.02 Gb | 2:28:24 | Full Scans
Label: Sony Music | Genre: Pop, ballads, latin

Maybe the most rich and beautiful compilation of Julio great million sellers. You will find songs from his first LPs till 1998. Ballads, latin classics, tangos and some excellent duets. Enjoy the most tender voice of 20th century, the one and only Julio Iglesias, in lossless.

TRACKLIST

CD1: 492 Mb, 1:13:08
01. La Gota Fria
02. Soy Un Truhan, Soy Un Senor
03. Me Olvide De Vivir
04. Quijote
05. Momentos
06. La Nave Del Olvido
07. Que Nadie Sepa Mi Sufrir
08. Nathalie
09. De Nina A Mujer
10. Ni Te Tengo Ni Te Olvido
11. Felicidades (duet with D. Pedro Vargas)
12. Que No Se Rompa La Noche
13. Lo Mejor De Tu Vida
14. Milonga (Medley): a. Milonga Sentimental, b. Vivo
15. Agua Dulce, Agua Sala
16. Vuela Alto
17. Baila Morena
18. La Cumparsita
19. Bamboleo

CD2: 479 Mb, 1:15:16
01. Un Canto A Galicia
02. Hey
03. La Vida Sigue Igual
04. Abrazame
05. To All The Girls I`ve Loved Before (duet with Willie Nelson)
06. 33 Anos
07. Manuela
08. All Of You (duet with Diana Ross)
09. Ae, Ao
10. Caruso
11. A Media Luz
12. La Carretera
13. Can`t Help Falling In Love
14. Crazy
15. When You Tell Me That You Love Me (duet with Dolly Parton)
16. Por El Amor De Una Mujer
17. Smoke Gets In Your Eyes (duet with All-4-One)
18. My Way (A Mi Manera) (duet with Paul Anka)
19. Me Va, Me Va

Exact Audio Copy V0.99 prebeta 4 from 23. January 2008

Отчёт EAC об извлечении, выполненном 22. февраля 2009, 21:14

Julio Iglesias / Mi Vida - Grandes Exitos (Disc 1)

Дисковод: ASUS DRW-20B1LT Adapter: 3 ID: 0

Режим чтения : Достоверность
Использование точного потока : Да
Отключение кэша аудио : Да
Использование указателей C2 : Нет

Коррекция смещения при чтении : 6
Способность читать области Lead-in и Lead-out : Нет
Заполнение пропущенных сэмплов тишиной : Да
Удаление блоков с тишиной в начале и конце : Нет
При вычислениях CRC использовались нулевые сэмплы : Да
Интерфейс : Встроенный Win32-интерфейс для Win NT/2000

Выходной формат : Внутренние WAV-операции
Формат сэмплов : 44.100 Гц; 16 бит; стерео


TOC извлечённого CD

Трек | Старт | Длительность | Начальный сектор | Конечный сектор
––––––––––––––––––––––––––––––––––-
1 | 0:00.00 | 3:36.00 | 0 | 16199
2 | 3:36.00 | 3:03.57 | 16200 | 29981
3 | 6:39.57 | 4:52.08 | 29982 | 51889
4 | 11:31.65 | 4:02.02 | 51890 | 70041
5 | 15:33.67 | 3:34.08 | 70042 | 86099
6 | 19:08.00 | 4:12.60 | 86100 | 105059
7 | 23:20.60 | 3:20.72 | 105060 | 120131
8 | 26:41.57 | 3:55.48 | 120132 | 137804
9 | 30:37.30 | 3:16.47 | 137805 | 152551
10 | 33:54.02 | 4:00.65 | 152552 | 170616
11 | 37:54.67 | 3:47.13 | 170617 | 187654
12 | 41:42.05 | 4:26.62 | 187655 | 207666
13 | 46:08.67 | 4:17.13 | 207667 | 226954
14 | 50:26.05 | 4:04.20 | 226955 | 245274
15 | 54:30.25 | 4:24.35 | 245275 | 265109
16 | 58:54.60 | 3:10.05 | 265110 | 279364
17 | 62:04.65 | 3:50.05 | 279365 | 296619
18 | 65:54.70 | 2:34.32 | 296620 | 308201
19 | 68:29.27 | 4:39.38 | 308202 | 329164


Характеристики диапазона извлечения и сообщения об ошибках

Выбранный диапазон

Имя файла E:\Audio lossless\Julio Iglesias\Julio Iglesias - Mi Vida - Grandes Exitos (Disc 1).wav

Пиковый уровень 98.8 %
Качество диапазона 99.9 %
CRC копии 4BE10777
Копирование… OK

Ошибок не произошло


AccurateRip: сводка

Трек 1 точность не определена (достоверность 2) [84FD6B0B], AccurateRip вернул [F0F77B33]
Трек 2 точность не определена (достоверность 2) [65603C8D], AccurateRip вернул [4F09A253]
Трек 3 точность не определена (достоверность 2) [48826958], AccurateRip вернул [44CB840F]
Трек 4 точность не определена (достоверность 2) [A7985D00], AccurateRip вернул [BF8E2908]
Трек 5 точность не определена (достоверность 2) [0CDB584D], AccurateRip вернул [549D5D52]
Трек 6 точность не определена (достоверность 2) [98575DDA], AccurateRip вернул [83351684]
Трек 7 точность не определена (достоверность 2) [892CF7E2], AccurateRip вернул [B4238F1A]
Трек 8 точность не определена (достоверность 2) [E45F5243], AccurateRip вернул [3EC78950]
Трек 9 точность не определена (достоверность 2) [5571D92E], AccurateRip вернул [A12B7F1E]
Трек 10 нет в базе данных
Трек 11 нет в базе данных
Трек 12 нет в базе данных
Трек 13 нет в базе данных
Трек 14 нет в базе данных
Трек 15 нет в базе данных
Трек 16 нет в базе данных
Трек 17 нет в базе данных
Трек 18 точность не определена (достоверность 2) [A1E5F25D], AccurateRip вернул [0DE614E7]
Трек 19 нет в базе данных

0 трек(и) не удалось проверить на точность
9 трек(и) не содержатся в базе AccurateRip

Ни один трек не прошёл проверки на точность
В вашей базе может быть иной вариант штамповки диска

Конец отчёта

Exact Audio Copy V0.99 prebeta 4 from 23. January 2008

Отчёт EAC об извлечении, выполненном 22. февраля 2009, 21:26

Julio Iglesias / Mi Vida - Grandes Exitos (Disc 2)

Дисковод: ASUS DRW-20B1LT Adapter: 3 ID: 0

Режим чтения : Достоверность
Использование точного потока : Да
Отключение кэша аудио : Да
Использование указателей C2 : Нет

Коррекция смещения при чтении : 6
Способность читать области Lead-in и Lead-out : Нет
Заполнение пропущенных сэмплов тишиной : Да
Удаление блоков с тишиной в начале и конце : Нет
При вычислениях CRC использовались нулевые сэмплы : Да
Интерфейс : Встроенный Win32-интерфейс для Win NT/2000

Выходной формат : Внутренние WAV-операции
Формат сэмплов : 44.100 Гц; 16 бит; стерео


TOC извлечённого CD

Трек | Старт | Длительность | Начальный сектор | Конечный сектор
––––––––––––––––––––––––––––––––––-
1 | 0:00.00 | 4:32.15 | 0 | 20414
2 | 4:32.15 | 4:58.52 | 20415 | 42816
3 | 9:30.67 | 2:16.15 | 42817 | 53031
4 | 11:47.07 | 3:15.38 | 53032 | 67694
5 | 15:02.45 | 3:32.45 | 67695 | 83639
6 | 18:35.15 | 3:35.07 | 83640 | 99771
7 | 22:10.22 | 3:38.50 | 99772 | 116171
8 | 25:48.72 | 3:58.48 | 116172 | 134069
9 | 29:47.45 | 3:18.70 | 134070 | 148989
10 | 33:06.40 | 5:49.47 | 148990 | 175211
11 | 38:56.12 | 2:42.40 | 175212 | 187401
12 | 41:38.52 | 5:06.48 | 187402 | 210399
13 | 46:45.25 | 3:20.32 | 210400 | 225431
14 | 50:05.57 | 3:16.18 | 225432 | 240149
15 | 53:22.00 | 4:01.07 | 240150 | 258231
16 | 57:23.07 | 3:53.48 | 258232 | 275754
17 | 61:16.55 | 3:35.67 | 275755 | 291946
18 | 64:52.47 | 4:24.63 | 291947 | 311809
19 | 69:17.35 | 5:58.65 | 311810 | 338724


Характеристики диапазона извлечения и сообщения об ошибках

Выбранный диапазон

Имя файла E:\Audio lossless\Julio Iglesias\Julio Iglesias - Mi Vida - Grandes Exitos (Disc 2).wav

Пиковый уровень 98.8 %
Качество диапазона 100.0 %
CRC копии B1249199
Копирование… OK

Ошибок не произошло


AccurateRip: сводка

Трек 1 точность не определена (достоверность 3) [710E8D8E], AccurateRip вернул [79CA2D06]
Трек 2 точность не определена (достоверность 3) [AB24C6FE], AccurateRip вернул [CBA71EAC]
Трек 3 точность не определена (достоверность 3) [DC754ECD], AccurateRip вернул [A6CFBA9F]
Трек 4 точность не определена (достоверность 3) [B5D90D51], AccurateRip вернул [60044241]
Трек 5 точность не определена (достоверность 3) [77483C13], AccurateRip вернул [7C69EF73]
Трек 6 точность не определена (достоверность 3) [4890747A], AccurateRip вернул [89B41645]
Трек 7 точность не определена (достоверность 3) [8C4FC3B1], AccurateRip вернул [7C0DB5DF]
Трек 8 точность не определена (достоверность 3) [CD1A3F1E], AccurateRip вернул [20DA66F4]
Трек 9 точность не определена (достоверность 3) [AE7E60D5], AccurateRip вернул [8925B880]
Трек 10 точность не определена (достоверность 2) [1F03E395], AccurateRip вернул [56B8328E]
Трек 11 точность не определена (достоверность 3) [D187704C], AccurateRip вернул [C93EC4AA]
Трек 12 точность не определена (достоверность 3) [D54D9926], AccurateRip вернул [CBBE4EFD]
Трек 13 точность не определена (достоверность 3) [3F418F93], AccurateRip вернул [5A0737E3]
Трек 14 точность не определена (достоверность 3) [BE8A9DA8], AccurateRip вернул [A5C40010]
Трек 15 точность не определена (достоверность 3) [6D5F23A1], AccurateRip вернул [9261B39B]
Трек 16 точность не определена (достоверность 3) [EBC627E9], AccurateRip вернул [50A9F83C]
Трек 17 точность не определена (достоверность 3) [168A4686], AccurateRip вернул [A4BEDB79]
Трек 18 точность не определена (достоверность 3) [F5DEEC66], AccurateRip вернул [5F82DD71]
Трек 19 точность не определена (достоверность 3) [F45524FA], AccurateRip вернул [04D33995]

Ни один трек не прошёл проверки на точность
В вашей базе может быть иной вариант штамповки диска

Конец отчёта